<?xml version="1.0" standalone="no"?>
<!DOCTYPE svg PUBLIC "-//W3C//DTD SVG 1.1//EN" "http://www.w3.org/Graphics/SVG/1.1/DTD/svg11.dtd" >
<svg xmlns="http://www.w3.org/2000/svg" xmlns:xlink="http://www.w3.org/1999/xlink" version="1.1">
<metadata>
Created by FontForge 20170731 at Fri Feb  5 17:50:01 2016
 By Aleksey,,,
Copyright (c) 2014-2015 by Ryoichi Tsunekawa. All rights reserved.
</metadata>
<defs>
<font id="BioSans-SemiBold" horiz-adv-x="366" >
  <font-face 
    font-family="Bio Sans SemiBold"
    font-weight="600"
    font-stretch="normal"
    units-per-em="1000"
    panose-1="2 11 6 6 2 2 2 4 2 4"
    ascent="800"
    descent="-200"
    x-height="519"
    cap-height="680"
    bbox="-174 -247 1088 1102"
    underline-thickness="62"
    underline-position="-224"
    unicode-range="U+000D-FB02"
  />
<missing-glyph horiz-adv-x="684" 
d="M81 0v680h522v-680h-522zM343 408l132 200h-265zM156 133l137 207l-137 207v-414zM528 133v414l-137 -207zM210 72h265l-132 200z" />
    <glyph glyph-name="fi" unicode="fi" horiz-adv-x="615" 
d="M97 0v426h-87v93h87v45q0 166 148 166h99v-95h-63q-35 0 -49.5 -16.5t-14.5 -56.5v-43h122v-93h-122v-426h-120zM418 602v113h128v-113h-128zM422 0v519h120v-519h-120z" />
    <glyph glyph-name="fl" unicode="fl" horiz-adv-x="615" 
d="M97 0v426h-87v93h87v45q0 166 148 166h99v-95h-63q-35 0 -49.5 -16.5t-14.5 -56.5v-43h122v-93h-122v-426h-120zM422 0v730h120v-730h-120z" />
    <glyph glyph-name=".notdef" horiz-adv-x="684" 
d="M81 0v680h522v-680h-522zM343 408l132 200h-265zM156 133l137 207l-137 207v-414zM528 133v414l-137 -207zM210 72h265l-132 200z" />
    <glyph glyph-name=".null" horiz-adv-x="0" 
 />
    <glyph glyph-name="nonmarkingreturn" horiz-adv-x="333" 
 />
    <glyph glyph-name="CR" unicode="&#xd;" horiz-adv-x="251" 
 />
    <glyph glyph-name="space" unicode=" " horiz-adv-x="251" 
 />
    <glyph glyph-name="exclam" unicode="!" horiz-adv-x="301" 
d="M107 214l-16 279l-3 187h126l-3 -187l-17 -279h-87zM85 0v130h130v-130h-130z" />
    <glyph glyph-name="quotedbl" unicode="&#x22;" horiz-adv-x="433" 
d="M71 419l-15 261h121l-14 -261h-92zM270 419l-15 261h121l-14 -261h-92z" />
    <glyph glyph-name="numbersign" unicode="#" horiz-adv-x="599" 
d="M94 0l21 170h-75v87h86l22 176h-75v87h86l20 160h103l-20 -160h120l20 160h103l-20 -160h74v-87h-85l-22 -176h74v-87h-85l-21 -170h-103l21 170h-120l-21 -170h-103zM229 257h120l22 176h-120z" />
    <glyph glyph-name="dollar" unicode="$" horiz-adv-x="599" 
d="M253 -72v74q-100 8 -147.5 57t-47.5 141h110q0 -84 85 -99v193q-101 19 -144.5 62.5t-43.5 126.5q0 175 188 195v74h95v-74q177 -20 177 -193h-110q0 74 -67 92v-185q103 -18 148 -63.5t45 -131.5q0 -176 -193 -195v-74h-95zM253 412v167q-70 -16 -70 -82q0 -60 70 -85z
M348 101q75 15 75 83q0 33 -17.5 54.5t-57.5 34.5v-172z" />
    <glyph glyph-name="percent" unicode="%" horiz-adv-x="778" 
d="M184 312q-73 0 -111 34t-38 100v112q0 66 38 100t111 34t111 -34t38 -100v-112q0 -66 -38 -100t-111 -34zM141 -12l405 704h92l-405 -704h-92zM185 389q58 0 58 62v103q0 61 -58 61q-59 0 -59 -61v-103q0 -62 59 -62zM593 -12q-73 0 -111 34t-38 100v112q0 66 38 100
t111 34t111 -34t38 -100v-112q0 -66 -38 -100t-111 -34zM594 65q58 0 58 62v103q0 61 -58 61q-59 0 -59 -61v-103q0 -62 59 -62z" />
    <glyph glyph-name="ampersand" unicode="&#x26;" horiz-adv-x="672" 
d="M271 -12q-107 0 -168 51t-61 141q0 62 31 109t100 88q-56 73 -56 143q0 79 50 125.5t139 46.5q83 0 129.5 -40.5t46.5 -111.5q0 -58 -33 -100t-110 -82l123 -138q19 54 24 128h117q-14 -131 -64 -214l119 -134h-157l-40 46q-78 -58 -190 -58zM275 429q55 28 77.5 52
t22.5 56q0 28 -19 45t-53 17q-36 0 -56 -19t-20 -55q0 -40 48 -96zM287 88q62 0 108 34l-159 182q-73 -48 -73 -112q0 -49 33 -76.5t91 -27.5z" />
    <glyph glyph-name="quotesingle" unicode="'" horiz-adv-x="236" 
d="M71 419l-15 261h123l-15 -261h-93z" />
    <glyph glyph-name="parenleft" unicode="(" horiz-adv-x="341" 
d="M323 -130q-126 33 -194.5 146.5t-68.5 289.5t68.5 289.5t194.5 146.5v-92q-150 -72 -150 -344t150 -344v-92z" />
    <glyph glyph-name="parenright" unicode=")" horiz-adv-x="341" 
d="M18 -130v92q150 72 150 344t-150 344v92q126 -33 194.5 -146.5t68.5 -289.5t-68.5 -289.5t-194.5 -146.5z" />
    <glyph glyph-name="asterisk" unicode="*" horiz-adv-x="418" 
d="M131 290l-73 54l91 117l-138 35l28 90l134 -54l-9 148h91l-9 -148l134 54l28 -90l-140 -36l91 -116l-73 -54l-77 127z" />
    <glyph glyph-name="plus" unicode="+" horiz-adv-x="599" 
d="M249 54v206h-195v98h195v206h101v-206h195v-98h-195v-206h-101z" />
    <glyph glyph-name="comma" unicode="," horiz-adv-x="286" 
d="M72 -158v69q55 2 55 66v23h-49v130h130v-128q0 -81 -33 -120t-103 -40z" />
    <glyph glyph-name="hyphen" unicode="-" horiz-adv-x="377" 
d="M33 241v109h310v-109h-310z" />
    <glyph glyph-name="period" unicode="." horiz-adv-x="286" 
d="M78 0v130h130v-130h-130z" />
    <glyph glyph-name="slash" unicode="/" horiz-adv-x="456" 
d="M4 -140l341 870h108l-341 -870h-108z" />
    <glyph glyph-name="zero" unicode="0" horiz-adv-x="599" 
d="M299 -12q-117 0 -178.5 58t-61.5 170v248q0 112 61.5 170t178.5 58q118 0 179.5 -58t61.5 -170v-248q0 -112 -61.5 -170t-179.5 -58zM299 92q62 0 91.5 31.5t29.5 98.5v236q0 67 -29.5 98.5t-91.5 31.5t-91 -31.5t-29 -98.5v-236q0 -67 29 -98.5t91 -31.5z" />
    <glyph glyph-name="one" unicode="1" horiz-adv-x="599" 
d="M108 0v106h165v423q-69 -32 -185 -34v97q133 4 190 88h115v-574h164v-106h-449z" />
    <glyph glyph-name="two" unicode="2" horiz-adv-x="599" 
d="M57 0v61q0 96 49 159t165 117q83 38 115.5 72t32.5 82q0 46 -29 71.5t-86 25.5q-122 0 -122 -118v-17h-114v28q0 102 61.5 156.5t175.5 54.5t174 -52.5t60 -147.5q0 -83 -48 -140t-160 -107q-81 -36 -115.5 -66.5t-38.5 -72.5h361v-106h-481z" />
    <glyph glyph-name="three" unicode="3" horiz-adv-x="599" 
d="M301 -12q-120 0 -182 49t-62 145v30h116v-14q0 -106 128 -106q125 0 125 101q0 51 -31.5 75.5t-100.5 24.5h-70v104h69q118 0 118 94q0 97 -112 97q-117 0 -117 -104v-11h-115v18q0 98 60.5 149.5t174.5 51.5q110 0 169 -48.5t59 -140.5q0 -109 -89 -148v-2
q105 -39 105 -165q0 -200 -245 -200z" />
    <glyph glyph-name="four" unicode="4" horiz-adv-x="599" 
d="M371 0v147h-332v109l321 424h131v-431h75v-102h-75v-147h-120zM160 249h211v284z" />
    <glyph glyph-name="five" unicode="5" horiz-adv-x="599" 
d="M300 -12q-116 0 -178 50t-63 145h116q2 -43 34.5 -67t89.5 -24q130 0 130 127q0 62 -32 94t-92 32q-69 0 -118 -46h-108l24 381h415v-106h-313l-10 -171q55 45 141 45q103 0 158 -58.5t55 -167.5q0 -234 -249 -234z" />
    <glyph glyph-name="six" unicode="6" horiz-adv-x="599" 
d="M306 -12q-118 0 -180.5 58.5t-62.5 171.5v240q0 115 63 174.5t184 59.5q222 0 230 -191h-116q-8 87 -115 87q-126 0 -126 -135v-80q59 63 160 63q98 0 151 -56t53 -162q0 -113 -61 -171.5t-180 -58.5zM307 92q119 0 119 123q0 117 -110 117q-94 0 -133 -90v-19
q0 -131 124 -131z" />
    <glyph glyph-name="seven" unicode="7" horiz-adv-x="599" 
d="M151 0q15 344 263 571h-362v109h492v-112q-129 -125 -193.5 -261.5t-71.5 -306.5h-128z" />
    <glyph glyph-name="eight" unicode="8" horiz-adv-x="599" 
d="M300 -12q-125 0 -190.5 51t-65.5 147q0 125 110 167v2q-92 39 -92 147q0 91 62.5 140.5t176.5 49.5q113 0 175 -49t62 -140q0 -109 -92 -148v-2q110 -43 110 -167q0 -96 -65.5 -147t-190.5 -51zM299 398q120 0 120 96q0 95 -120 95q-119 0 -119 -95q0 -47 31 -71.5
t88 -24.5zM299 91q136 0 136 101q0 103 -136 103t-136 -103q0 -101 136 -101z" />
    <glyph glyph-name="nine" unicode="9" horiz-adv-x="599" 
d="M289 -12q-111 0 -169 49t-61 142h116q8 -87 114 -87q127 0 127 135v81q-61 -64 -160 -64t-151.5 56t-52.5 162q0 113 60.5 171.5t179.5 58.5t181.5 -58.5t62.5 -171.5v-240q0 -115 -63 -174.5t-184 -59.5zM283 348q95 0 133 92v17q0 131 -124 131q-120 0 -120 -123
q0 -117 111 -117z" />
    <glyph glyph-name="colon" unicode=":" horiz-adv-x="286" 
d="M78 360v130h130v-130h-130zM78 0v130h130v-130h-130z" />
    <glyph glyph-name="semicolon" unicode=";" horiz-adv-x="286" 
d="M78 360v130h130v-130h-130zM72 -158v69q54 2 54 66v23h-48v130h130v-128q0 -159 -136 -160z" />
    <glyph glyph-name="less" unicode="&#x3c;" horiz-adv-x="599" 
d="M545 59l-491 200v96l491 200v-106l-351 -142l351 -141v-107z" />
    <glyph glyph-name="equal" unicode="=" horiz-adv-x="599" 
d="M54 374v98h491v-98h-491zM54 146v98h491v-98h-491z" />
    <glyph glyph-name="greater" unicode="&#x3e;" horiz-adv-x="599" 
d="M54 61v106l351 142l-351 141v107l491 -200v-96z" />
    <glyph glyph-name="question" unicode="?" horiz-adv-x="453" 
d="M154 214v24q0 59 21.5 99.5t71.5 75.5q36 26 50 47t14 50q0 38 -23.5 58.5t-65.5 20.5q-95 0 -95 -103h-114q0 101 53.5 153.5t156.5 52.5q99 0 153 -46.5t54 -132.5q0 -52 -21.5 -89t-73.5 -72q-43 -29 -60 -55t-17 -63v-20h-104zM141 0v130h130v-130h-130z" />
    <glyph glyph-name="at" unicode="@" horiz-adv-x="755" 
d="M410 -68q-173 0 -275.5 97.5t-102.5 261.5q0 162 100 262.5t264 100.5q155 0 249.5 -90.5t94.5 -235.5q0 -100 -45.5 -155t-124.5 -55q-81 0 -108 59q-41 -59 -114 -59q-58 0 -88.5 35t-30.5 100v72q0 135 119 135q70 0 110 -52l4 40h79v-199q0 -50 37 -50q32 0 49 31.5
t17 89.5q0 116 -66 182t-180 66q-123 0 -194.5 -75t-71.5 -199q0 -127 75 -201.5t203 -74.5q103 0 181 50l33 -82q-86 -54 -214 -54zM375 200q44 0 66 47v85q-20 46 -67 46q-46 0 -46 -56v-67q0 -55 47 -55z" />
    <glyph glyph-name="A" unicode="A" horiz-adv-x="610" 
d="M5 0l237 680h125l238 -680h-130l-52 154h-241l-53 -154h-124zM215 259h175l-87 279z" />
    <glyph glyph-name="B" unicode="B" horiz-adv-x="639" 
d="M83 0v680h268q116 0 170 -43t54 -134q0 -112 -91 -145v-2q59 -18 86 -58t27 -108q0 -98 -54.5 -144t-170.5 -46h-289zM205 399h131q65 0 91.5 19.5t26.5 68.5q0 48 -26 67.5t-88 19.5h-135v-175zM205 106h147q67 0 95 21.5t28 71.5q0 52 -30 73t-105 21h-135v-187z" />
    <glyph glyph-name="C" unicode="C" horiz-adv-x="615" 
d="M316 -12q-131 0 -195 67t-64 206v158q0 139 64 206t195 67q126 0 188.5 -61t66.5 -186h-118q-3 73 -35 106.5t-101 33.5q-73 0 -105.5 -39.5t-32.5 -128.5v-154q0 -89 32.5 -128.5t105.5 -39.5q69 0 101 33.5t35 105.5h118q-4 -125 -66.5 -185.5t-188.5 -60.5z" />
    <glyph glyph-name="D" unicode="D" horiz-adv-x="645" 
d="M83 0v680h245q135 0 198 -64.5t63 -201.5v-148q0 -137 -63 -201.5t-198 -64.5h-245zM205 107h106q85 0 120.5 36.5t35.5 124.5v144q0 88 -35.5 124.5t-120.5 36.5h-106v-466z" />
    <glyph glyph-name="E" unicode="E" horiz-adv-x="585" 
d="M83 0v680h456v-107h-334v-173h284v-106h-284v-187h344v-107h-466z" />
    <glyph glyph-name="F" unicode="F" horiz-adv-x="551" 
d="M83 0v680h448v-107h-326v-176h276v-107h-276v-290h-122z" />
    <glyph glyph-name="G" unicode="G" horiz-adv-x="635" 
d="M323 -12q-266 0 -266 267v170q0 132 66 199.5t196 67.5q119 0 185.5 -57t70.5 -166h-117q-8 116 -138 116q-73 0 -107 -40t-34 -127v-156q0 -87 35 -127t111 -40q73 0 106 37.5t33 120.5v17h-127v107h245v-125q0 -264 -259 -264z" />
    <glyph glyph-name="H" unicode="H" horiz-adv-x="688" 
d="M83 0v680h122v-279h278v279h122v-680h-122v293h-278v-293h-122z" />
    <glyph glyph-name="I" unicode="I" horiz-adv-x="288" 
d="M83 0v680h122v-680h-122z" />
    <glyph glyph-name="J" unicode="J" horiz-adv-x="551" 
d="M248 -12q-120 0 -176 56.5t-56 177.5v18h117v-18q0 -67 26.5 -97t87.5 -30t88 32.5t27 104.5v448h122v-453q0 -124 -57 -181.5t-179 -57.5z" />
    <glyph glyph-name="K" unicode="K" horiz-adv-x="620" 
d="M83 0v680h122v-329l271 329h143l-229 -279l232 -401h-140l-177 307l-100 -119v-188h-122z" />
    <glyph glyph-name="L" unicode="L" horiz-adv-x="518" 
d="M83 0v680h122v-571h306v-109h-428z" />
    <glyph glyph-name="M" unicode="M" horiz-adv-x="873" 
d="M83 0v680h180l173 -490l173 490h181v-680h-122v540l-192 -540h-85l-192 540v-540h-116z" />
    <glyph glyph-name="N" unicode="N" horiz-adv-x="686" 
d="M83 0v680h135l269 -472v472h116v-680h-117l-287 503v-503h-116z" />
    <glyph glyph-name="O" unicode="O" horiz-adv-x="654" 
d="M327 -12q-137 0 -203.5 67.5t-66.5 206.5v156q0 139 66.5 206.5t203.5 67.5t203.5 -67.5t66.5 -206.5v-156q0 -139 -66.5 -206.5t-203.5 -67.5zM327 95q78 0 113 40t35 128v154q0 88 -35 128t-113 40t-113 -40t-35 -128v-154q0 -88 35 -128t113 -40z" />
    <glyph glyph-name="P" unicode="P" horiz-adv-x="607" 
d="M83 0v680h263q124 0 180.5 -51.5t56.5 -164.5t-56 -163.5t-181 -50.5h-141v-250h-122zM205 356h131q67 0 96 25t29 84q0 58 -29 83t-96 25h-131v-217z" />
    <glyph glyph-name="Q" unicode="Q" horiz-adv-x="654" 
d="M552 -78l-88 89q-58 -23 -137 -23q-137 0 -203.5 67.5t-66.5 206.5v156q0 139 66.5 206.5t203.5 67.5t203.5 -67.5t66.5 -206.5v-156q0 -112 -42 -176l79 -81zM327 95q32 0 56 6l-108 110l77 77l111 -113q12 36 12 88v154q0 88 -35 128t-113 40t-113 -40t-35 -128v-154
q0 -88 35 -128t113 -40z" />
    <glyph glyph-name="R" unicode="R" horiz-adv-x="632" 
d="M83 0v680h270q121 0 173.5 -49t52.5 -160q0 -85 -31 -133t-99 -65l156 -273h-140l-148 263h-112v-263h-122zM205 369h136q64 0 90 23.5t26 78.5q0 56 -26 79t-90 23h-136v-204z" />
    <glyph glyph-name="S" unicode="S" horiz-adv-x="561" 
d="M281 -12q-126 0 -187.5 52t-61.5 159h120q0 -108 131 -108q123 0 123 90q0 48 -34 72t-118 37q-115 17 -163 62t-48 136q0 101 61.5 152.5t180.5 51.5q233 0 233 -205h-120q0 101 -116 101q-118 0 -118 -88q0 -44 32.5 -66.5t111.5 -33.5q120 -16 169.5 -64t49.5 -143
q0 -205 -246 -205z" />
    <glyph glyph-name="T" unicode="T" horiz-adv-x="518" 
d="M198 0v571h-191v109h504v-109h-191v-571h-122z" />
    <glyph glyph-name="U" unicode="U" horiz-adv-x="635" 
d="M318 -12q-131 0 -190.5 56.5t-59.5 181.5v454h122v-451q0 -73 29.5 -103.5t100.5 -30.5t100.5 30.5t29.5 103.5v451h118v-454q0 -125 -59 -181.5t-191 -56.5z" />
    <glyph glyph-name="V" unicode="V" horiz-adv-x="587" 
d="M230 0l-225 680h129l162 -520l163 520h123l-225 -680h-127z" />
    <glyph glyph-name="W" unicode="W" horiz-adv-x="871" 
d="M182 0l-175 680h126l118 -496l130 496h113l130 -498l119 498h121l-175 -680h-126l-127 483l-128 -483h-126z" />
    <glyph glyph-name="X" unicode="X" horiz-adv-x="574" 
d="M6 0l203 353l-196 327h141l141 -239l133 239h132l-196 -341l204 -339h-141l-149 254l-140 -254h-132z" />
    <glyph glyph-name="Y" unicode="Y" horiz-adv-x="546" 
d="M564 680l-230 -391v-289h-122v287l-230 393h140l156 -270l155 270h131z" />
    <glyph glyph-name="Z" unicode="Z" horiz-adv-x="554" 
d="M29 0v97l335 476h-317v107h470v-96l-336 -477h344v-107h-496z" />
    <glyph glyph-name="bracketleft" unicode="[" horiz-adv-x="341" 
d="M81 -118v848h242v-89h-129v-670h129v-89h-242z" />
    <glyph glyph-name="backslash" unicode="\" horiz-adv-x="456" 
d="M345 -140l-341 870h109l340 -870h-108z" />
    <glyph glyph-name="bracketright" unicode="]" horiz-adv-x="341" 
d="M18 -118v89h129v670h-129v89h242v-848h-242z" />
    <glyph glyph-name="asciicircum" unicode="^" horiz-adv-x="599" 
d="M27 333l226 347h93l226 -347h-116l-156 241l-157 -241h-116z" />
    <glyph glyph-name="underscore" unicode="_" horiz-adv-x="500" 
d="M0 -136v90h500v-90h-500z" />
    <glyph glyph-name="grave" unicode="`" horiz-adv-x="500" 
d="M224 592l-137 136h137l111 -136h-111z" />
    <glyph glyph-name="a" unicode="a" horiz-adv-x="542" 
d="M206 -12q-79 0 -123.5 42t-44.5 118q0 166 210 166h110v23q0 50 -22.5 73.5t-71.5 23.5q-90 0 -95 -75h-116q12 172 215 172q107 0 158.5 -47.5t51.5 -147.5v-336h-102l-4 68q-59 -80 -166 -80zM236 85q82 0 122 79v64h-94q-57 0 -82 -18t-25 -55q0 -70 79 -70z" />
    <glyph glyph-name="b" unicode="b" horiz-adv-x="580" 
d="M341 -12q-102 0 -162 83l-4 -71h-102v730h120v-264q56 65 148 65q90 0 139 -55t49 -160v-114q0 -105 -49 -159.5t-139 -54.5zM317 88q92 0 92 116v111q0 116 -91 116q-82 0 -125 -95v-153q43 -95 124 -95z" />
    <glyph glyph-name="c" unicode="c" horiz-adv-x="522" 
d="M273 -12q-222 0 -222 221v102q0 109 56 164.5t166 55.5q211 0 215 -201h-115q-3 52 -27 76.5t-72 24.5q-53 0 -78 -29.5t-25 -92.5v-99q0 -63 25 -92.5t78 -29.5q48 0 72 24.5t27 77.5h115q-5 -202 -215 -202z" />
    <glyph glyph-name="d" unicode="d" horiz-adv-x="580" 
d="M239 -12q-91 0 -139.5 54.5t-48.5 159.5v114q0 105 48.5 160t139.5 55q92 0 148 -66v265h120v-730h-102l-4 72q-59 -84 -162 -84zM263 88q82 0 124 97v149q-42 97 -125 97q-91 0 -91 -116v-111q0 -116 92 -116z" />
    <glyph glyph-name="e" unicode="e" horiz-adv-x="551" 
d="M282 -12q-113 0 -172 56t-59 165v102q0 107 57.5 163.5t167.5 56.5q111 0 168.5 -56.5t57.5 -164.5v-86h-331v-16q0 -63 26.5 -93t84.5 -30q47 0 73 19t29 53h115q-4 -83 -60 -126t-157 -43zM171 313h217q0 63 -26 92t-82 29q-57 0 -83 -29t-26 -92z" />
    <glyph glyph-name="f" unicode="f" horiz-adv-x="349" 
d="M97 0v426h-87v93h87v45q0 166 148 166h99v-95h-63q-35 0 -49.5 -16.5t-14.5 -56.5v-43h122v-93h-122v-426h-120z" />
    <glyph glyph-name="g" unicode="g" horiz-adv-x="580" 
d="M277 -194q-207 0 -216 166h112q7 -69 102 -69q59 0 85.5 26t26.5 84v71q-56 -65 -148 -65q-91 0 -139.5 55t-48.5 160v83q0 105 48.5 159.5t139.5 54.5q102 0 162 -83l4 71h102v-506q0 -105 -57 -156t-173 -51zM262 119q83 0 125 97v119q-42 96 -124 96q-92 0 -92 -116
v-80q0 -116 91 -116z" />
    <glyph glyph-name="h" unicode="h" horiz-adv-x="570" 
d="M73 0v730h120v-264q56 65 147 65q163 0 163 -188v-343h-120v332q0 93 -73 93q-74 0 -117 -88v-337h-120z" />
    <glyph glyph-name="i" unicode="i" horiz-adv-x="266" 
d="M69 602v113h128v-113h-128zM73 0v519h120v-519h-120z" />
    <glyph glyph-name="j" unicode="j" horiz-adv-x="266" 
d="M69 602v113h128v-113h-128zM-2 -182v97h28q27 0 37 11.5t10 43.5v549h120v-550q0 -79 -31.5 -115t-102.5 -36h-61z" />
    <glyph glyph-name="k" unicode="k" horiz-adv-x="539" 
d="M73 0v730h120v-438l202 227h144l-189 -211l192 -308h-140l-137 221l-72 -79v-142h-120z" />
    <glyph glyph-name="l" unicode="l" horiz-adv-x="266" 
d="M73 0v730h120v-730h-120z" />
    <glyph glyph-name="m" unicode="m" horiz-adv-x="859" 
d="M73 0v519h102l4 -71q57 83 154 83q104 0 141 -81q59 81 155 81q79 0 121 -45.5t42 -131.5v-354h-120v342q0 83 -69 83q-67 0 -111 -90v-335h-120v342q0 83 -70 83q-65 0 -109 -91v-334h-120z" />
    <glyph glyph-name="n" unicode="n" horiz-adv-x="570" 
d="M73 0v519h102l4 -71q60 83 161 83q163 0 163 -188v-343h-120v332q0 93 -74 93q-73 0 -116 -88v-337h-120z" />
    <glyph glyph-name="o" unicode="o" horiz-adv-x="562" 
d="M281 -12q-230 0 -230 226v91q0 226 230 226q231 0 231 -226v-91q0 -226 -231 -226zM281 88q58 0 84.5 31t26.5 98v85q0 67 -26.5 98t-84.5 31q-57 0 -83.5 -31t-26.5 -98v-85q0 -67 26.5 -98t83.5 -31z" />
    <glyph glyph-name="p" unicode="p" horiz-adv-x="580" 
d="M73 -182v701h102l4 -71q60 83 162 83q90 0 139 -54.5t49 -159.5v-114q0 -105 -49 -160t-139 -55q-92 0 -148 65v-235h-120zM318 88q91 0 91 116v111q0 116 -92 116q-81 0 -124 -94v-154q43 -95 125 -95z" />
    <glyph glyph-name="q" unicode="q" horiz-adv-x="580" 
d="M387 -182v236q-56 -66 -148 -66q-91 0 -139.5 55t-48.5 160v114q0 105 48.5 159.5t139.5 54.5q102 0 162 -83l4 71h102v-701h-120zM262 88q83 0 125 97v150q-42 96 -124 96q-92 0 -92 -116v-111q0 -116 91 -116z" />
    <glyph glyph-name="r" unicode="r" horiz-adv-x="368" 
d="M73 0v519h102l5 -95q34 105 140 105h37v-114h-27q-60 0 -92.5 -27.5t-44.5 -89.5v-298h-120z" />
    <glyph glyph-name="s" unicode="s" horiz-adv-x="501" 
d="M251 -12q-217 0 -217 168h114q0 -76 103 -76q95 0 95 61q0 32 -26.5 48t-92.5 24q-99 12 -141 47t-42 107q0 80 53.5 122t153.5 42q202 0 202 -163h-115q0 71 -88 71q-42 0 -65 -15.5t-23 -43.5q0 -31 26 -45.5t90 -21.5q101 -11 143.5 -48.5t42.5 -112.5
q0 -164 -213 -164z" />
    <glyph glyph-name="t" unicode="t" horiz-adv-x="352" 
d="M239 0q-77 0 -112 39t-35 127v260h-82v93h84l8 133h110v-133h117v-93h-117v-256q0 -43 13 -58t51 -15h58v-97h-95z" />
    <glyph glyph-name="u" unicode="u" horiz-adv-x="574" 
d="M232 -12q-165 0 -165 188v343h120v-332q0 -48 18 -70.5t57 -22.5q77 0 119 90v335h120v-519h-102l-4 73q-62 -85 -163 -85z" />
    <glyph glyph-name="v" unicode="v" horiz-adv-x="492" 
d="M182 0l-175 519h127l115 -381l114 381h122l-175 -519h-128z" />
    <glyph glyph-name="w" unicode="w" horiz-adv-x="788" 
d="M163 0l-155 519h126l98 -371l110 371h109l110 -372l98 372h121l-155 -519h-124l-106 356l-106 -356h-126z" />
    <glyph glyph-name="x" unicode="x" horiz-adv-x="492" 
d="M-4 0l172 272l-163 247h142l110 -169l101 169h131l-164 -260l171 -259h-142l-119 182l-108 -182h-131z" />
    <glyph glyph-name="y" unicode="y" horiz-adv-x="485" 
d="M60 -182v97h51q26 0 38.5 9.5t21.5 36.5l17 53l-181 505h128l115 -354l107 354h121l-193 -572q-26 -75 -59 -102t-102 -27h-64z" />
    <glyph glyph-name="z" unicode="z" horiz-adv-x="470" 
d="M27 0v85l259 338h-238v96h390v-85l-259 -338h264v-96h-416z" />
    <glyph glyph-name="braceleft" unicode="{" horiz-adv-x="341" 
d="M253 -118q-82 0 -118.5 41t-36.5 135v131q0 42 -16 57.5t-57 15.5v88q41 0 57 15.5t16 57.5v131q0 94 36.5 135t118.5 41h70v-89h-42q-42 0 -56.5 -18.5t-14.5 -69.5v-124q0 -103 -71 -122v-2q71 -20 71 -122v-124q0 -51 14.5 -69.5t56.5 -18.5h42v-89h-70z" />
    <glyph glyph-name="bar" unicode="|" horiz-adv-x="290" 
d="M95 -226v1000h99v-1000h-99z" />
    <glyph glyph-name="braceright" unicode="}" horiz-adv-x="341" 
d="M18 -118v89h43q41 0 55.5 18.5t14.5 69.5v124q0 101 71 122v2q-71 19 -71 122v124q0 51 -14.5 69.5t-55.5 18.5h-43v89h70q82 0 119 -41t37 -135v-131q0 -42 15.5 -57.5t56.5 -15.5v-88q-41 0 -56.5 -15.5t-15.5 -57.5v-131q0 -94 -37 -135t-119 -41h-70z" />
    <glyph glyph-name="asciitilde" unicode="~" horiz-adv-x="599" 
d="M403 215q-62 0 -128 51q-48 37 -79 37q-59 0 -62 -76h-88q2 83 41.5 129t109.5 46q62 0 128 -51q48 -37 79 -37q59 0 62 76h88q-2 -83 -41.5 -129t-109.5 -46z" />
    <glyph glyph-name="uni00A0" unicode="&#xa0;" horiz-adv-x="251" 
 />
    <glyph glyph-name="exclamdown" unicode="&#xa1;" horiz-adv-x="301" 
d="M85 389v130h130v-130h-130zM88 -161l3 188l16 278h87l17 -278l3 -188h-126z" />
    <glyph glyph-name="cent" unicode="&#xa2;" horiz-adv-x="599" 
d="M263 -72v74q-181 21 -181 209v98q0 187 181 208v74h93v-75q168 -19 173 -191h-116q-3 72 -57 88v-307q54 16 57 89h116q-5 -173 -173 -192v-75h-93zM263 106v308q-61 -17 -61 -107v-95q0 -89 61 -106z" />
    <glyph glyph-name="sterling" unicode="&#xa3;" horiz-adv-x="599" 
d="M267 247q0 -93 -54 -141h325v-106h-461v96q42 24 62 56.5t20 85.5q0 12 -2 32h-101v100h71q-29 73 -29 126q0 96 58.5 146t169.5 50q220 0 220 -205h-114q0 101 -108 101q-55 0 -80.5 -25t-25.5 -78q0 -40 25 -115h241v-100h-218q1 -7 1 -23z" />
    <glyph glyph-name="currency" unicode="&#xa4;" horiz-adv-x="599" 
d="M99 75l-67 67l110 111q-22 41 -22 87t22 87l-110 111l67 67l109 -111q42 24 92 24q49 0 92 -24l108 111l67 -67l-109 -111q22 -39 22 -87t-22 -87l109 -111l-67 -67l-108 111q-43 -24 -92 -24q-50 0 -92 24zM300 256q37 0 60.5 24t23.5 60t-23.5 60t-60.5 24t-60.5 -24
t-23.5 -60t23.5 -60t60.5 -24z" />
    <glyph glyph-name="yen" unicode="&#xa5;" horiz-adv-x="599" 
d="M239 0v111h-166v80h166v59h-166v80h154l-209 350h139l145 -257l146 257h133l-211 -350h156v-80h-167v-59h167v-80h-167v-111h-120z" />
    <glyph glyph-name="brokenbar" unicode="&#xa6;" horiz-adv-x="290" 
d="M95 374v400h99v-400h-99zM95 -226v400h99v-400h-99z" />
    <glyph glyph-name="section" unicode="&#xa7;" horiz-adv-x="603" 
d="M298 -196q-236 0 -236 185h116q0 -91 121 -91q116 0 116 72q0 36 -33.5 58t-114.5 38q-115 23 -165 64.5t-50 113.5q0 95 85 141v2q-65 45 -65 129q0 85 58.5 130.5t166.5 45.5t165 -45.5t57 -132.5h-115q0 85 -107 85q-51 0 -79 -19t-28 -53q0 -36 32.5 -56.5
t113.5 -37.5q116 -24 165.5 -64.5t49.5 -112.5q0 -93 -84 -140v-2q66 -44 66 -133q0 -177 -235 -177zM372 156q62 21 62 76q0 38 -32.5 60t-115.5 39q-44 10 -58 15q-59 -25 -59 -78q0 -40 32.5 -61.5t115.5 -37.5q37 -7 55 -13z" />
    <glyph glyph-name="dieresis" unicode="&#xa8;" horiz-adv-x="500" 
d="M94 602v113h118v-113h-118zM287 602v113h118v-113h-118z" />
    <glyph glyph-name="copyright" unicode="&#xa9;" horiz-adv-x="766" 
d="M383 -12q-153 0 -252.5 99.5t-99.5 252.5t99.5 252.5t252.5 99.5t252.5 -99.5t99.5 -252.5t-99.5 -252.5t-252.5 -99.5zM383 67q119 0 192 75t73 198t-73 198t-192 75q-120 0 -192.5 -75t-72.5 -198t72.5 -198t192.5 -75zM382 152q-74 0 -109 35.5t-35 111.5v82
q0 76 35 111.5t109 35.5q143 0 144 -138h-85q-2 35 -14.5 49t-41.5 14q-32 0 -44.5 -16.5t-12.5 -58.5v-76q0 -42 12.5 -58.5t44.5 -16.5q29 0 41.5 14t14.5 49h85q-1 -138 -144 -138z" />
    <glyph glyph-name="ordfeminine" unicode="&#xaa;" horiz-adv-x="420" 
d="M152 309q-58 0 -90 30t-32 83q0 57 37 87t106 30h92v19q0 58 -66 58q-63 0 -69 -46h-88q14 122 161 122q157 0 157 -136v-235h-81l-3 47q-44 -59 -124 -59zM177 385q61 0 88 50v42h-77q-66 0 -66 -47q0 -45 55 -45zM38 158v78h322v-78h-322z" />
    <glyph glyph-name="guillemotleft" unicode="&#xab;" horiz-adv-x="522" 
d="M152 82l-135 178l135 179h124l-136 -179l136 -178h-124zM381 82l-135 178l135 179h124l-136 -179l136 -178h-124z" />
    <glyph glyph-name="logicalnot" unicode="&#xac;" horiz-adv-x="599" 
d="M444 124v206h-390v98h491v-304h-101z" />
    <glyph glyph-name="uni00AD" unicode="&#xad;" horiz-adv-x="377" 
d="M33 241v109h310v-109h-310z" />
    <glyph glyph-name="registered" unicode="&#xae;" horiz-adv-x="766" 
d="M383 -12q-153 0 -252.5 99.5t-99.5 252.5t99.5 252.5t252.5 99.5t252.5 -99.5t99.5 -252.5t-99.5 -252.5t-252.5 -99.5zM383 67q119 0 192 75t73 198t-73 198t-192 75q-120 0 -192.5 -75t-72.5 -198t72.5 -198t192.5 -75zM240 162v356h158q70 0 102.5 -27.5t32.5 -87.5
q0 -82 -64 -104l84 -137h-100l-74 127h-49v-127h-90zM330 358h57q31 0 43.5 10t12.5 33q0 25 -12.5 34.5t-43.5 9.5h-57v-87z" />
    <glyph glyph-name="macron" unicode="&#xaf;" horiz-adv-x="500" 
d="M112 616v86h276v-86h-276z" />
    <glyph glyph-name="degree" unicode="&#xb0;" horiz-adv-x="394" 
d="M197 380q-73 0 -120.5 47t-47.5 120t47.5 120t120.5 47t120.5 -47t47.5 -120t-47.5 -120t-120.5 -47zM197 466q34 0 55.5 23t21.5 58t-21.5 58t-55.5 23t-55 -23t-21 -58t21 -58t55 -23z" />
    <glyph glyph-name="plusminus" unicode="&#xb1;" horiz-adv-x="599" 
d="M350 413h195v-99h-195v-168h-101v168h-195v99h195v180h101v-180zM54 0v98h491v-98h-491z" />
    <glyph glyph-name="uni00B2" unicode="&#xb2;" 
d="M36 416v44q0 57 29.5 96t95.5 68q42 19 59.5 36t17.5 40q0 45 -54 45q-56 0 -56 -58v-7h-85v17q0 60 37 92.5t107 32.5q68 0 105 -31.5t37 -87.5q0 -49 -29 -83.5t-95 -63.5q-41 -18 -57.5 -31t-20.5 -30h202v-79h-293z" />
    <glyph glyph-name="uni00B3" unicode="&#xb3;" 
d="M185 404q-149 0 -149 115v18h86v-7q0 -49 62 -49q59 0 59 49q0 48 -65 48h-44v74h41q60 0 60 46q0 47 -53 47q-55 0 -55 -47v-6h-85v11q0 119 143 119q140 0 140 -115q0 -63 -50 -85v-2q59 -22 59 -94q0 -122 -149 -122z" />
    <glyph glyph-name="acute" unicode="&#xb4;" horiz-adv-x="500" 
d="M165 592l112 136h136l-137 -136h-111z" />
    <glyph glyph-name="uni00B5" unicode="&#xb5;" horiz-adv-x="580" 
d="M73 -182v701h120v-331q0 -49 18.5 -71.5t56.5 -22.5q76 0 119 91v334h120v-519h-102l-4 72q-60 -84 -157 -84q-28 0 -51 6v-176h-120z" />
    <glyph glyph-name="paragraph" unicode="&#xb6;" horiz-adv-x="603" 
d="M214 -183v455q-99 4 -144.5 53.5t-45.5 150.5q0 106 50 155t160 49h278v-863h-105v770h-88v-770h-105z" />
    <glyph glyph-name="periodcentered" unicode="&#xb7;" horiz-adv-x="286" 
d="M78 230v130h130v-130h-130z" />
    <glyph glyph-name="cedilla" unicode="&#xb8;" horiz-adv-x="500" 
d="M226 -207q-66 0 -107 22l21 52q32 -17 66 -17q46 0 46 27q0 13 -11.5 18t-43.5 5h-21l45 115h60l-27 -71q101 0 101 -73q0 -38 -29 -58t-100 -20z" />
    <glyph glyph-name="uni00B9" unicode="&#xb9;" 
d="M71 416v77h89v212q-36 -13 -101 -15v69q78 3 108 51h84v-317h90v-77h-270z" />
    <glyph glyph-name="ordmasculine" unicode="&#xba;" horiz-adv-x="414" 
d="M207 309q-164 0 -164 159v64q0 160 164 160t164 -160v-64q0 -159 -164 -159zM207 386q36 0 53 19.5t17 62.5v65q0 82 -70 82t-70 -82v-65q0 -43 17 -62.5t53 -19.5zM46 158v78h322v-78h-322z" />
    <glyph glyph-name="guillemotright" unicode="&#xbb;" horiz-adv-x="522" 
d="M17 80l135 179l-135 178h123l136 -178l-136 -179h-123zM246 80l135 179l-135 178h123l136 -178l-136 -179h-123z" />
    <glyph glyph-name="onequarter" unicode="&#xbc;" horiz-adv-x="843" 
d="M228 -12l366 704h90l-366 -704h-90zM71 286v77h89v212q-36 -13 -101 -15v69q78 3 108 51h84v-317h90v-77h-270zM690 0v83h-189v79l183 232h96v-238h43v-73h-43v-83h-90zM586 156h104v137z" />
    <glyph glyph-name="onehalf" unicode="&#xbd;" horiz-adv-x="843" 
d="M193 -12l366 704h90l-366 -704h-90zM71 286v77h89v212q-36 -13 -101 -15v69q78 3 108 51h84v-317h90v-77h-270zM513 0v44q0 57 29.5 96t95.5 68q42 19 59.5 36t17.5 40q0 45 -54 45q-56 0 -56 -58v-7h-85v17q0 60 37 92.5t107 32.5q68 0 105 -31.5t37 -87.5
q0 -49 -29 -83.5t-95 -63.5q-41 -18 -57.5 -31t-20.5 -30h202v-79h-293z" />
    <glyph glyph-name="threequarters" unicode="&#xbe;" horiz-adv-x="843" 
d="M185 274q-149 0 -149 115v18h86v-7q0 -49 62 -49q59 0 59 49q0 48 -65 48h-44v74h41q60 0 60 46q0 47 -53 47q-55 0 -55 -47v-6h-85v11q0 119 143 119q140 0 140 -115q0 -63 -50 -85v-2q59 -22 59 -94q0 -122 -149 -122zM228 -12l366 704h90l-366 -704h-90zM690 0v83
h-189v79l183 232h96v-238h43v-73h-43v-83h-90zM586 156h104v137z" />
    <glyph glyph-name="questiondown" unicode="&#xbf;" horiz-adv-x="453" 
d="M182 389v130h130v-130h-130zM229 -173q-99 0 -153 46.5t-54 132.5q0 52 21.5 89t73.5 72q43 29 60 55t17 63v20h104v-24q0 -59 -21.5 -99t-71.5 -76q-37 -27 -50.5 -47t-13.5 -49q0 -39 23.5 -59.5t65.5 -20.5q95 0 95 103h114q0 -101 -53.5 -153.5t-156.5 -52.5z" />
    <glyph glyph-name="Agrave" unicode="&#xc0;" horiz-adv-x="610" 
d="M279 746l-137 136h137l111 -136h-111zM5 0l237 680h125l238 -680h-130l-52 154h-241l-53 -154h-124zM215 259h175l-87 279z" />
    <glyph glyph-name="Aacute" unicode="&#xc1;" horiz-adv-x="610" 
d="M220 746l112 136h136l-137 -136h-111zM5 0l237 680h125l238 -680h-130l-52 154h-241l-53 -154h-124zM215 259h175l-87 279z" />
    <glyph glyph-name="Acircumflex" unicode="&#xc2;" horiz-adv-x="610" 
d="M131 746l117 136h113l118 -136h-111l-63 62l-64 -62h-110zM5 0l237 680h125l238 -680h-130l-52 154h-241l-53 -154h-124zM215 259h175l-87 279z" />
    <glyph glyph-name="Atilde" unicode="&#xc3;" horiz-adv-x="610" 
d="M363 745q-33 0 -73 28q-24 17 -39 17q-27 0 -31 -42h-74q4 129 101 129q33 0 73 -27q26 -17 39 -17q28 0 31 41h74q-4 -129 -101 -129zM5 0l237 680h125l238 -680h-130l-52 154h-241l-53 -154h-124zM215 259h175l-87 279z" />
    <glyph glyph-name="Adieresis" unicode="&#xc4;" horiz-adv-x="610" 
d="M149 756v113h118v-113h-118zM342 756v113h118v-113h-118zM5 0l237 680h125l238 -680h-130l-52 154h-241l-53 -154h-124zM215 259h175l-87 279z" />
    <glyph glyph-name="Aring" unicode="&#xc5;" horiz-adv-x="610" 
d="M305 728q-51 0 -83.5 31t-32.5 79t33 79.5t83 31.5t82.5 -31.5t32.5 -79.5t-32.5 -79t-82.5 -31zM305 794q18 0 29.5 12t11.5 32q0 19 -11.5 31t-29.5 12t-29 -12t-11 -31q0 -20 11 -32t29 -12zM5 0l237 680h125l238 -680h-130l-52 154h-241l-53 -154h-124zM215 259h175
l-87 279z" />
    <glyph glyph-name="AE" unicode="&#xc6;" horiz-adv-x="898" 
d="M-18 0l391 680h479v-107h-308v-174h258v-106h-258v-186h318v-107h-440v154h-219l-88 -154h-133zM260 259h162v300z" />
    <glyph glyph-name="Ccedilla" unicode="&#xc7;" horiz-adv-x="615" 
d="M317 95q69 0 101 33.5t35 105.5h118q-7 -229 -220 -245l-17 -45q101 0 101 -73q0 -38 -29 -58t-100 -20q-66 0 -107 22l21 52q32 -17 66 -17q46 0 46 27q0 13 -11.5 18t-43.5 5h-21l35 89q-119 6 -176.5 73t-57.5 199v158q0 139 64 206t195 67q126 0 188.5 -61t66.5 -186
h-118q-3 73 -35 106.5t-101 33.5q-73 0 -105.5 -39.5t-32.5 -128.5v-154q0 -89 32.5 -128.5t105.5 -39.5z" />
    <glyph glyph-name="Egrave" unicode="&#xc8;" horiz-adv-x="585" 
d="M285 746l-137 136h137l111 -136h-111zM83 0v680h456v-107h-334v-173h284v-106h-284v-187h344v-107h-466z" />
    <glyph glyph-name="Eacute" unicode="&#xc9;" horiz-adv-x="585" 
d="M226 746l112 136h136l-137 -136h-111zM83 0v680h456v-107h-334v-173h284v-106h-284v-187h344v-107h-466z" />
    <glyph glyph-name="Ecircumflex" unicode="&#xca;" horiz-adv-x="585" 
d="M137 746l117 136h113l118 -136h-111l-63 62l-64 -62h-110zM83 0v680h456v-107h-334v-173h284v-106h-284v-187h344v-107h-466z" />
    <glyph glyph-name="Edieresis" unicode="&#xcb;" horiz-adv-x="585" 
d="M155 756v113h118v-113h-118zM348 756v113h118v-113h-118zM83 0v680h456v-107h-334v-173h284v-106h-284v-187h344v-107h-466z" />
    <glyph glyph-name="Igrave" unicode="&#xcc;" horiz-adv-x="288" 
d="M118 746l-137 136h137l111 -136h-111zM83 0v680h122v-680h-122z" />
    <glyph glyph-name="Iacute" unicode="&#xcd;" horiz-adv-x="288" 
d="M59 746l112 136h136l-137 -136h-111zM83 0v680h122v-680h-122z" />
    <glyph glyph-name="Icircumflex" unicode="&#xce;" horiz-adv-x="288" 
d="M-22 746l110 136h113l110 -136h-107l-60 63l-59 -63h-107zM83 0v680h122v-680h-122z" />
    <glyph glyph-name="Idieresis" unicode="&#xcf;" horiz-adv-x="288" 
d="M1 756v113h116v-113h-116zM171 756v113h116v-113h-116zM83 0v680h122v-680h-122z" />
    <glyph glyph-name="Eth" unicode="&#xd0;" horiz-adv-x="655" 
d="M338 680q135 0 198 -64.5t63 -201.5v-148q0 -137 -63 -201.5t-198 -64.5h-245v294h-69v106h69v280h245zM477 268v144q0 88 -35.5 124.5t-120.5 36.5h-106v-173h132v-106h-132v-187h106q85 0 120.5 36.5t35.5 124.5z" />
    <glyph glyph-name="Ntilde" unicode="&#xd1;" horiz-adv-x="686" 
d="M401 745q-33 0 -73 28q-24 17 -39 17q-27 0 -31 -42h-74q4 129 101 129q33 0 73 -27q26 -17 39 -17q28 0 31 41h74q-4 -129 -101 -129zM83 0v680h135l269 -472v472h116v-680h-117l-287 503v-503h-116z" />
    <glyph glyph-name="Ograve" unicode="&#xd2;" horiz-adv-x="654" 
d="M300 746l-137 136h137l111 -136h-111zM327 -12q-137 0 -203.5 67.5t-66.5 206.5v156q0 139 66.5 206.5t203.5 67.5t203.5 -67.5t66.5 -206.5v-156q0 -139 -66.5 -206.5t-203.5 -67.5zM327 95q78 0 113 40t35 128v154q0 88 -35 128t-113 40t-113 -40t-35 -128v-154
q0 -88 35 -128t113 -40z" />
    <glyph glyph-name="Oacute" unicode="&#xd3;" horiz-adv-x="654" 
d="M241 746l112 136h136l-137 -136h-111zM327 -12q-137 0 -203.5 67.5t-66.5 206.5v156q0 139 66.5 206.5t203.5 67.5t203.5 -67.5t66.5 -206.5v-156q0 -139 -66.5 -206.5t-203.5 -67.5zM327 95q78 0 113 40t35 128v154q0 88 -35 128t-113 40t-113 -40t-35 -128v-154
q0 -88 35 -128t113 -40z" />
    <glyph glyph-name="Ocircumflex" unicode="&#xd4;" horiz-adv-x="654" 
d="M152 746l117 136h113l118 -136h-111l-63 62l-64 -62h-110zM327 -12q-137 0 -203.5 67.5t-66.5 206.5v156q0 139 66.5 206.5t203.5 67.5t203.5 -67.5t66.5 -206.5v-156q0 -139 -66.5 -206.5t-203.5 -67.5zM327 95q78 0 113 40t35 128v154q0 88 -35 128t-113 40t-113 -40
t-35 -128v-154q0 -88 35 -128t113 -40z" />
    <glyph glyph-name="Otilde" unicode="&#xd5;" horiz-adv-x="654" 
d="M384 745q-33 0 -73 28q-24 17 -39 17q-27 0 -31 -42h-74q4 129 101 129q32 0 73 -27q26 -17 39 -17q28 0 31 41h74q-4 -129 -101 -129zM327 -12q-137 0 -203.5 67.5t-66.5 206.5v156q0 139 66.5 206.5t203.5 67.5t203.5 -67.5t66.5 -206.5v-156q0 -139 -66.5 -206.5
t-203.5 -67.5zM327 95q78 0 113 40t35 128v154q0 88 -35 128t-113 40t-113 -40t-35 -128v-154q0 -88 35 -128t113 -40z" />
    <glyph glyph-name="Odieresis" unicode="&#xd6;" horiz-adv-x="654" 
d="M170 756v113h118v-113h-118zM363 756v113h118v-113h-118zM327 -12q-137 0 -203.5 67.5t-66.5 206.5v156q0 139 66.5 206.5t203.5 67.5t203.5 -67.5t66.5 -206.5v-156q0 -139 -66.5 -206.5t-203.5 -67.5zM327 95q78 0 113 40t35 128v154q0 88 -35 128t-113 40t-113 -40
t-35 -128v-154q0 -88 35 -128t113 -40z" />
    <glyph glyph-name="multiply" unicode="&#xd7;" horiz-adv-x="599" 
d="M123 60l-71 70l178 179l-178 179l71 70l177 -178l177 178l71 -70l-178 -179l178 -179l-71 -70l-177 178z" />
    <glyph glyph-name="Oslash" unicode="&#xd8;" horiz-adv-x="654" 
d="M597 635l-36 -51q36 -63 36 -166v-156q0 -139 -66.5 -206.5t-203.5 -67.5q-103 0 -165 37l-26 -37l-79 57l36 51q-36 63 -36 166v156q0 139 66.5 206.5t203.5 67.5q103 0 165 -37l26 37zM179 263q0 -17 2 -43l243 340q-35 25 -97 25q-78 0 -113 -40t-35 -128v-154z
M475 417q0 17 -2 43l-243 -340q35 -25 97 -25q78 0 113 40t35 128v154z" />
    <glyph glyph-name="Ugrave" unicode="&#xd9;" horiz-adv-x="635" 
d="M291 746l-137 136h137l111 -136h-111zM318 -12q-131 0 -190.5 56.5t-59.5 181.5v454h122v-451q0 -73 29.5 -103.5t100.5 -30.5t100.5 30.5t29.5 103.5v451h118v-454q0 -125 -59 -181.5t-191 -56.5z" />
    <glyph glyph-name="Uacute" unicode="&#xda;" horiz-adv-x="635" 
d="M232 746l112 136h136l-137 -136h-111zM318 -12q-131 0 -190.5 56.5t-59.5 181.5v454h122v-451q0 -73 29.5 -103.5t100.5 -30.5t100.5 30.5t29.5 103.5v451h118v-454q0 -125 -59 -181.5t-191 -56.5z" />
    <glyph glyph-name="Ucircumflex" unicode="&#xdb;" horiz-adv-x="635" 
d="M143 746l117 136h113l118 -136h-111l-63 62l-64 -62h-110zM318 -12q-131 0 -190.5 56.5t-59.5 181.5v454h122v-451q0 -73 29.5 -103.5t100.5 -30.5t100.5 30.5t29.5 103.5v451h118v-454q0 -125 -59 -181.5t-191 -56.5z" />
    <glyph glyph-name="Udieresis" unicode="&#xdc;" horiz-adv-x="635" 
d="M161 756v113h118v-113h-118zM354 756v113h118v-113h-118zM318 -12q-131 0 -190.5 56.5t-59.5 181.5v454h122v-451q0 -73 29.5 -103.5t100.5 -30.5t100.5 30.5t29.5 103.5v451h118v-454q0 -125 -59 -181.5t-191 -56.5z" />
    <glyph glyph-name="Yacute" unicode="&#xdd;" horiz-adv-x="546" 
d="M188 746l112 136h136l-137 -136h-111zM564 680l-230 -391v-289h-122v287l-230 393h140l156 -270l155 270h131z" />
    <glyph glyph-name="Thorn" unicode="&#xde;" horiz-adv-x="607" 
d="M83 0v680h122v-97h141q124 0 180.5 -51.5t56.5 -164.5t-56 -163.5t-181 -50.5h-141v-153h-122zM205 259h131q67 0 96 25t29 83q0 59 -29 84t-96 25h-131v-217z" />
    <glyph glyph-name="germandbls" unicode="&#xdf;" horiz-adv-x="598" 
d="M97 0v426h-87v93h87v36q0 187 206 187q97 0 147.5 -41t50.5 -117q0 -70 -60 -135q-36 -39 -36 -65q0 -19 13 -32t48 -30q58 -27 82 -61.5t24 -89.5q0 -171 -213 -171h-62v97h61q95 0 95 65q0 24 -14.5 40t-53.5 35q-53 26 -75 55.5t-22 78.5q0 68 56 129q40 44 40 78
q0 32 -20.5 50t-59.5 18q-87 0 -87 -91v-555h-120z" />
    <glyph glyph-name="agrave" unicode="&#xe0;" horiz-adv-x="542" 
d="M239 592l-137 136h137l111 -136h-111zM206 -12q-79 0 -123.5 42t-44.5 118q0 166 210 166h110v23q0 50 -22.5 73.5t-71.5 23.5q-90 0 -95 -75h-116q12 172 215 172q107 0 158.5 -47.5t51.5 -147.5v-336h-102l-4 68q-59 -80 -166 -80zM236 85q82 0 122 79v64h-94
q-57 0 -82 -18t-25 -55q0 -70 79 -70z" />
    <glyph glyph-name="aacute" unicode="&#xe1;" horiz-adv-x="542" 
d="M180 592l112 136h136l-137 -136h-111zM206 -12q-79 0 -123.5 42t-44.5 118q0 166 210 166h110v23q0 50 -22.5 73.5t-71.5 23.5q-90 0 -95 -75h-116q12 172 215 172q107 0 158.5 -47.5t51.5 -147.5v-336h-102l-4 68q-59 -80 -166 -80zM236 85q82 0 122 79v64h-94
q-57 0 -82 -18t-25 -55q0 -70 79 -70z" />
    <glyph glyph-name="acircumflex" unicode="&#xe2;" horiz-adv-x="542" 
d="M91 592l117 136h113l118 -136h-111l-63 62l-64 -62h-110zM206 -12q-79 0 -123.5 42t-44.5 118q0 166 210 166h110v23q0 50 -22.5 73.5t-71.5 23.5q-90 0 -95 -75h-116q12 172 215 172q107 0 158.5 -47.5t51.5 -147.5v-336h-102l-4 68q-59 -80 -166 -80zM236 85
q82 0 122 79v64h-94q-57 0 -82 -18t-25 -55q0 -70 79 -70z" />
    <glyph glyph-name="atilde" unicode="&#xe3;" horiz-adv-x="542" 
d="M323 591q-33 0 -73 28q-24 17 -39 17q-27 0 -31 -42h-74q4 129 101 129q33 0 73 -27q26 -17 39 -17q28 0 31 41h74q-4 -129 -101 -129zM206 -12q-79 0 -123.5 42t-44.5 118q0 166 210 166h110v23q0 50 -22.5 73.5t-71.5 23.5q-90 0 -95 -75h-116q12 172 215 172
q107 0 158.5 -47.5t51.5 -147.5v-336h-102l-4 68q-59 -80 -166 -80zM236 85q82 0 122 79v64h-94q-57 0 -82 -18t-25 -55q0 -70 79 -70z" />
    <glyph glyph-name="adieresis" unicode="&#xe4;" horiz-adv-x="542" 
d="M109 602v113h118v-113h-118zM302 602v113h118v-113h-118zM206 -12q-79 0 -123.5 42t-44.5 118q0 166 210 166h110v23q0 50 -22.5 73.5t-71.5 23.5q-90 0 -95 -75h-116q12 172 215 172q107 0 158.5 -47.5t51.5 -147.5v-336h-102l-4 68q-59 -80 -166 -80zM236 85
q82 0 122 79v64h-94q-57 0 -82 -18t-25 -55q0 -70 79 -70z" />
    <glyph glyph-name="aring" unicode="&#xe5;" horiz-adv-x="542" 
d="M265 574q-51 0 -83.5 31t-32.5 79t33 79.5t83 31.5t82.5 -31.5t32.5 -79.5t-32.5 -79t-82.5 -31zM265 640q18 0 29.5 12t11.5 32q0 19 -11.5 31t-29.5 12t-29 -12t-11 -31q0 -20 11 -32t29 -12zM206 -12q-79 0 -123.5 42t-44.5 118q0 166 210 166h110v23q0 50 -22.5 73.5
t-71.5 23.5q-90 0 -95 -75h-116q12 172 215 172q107 0 158.5 -47.5t51.5 -147.5v-336h-102l-4 68q-59 -80 -166 -80zM236 85q82 0 122 79v64h-94q-57 0 -82 -18t-25 -55q0 -70 79 -70z" />
    <glyph glyph-name="ae" unicode="&#xe6;" horiz-adv-x="858" 
d="M213 -12q-83 0 -129 41.5t-46 118.5q0 81 53 123.5t157 42.5h110v24q0 49 -22.5 72.5t-71.5 23.5q-89 0 -95 -75h-116q13 172 204 172q127 0 168 -78q48 78 169 78q105 0 160 -56t55 -165v-86h-331v-16q0 -63 27 -93t85 -30q95 0 101 72h115q-4 -82 -60 -125.5
t-157 -43.5q-142 0 -197 84q-65 -84 -179 -84zM478 313h217q0 63 -25.5 92t-81.5 29q-58 0 -84 -29t-26 -92zM236 85q84 0 124 83q-2 26 -2 41v19h-94q-107 0 -107 -73q0 -70 79 -70z" />
    <glyph glyph-name="ccedilla" unicode="&#xe7;" horiz-adv-x="522" 
d="M274 88q48 0 72 24.5t27 77.5h115q-5 -186 -183 -201l-17 -45q101 0 101 -73q0 -38 -29 -58t-100 -20q-66 0 -107 22l21 52q32 -17 66 -17q46 0 46 27q0 13 -11.5 18t-43.5 5h-21l35 89q-194 14 -194 220v102q0 109 56 164.5t166 55.5q211 0 215 -201h-115
q-3 52 -27 76.5t-72 24.5q-53 0 -78 -29.5t-25 -92.5v-99q0 -63 25 -92.5t78 -29.5z" />
    <glyph glyph-name="egrave" unicode="&#xe8;" horiz-adv-x="551" 
d="M248 592l-137 136h137l111 -136h-111zM282 -12q-113 0 -172 56t-59 165v102q0 107 57.5 163.5t167.5 56.5q111 0 168.5 -56.5t57.5 -164.5v-86h-331v-16q0 -63 26.5 -93t84.5 -30q47 0 73 19t29 53h115q-4 -83 -60 -126t-157 -43zM171 313h217q0 63 -26 92t-82 29
q-57 0 -83 -29t-26 -92z" />
    <glyph glyph-name="eacute" unicode="&#xe9;" horiz-adv-x="551" 
d="M189 592l112 136h136l-137 -136h-111zM282 -12q-113 0 -172 56t-59 165v102q0 107 57.5 163.5t167.5 56.5q111 0 168.5 -56.5t57.5 -164.5v-86h-331v-16q0 -63 26.5 -93t84.5 -30q47 0 73 19t29 53h115q-4 -83 -60 -126t-157 -43zM171 313h217q0 63 -26 92t-82 29
q-57 0 -83 -29t-26 -92z" />
    <glyph glyph-name="ecircumflex" unicode="&#xea;" horiz-adv-x="551" 
d="M100 592l117 136h113l118 -136h-111l-63 62l-64 -62h-110zM282 -12q-113 0 -172 56t-59 165v102q0 107 57.5 163.5t167.5 56.5q111 0 168.5 -56.5t57.5 -164.5v-86h-331v-16q0 -63 26.5 -93t84.5 -30q47 0 73 19t29 53h115q-4 -83 -60 -126t-157 -43zM171 313h217
q0 63 -26 92t-82 29q-57 0 -83 -29t-26 -92z" />
    <glyph glyph-name="edieresis" unicode="&#xeb;" horiz-adv-x="551" 
d="M118 602v113h118v-113h-118zM311 602v113h118v-113h-118zM282 -12q-113 0 -172 56t-59 165v102q0 107 57.5 163.5t167.5 56.5q111 0 168.5 -56.5t57.5 -164.5v-86h-331v-16q0 -63 26.5 -93t84.5 -30q47 0 73 19t29 53h115q-4 -83 -60 -126t-157 -43zM171 313h217
q0 63 -26 92t-82 29q-57 0 -83 -29t-26 -92z" />
    <glyph glyph-name="igrave" unicode="&#xec;" horiz-adv-x="266" 
d="M107 592l-137 136h137l111 -136h-111zM73 0v519h120v-519h-120z" />
    <glyph glyph-name="iacute" unicode="&#xed;" horiz-adv-x="266" 
d="M48 592l112 136h136l-137 -136h-111zM73 0v519h120v-519h-120z" />
    <glyph glyph-name="icircumflex" unicode="&#xee;" horiz-adv-x="266" 
d="M-33 592l110 136h113l110 -136h-107l-60 63l-59 -63h-107zM73 0v519h120v-519h-120z" />
    <glyph glyph-name="idieresis" unicode="&#xef;" horiz-adv-x="266" 
d="M-10 602v113h116v-113h-116zM160 602v113h116v-113h-116zM73 0v519h120v-519h-120z" />
    <glyph glyph-name="eth" unicode="&#xf0;" horiz-adv-x="558" 
d="M278 -12q-230 0 -230 226v59q0 106 48 162t137 56q85 0 136 -60q-28 73 -81 138l-136 -52l-29 77l105 40q-60 56 -126 96h164q33 -22 69 -55l96 36l29 -76l-65 -25q114 -144 114 -319v-77q0 -226 -231 -226zM278 88q58 0 84.5 31t26.5 99v74q-29 99 -123 99
q-98 0 -98 -120v-53q0 -68 26 -99t84 -31z" />
    <glyph glyph-name="ntilde" unicode="&#xf1;" horiz-adv-x="570" 
d="M344 591q-33 0 -73 28q-24 17 -39 17q-27 0 -31 -42h-74q4 129 101 129q32 0 73 -27q26 -17 39 -17q28 0 31 41h74q-4 -129 -101 -129zM73 0v519h102l4 -71q60 83 161 83q163 0 163 -188v-343h-120v332q0 93 -74 93q-73 0 -116 -88v-337h-120z" />
    <glyph glyph-name="ograve" unicode="&#xf2;" horiz-adv-x="562" 
d="M255 592l-137 136h137l111 -136h-111zM281 -12q-230 0 -230 226v91q0 226 230 226q231 0 231 -226v-91q0 -226 -231 -226zM281 88q58 0 84.5 31t26.5 98v85q0 67 -26.5 98t-84.5 31q-57 0 -83.5 -31t-26.5 -98v-85q0 -67 26.5 -98t83.5 -31z" />
    <glyph glyph-name="oacute" unicode="&#xf3;" horiz-adv-x="562" 
d="M196 592l112 136h136l-137 -136h-111zM281 -12q-230 0 -230 226v91q0 226 230 226q231 0 231 -226v-91q0 -226 -231 -226zM281 88q58 0 84.5 31t26.5 98v85q0 67 -26.5 98t-84.5 31q-57 0 -83.5 -31t-26.5 -98v-85q0 -67 26.5 -98t83.5 -31z" />
    <glyph glyph-name="ocircumflex" unicode="&#xf4;" horiz-adv-x="562" 
d="M107 592l117 136h113l118 -136h-111l-63 62l-64 -62h-110zM281 -12q-230 0 -230 226v91q0 226 230 226q231 0 231 -226v-91q0 -226 -231 -226zM281 88q58 0 84.5 31t26.5 98v85q0 67 -26.5 98t-84.5 31q-57 0 -83.5 -31t-26.5 -98v-85q0 -67 26.5 -98t83.5 -31z" />
    <glyph glyph-name="otilde" unicode="&#xf5;" horiz-adv-x="562" 
d="M339 591q-33 0 -73 28q-24 17 -39 17q-27 0 -31 -42h-74q4 129 101 129q32 0 73 -27q26 -17 39 -17q28 0 31 41h74q-4 -129 -101 -129zM281 -12q-230 0 -230 226v91q0 226 230 226q231 0 231 -226v-91q0 -226 -231 -226zM281 88q58 0 84.5 31t26.5 98v85q0 67 -26.5 98
t-84.5 31q-57 0 -83.5 -31t-26.5 -98v-85q0 -67 26.5 -98t83.5 -31z" />
    <glyph glyph-name="odieresis" unicode="&#xf6;" horiz-adv-x="562" 
d="M125 602v113h118v-113h-118zM318 602v113h118v-113h-118zM281 -12q-230 0 -230 226v91q0 226 230 226q231 0 231 -226v-91q0 -226 -231 -226zM281 88q58 0 84.5 31t26.5 98v85q0 67 -26.5 98t-84.5 31q-57 0 -83.5 -31t-26.5 -98v-85q0 -67 26.5 -98t83.5 -31z" />
    <glyph glyph-name="divide" unicode="&#xf7;" horiz-adv-x="599" 
d="M234 461v117h130v-117h-130zM54 260v98h491v-98h-491zM234 40v117h130v-117h-130z" />
    <glyph glyph-name="oslash" unicode="&#xf8;" horiz-adv-x="562" 
d="M512 474l-30 -37q30 -51 30 -132v-91q0 -226 -231 -226q-85 0 -138 31l-25 -31l-68 57l30 37q-29 53 -29 132v91q0 226 230 226q85 0 138 -31l25 31zM171 217q0 -15 1 -22l177 219q-24 17 -68 17q-57 0 -83.5 -31t-26.5 -98v-85zM392 302q0 16 -1 23l-178 -220
q26 -17 68 -17q58 0 84.5 31t26.5 98v85z" />
    <glyph glyph-name="ugrave" unicode="&#xf9;" horiz-adv-x="574" 
d="M258 592l-137 136h137l111 -136h-111zM232 -12q-165 0 -165 188v343h120v-332q0 -48 18 -70.5t57 -22.5q77 0 119 90v335h120v-519h-102l-4 73q-62 -85 -163 -85z" />
    <glyph glyph-name="uacute" unicode="&#xfa;" horiz-adv-x="574" 
d="M199 592l112 136h136l-137 -136h-111zM232 -12q-165 0 -165 188v343h120v-332q0 -48 18 -70.5t57 -22.5q77 0 119 90v335h120v-519h-102l-4 73q-62 -85 -163 -85z" />
    <glyph glyph-name="ucircumflex" unicode="&#xfb;" horiz-adv-x="574" 
d="M110 592l117 136h113l118 -136h-111l-63 62l-64 -62h-110zM232 -12q-165 0 -165 188v343h120v-332q0 -48 18 -70.5t57 -22.5q77 0 119 90v335h120v-519h-102l-4 73q-62 -85 -163 -85z" />
    <glyph glyph-name="udieresis" unicode="&#xfc;" horiz-adv-x="574" 
d="M128 602v113h118v-113h-118zM321 602v113h118v-113h-118zM232 -12q-165 0 -165 188v343h120v-332q0 -48 18 -70.5t57 -22.5q77 0 119 90v335h120v-519h-102l-4 73q-62 -85 -163 -85z" />
    <glyph glyph-name="yacute" unicode="&#xfd;" horiz-adv-x="485" 
d="M158 592l112 136h136l-137 -136h-111zM60 -182v97h51q26 0 38.5 9.5t21.5 36.5l17 53l-181 505h128l115 -354l107 354h121l-193 -572q-26 -75 -59 -102t-102 -27h-64z" />
    <glyph glyph-name="thorn" unicode="&#xfe;" horiz-adv-x="580" 
d="M73 -182v912h120v-264q56 65 148 65q90 0 139 -54.5t49 -159.5v-114q0 -105 -49 -160t-139 -55q-92 0 -148 65v-235h-120zM318 88q91 0 91 116v111q0 116 -92 116q-81 0 -124 -94v-154q43 -95 125 -95z" />
    <glyph glyph-name="ydieresis" unicode="&#xff;" horiz-adv-x="485" 
d="M87 602v113h118v-113h-118zM280 602v113h118v-113h-118zM60 -182v97h51q26 0 38.5 9.5t21.5 36.5l17 53l-181 505h128l115 -354l107 354h121l-193 -572q-26 -75 -59 -102t-102 -27h-64z" />
    <glyph glyph-name="Amacron" unicode="&#x100;" horiz-adv-x="610" 
d="M167 770v86h276v-86h-276zM5 0l237 680h125l238 -680h-130l-52 154h-241l-53 -154h-124zM215 259h175l-87 279z" />
    <glyph glyph-name="amacron" unicode="&#x101;" horiz-adv-x="542" 
d="M127 616v86h276v-86h-276zM206 -12q-79 0 -123.5 42t-44.5 118q0 166 210 166h110v23q0 50 -22.5 73.5t-71.5 23.5q-90 0 -95 -75h-116q12 172 215 172q107 0 158.5 -47.5t51.5 -147.5v-336h-102l-4 68q-59 -80 -166 -80zM236 85q82 0 122 79v64h-94q-57 0 -82 -18
t-25 -55q0 -70 79 -70z" />
    <glyph glyph-name="Abreve" unicode="&#x102;" horiz-adv-x="610" 
d="M305 740q-68 0 -108 37.5t-43 101.5h84q5 -58 67 -58q64 0 67 58h85q-3 -64 -43.5 -101.5t-108.5 -37.5zM5 0l237 680h125l238 -680h-130l-52 154h-241l-53 -154h-124zM215 259h175l-87 279z" />
    <glyph glyph-name="abreve" unicode="&#x103;" horiz-adv-x="542" 
d="M265 586q-68 0 -108 37.5t-43 101.5h84q5 -58 67 -58q64 0 67 58h85q-3 -64 -43.5 -101.5t-108.5 -37.5zM206 -12q-79 0 -123.5 42t-44.5 118q0 166 210 166h110v23q0 50 -22.5 73.5t-71.5 23.5q-90 0 -95 -75h-116q12 172 215 172q107 0 158.5 -47.5t51.5 -147.5v-336
h-102l-4 68q-59 -80 -166 -80zM236 85q82 0 122 79v64h-94q-57 0 -82 -18t-25 -55q0 -70 79 -70z" />
    <glyph glyph-name="Aogonek" unicode="&#x104;" horiz-adv-x="610" 
d="M509 -87q0 -37 45 -37q24 0 51 13v-80q-34 -13 -75 -13q-56 0 -86.5 23t-30.5 67q0 62 68 114h-6l-52 154h-241l-53 -154h-124l237 680h125l238 -680h-28q-68 -42 -68 -87zM215 259h175l-87 279z" />
    <glyph glyph-name="aogonek" unicode="&#x105;" horiz-adv-x="542" 
d="M450 0q-68 -42 -68 -87q0 -37 45 -37q24 0 51 13v-80q-34 -13 -75 -13q-56 0 -86.5 23t-30.5 67q0 72 89 129l-3 53q-59 -80 -166 -80q-79 0 -123.5 42t-44.5 118q0 166 210 166h110v23q0 50 -22.5 73.5t-71.5 23.5q-90 0 -95 -75h-116q12 172 215 172q107 0 158.5 -47.5
t51.5 -147.5v-336h-28zM358 164v64h-94q-57 0 -82 -18t-25 -55q0 -70 79 -70q82 0 122 79z" />
    <glyph glyph-name="Cacute" unicode="&#x106;" horiz-adv-x="615" 
d="M230 746l112 136h136l-137 -136h-111zM316 -12q-131 0 -195 67t-64 206v158q0 139 64 206t195 67q126 0 188.5 -61t66.5 -186h-118q-3 73 -35 106.5t-101 33.5q-73 0 -105.5 -39.5t-32.5 -128.5v-154q0 -89 32.5 -128.5t105.5 -39.5q69 0 101 33.5t35 105.5h118
q-4 -125 -66.5 -185.5t-188.5 -60.5z" />
    <glyph glyph-name="cacute" unicode="&#x107;" horiz-adv-x="522" 
d="M185 592l112 136h136l-137 -136h-111zM273 -12q-222 0 -222 221v102q0 109 56 164.5t166 55.5q211 0 215 -201h-115q-3 52 -27 76.5t-72 24.5q-53 0 -78 -29.5t-25 -92.5v-99q0 -63 25 -92.5t78 -29.5q48 0 72 24.5t27 77.5h115q-5 -202 -215 -202z" />
    <glyph glyph-name="Ccircumflex" unicode="&#x108;" horiz-adv-x="615" 
d="M141 746l117 136h113l118 -136h-111l-63 62l-64 -62h-110zM316 -12q-131 0 -195 67t-64 206v158q0 139 64 206t195 67q126 0 188.5 -61t66.5 -186h-118q-3 73 -35 106.5t-101 33.5q-73 0 -105.5 -39.5t-32.5 -128.5v-154q0 -89 32.5 -128.5t105.5 -39.5q69 0 101 33.5
t35 105.5h118q-4 -125 -66.5 -185.5t-188.5 -60.5z" />
    <glyph glyph-name="ccircumflex" unicode="&#x109;" horiz-adv-x="522" 
d="M96 592l117 136h113l118 -136h-111l-63 62l-64 -62h-110zM273 -12q-222 0 -222 221v102q0 109 56 164.5t166 55.5q211 0 215 -201h-115q-3 52 -27 76.5t-72 24.5q-53 0 -78 -29.5t-25 -92.5v-99q0 -63 25 -92.5t78 -29.5q48 0 72 24.5t27 77.5h115q-5 -202 -215 -202z
" />
    <glyph glyph-name="Cdotaccent" unicode="&#x10a;" horiz-adv-x="615" 
d="M254 756v113h123v-113h-123zM316 -12q-131 0 -195 67t-64 206v158q0 139 64 206t195 67q126 0 188.5 -61t66.5 -186h-118q-3 73 -35 106.5t-101 33.5q-73 0 -105.5 -39.5t-32.5 -128.5v-154q0 -89 32.5 -128.5t105.5 -39.5q69 0 101 33.5t35 105.5h118
q-4 -125 -66.5 -185.5t-188.5 -60.5z" />
    <glyph glyph-name="cdotaccent" unicode="&#x10b;" horiz-adv-x="522" 
d="M209 602v113h123v-113h-123zM273 -12q-222 0 -222 221v102q0 109 56 164.5t166 55.5q211 0 215 -201h-115q-3 52 -27 76.5t-72 24.5q-53 0 -78 -29.5t-25 -92.5v-99q0 -63 25 -92.5t78 -29.5q48 0 72 24.5t27 77.5h115q-5 -202 -215 -202z" />
    <glyph glyph-name="Ccaron" unicode="&#x10c;" horiz-adv-x="615" 
d="M258 746l-117 136h110l64 -62l63 62h111l-118 -136h-113zM316 -12q-131 0 -195 67t-64 206v158q0 139 64 206t195 67q126 0 188.5 -61t66.5 -186h-118q-3 73 -35 106.5t-101 33.5q-73 0 -105.5 -39.5t-32.5 -128.5v-154q0 -89 32.5 -128.5t105.5 -39.5q69 0 101 33.5
t35 105.5h118q-4 -125 -66.5 -185.5t-188.5 -60.5z" />
    <glyph glyph-name="ccaron" unicode="&#x10d;" horiz-adv-x="522" 
d="M213 592l-117 136h110l64 -62l63 62h111l-118 -136h-113zM273 -12q-222 0 -222 221v102q0 109 56 164.5t166 55.5q211 0 215 -201h-115q-3 52 -27 76.5t-72 24.5q-53 0 -78 -29.5t-25 -92.5v-99q0 -63 25 -92.5t78 -29.5q48 0 72 24.5t27 77.5h115q-5 -202 -215 -202z
" />
    <glyph glyph-name="Dcaron" unicode="&#x10e;" horiz-adv-x="645" 
d="M254 746l-117 136h110l64 -62l63 62h111l-118 -136h-113zM83 0v680h245q135 0 198 -64.5t63 -201.5v-148q0 -137 -63 -201.5t-198 -64.5h-245zM205 107h106q85 0 120.5 36.5t35.5 124.5v144q0 88 -35.5 124.5t-120.5 36.5h-106v-466z" />
    <glyph glyph-name="dcaron" unicode="&#x10f;" horiz-adv-x="608" 
d="M239 -12q-91 0 -139.5 54.5t-48.5 159.5v114q0 105 48.5 160t139.5 55q92 0 148 -66v265h120v-730h-102l-4 72q-59 -84 -162 -84zM539 515l40 215h118l-77 -215h-81zM263 88q82 0 124 97v149q-42 97 -125 97q-91 0 -91 -116v-111q0 -116 92 -116z" />
    <glyph glyph-name="Dcroat" unicode="&#x110;" horiz-adv-x="655" 
d="M338 680q135 0 198 -64.5t63 -201.5v-148q0 -137 -63 -201.5t-198 -64.5h-245v294h-69v106h69v280h245zM477 268v144q0 88 -35.5 124.5t-120.5 36.5h-106v-173h132v-106h-132v-187h106q85 0 120.5 36.5t35.5 124.5z" />
    <glyph glyph-name="dcroat" unicode="&#x111;" horiz-adv-x="588" 
d="M583 663v-85h-76v-578h-102l-4 72q-59 -84 -162 -84q-91 0 -139.5 54.5t-48.5 159.5v114q0 105 48.5 160t139.5 55q92 0 148 -66v113h-128v85h128v67h120v-67h76zM387 185v149q-42 97 -125 97q-91 0 -91 -116v-111q0 -116 92 -116q82 0 124 97z" />
    <glyph glyph-name="Emacron" unicode="&#x112;" horiz-adv-x="585" 
d="M173 770v86h276v-86h-276zM83 0v680h456v-107h-334v-173h284v-106h-284v-187h344v-107h-466z" />
    <glyph glyph-name="emacron" unicode="&#x113;" horiz-adv-x="551" 
d="M136 616v86h276v-86h-276zM282 -12q-113 0 -172 56t-59 165v102q0 107 57.5 163.5t167.5 56.5q111 0 168.5 -56.5t57.5 -164.5v-86h-331v-16q0 -63 26.5 -93t84.5 -30q47 0 73 19t29 53h115q-4 -83 -60 -126t-157 -43zM171 313h217q0 63 -26 92t-82 29q-57 0 -83 -29
t-26 -92z" />
    <glyph glyph-name="Ebreve" unicode="&#x114;" horiz-adv-x="585" 
d="M311 740q-68 0 -108 37.5t-43 101.5h84q5 -58 67 -58q64 0 67 58h85q-3 -64 -43.5 -101.5t-108.5 -37.5zM83 0v680h456v-107h-334v-173h284v-106h-284v-187h344v-107h-466z" />
    <glyph glyph-name="ebreve" unicode="&#x115;" horiz-adv-x="551" 
d="M274 586q-68 0 -108 37.5t-43 101.5h84q5 -58 67 -58q64 0 67 58h85q-3 -64 -43.5 -101.5t-108.5 -37.5zM282 -12q-113 0 -172 56t-59 165v102q0 107 57.5 163.5t167.5 56.5q111 0 168.5 -56.5t57.5 -164.5v-86h-331v-16q0 -63 26.5 -93t84.5 -30q47 0 73 19t29 53h115
q-4 -83 -60 -126t-157 -43zM171 313h217q0 63 -26 92t-82 29q-57 0 -83 -29t-26 -92z" />
    <glyph glyph-name="Edotaccent" unicode="&#x116;" horiz-adv-x="585" 
d="M250 756v113h123v-113h-123zM83 0v680h456v-107h-334v-173h284v-106h-284v-187h344v-107h-466z" />
    <glyph glyph-name="edotaccent" unicode="&#x117;" horiz-adv-x="551" 
d="M213 602v113h123v-113h-123zM282 -12q-113 0 -172 56t-59 165v102q0 107 57.5 163.5t167.5 56.5q111 0 168.5 -56.5t57.5 -164.5v-86h-331v-16q0 -63 26.5 -93t84.5 -30q47 0 73 19t29 53h115q-4 -83 -60 -126t-157 -43zM171 313h217q0 63 -26 92t-82 29q-57 0 -83 -29
t-26 -92z" />
    <glyph glyph-name="Eogonek" unicode="&#x118;" horiz-adv-x="585" 
d="M521 0q-68 -42 -68 -87q0 -37 45 -37q24 0 51 13v-80q-34 -13 -75 -13q-56 0 -86.5 23t-30.5 67q0 62 68 114h-342v680h456v-107h-334v-173h284v-106h-284v-187h344v-107h-28z" />
    <glyph glyph-name="eogonek" unicode="&#x119;" horiz-adv-x="551" 
d="M502 224h-331v-16q0 -63 26.5 -93t84.5 -30q47 0 73 19t29 53h115q-4 -89 -69 -132q-65 -54 -65 -110q0 -39 45 -39q26 0 51 13v-80q-29 -13 -74 -13q-118 0 -118 92q0 51 42 101q-9 -1 -29 -1q-113 0 -172 56t-59 165v102q0 107 57.5 163.5t167.5 56.5
q111 0 168.5 -56.5t57.5 -164.5v-86zM280 434q-57 0 -83 -29t-26 -92h217q0 63 -26 92t-82 29z" />
    <glyph glyph-name="Ecaron" unicode="&#x11a;" horiz-adv-x="585" 
d="M254 746l-117 136h110l64 -62l63 62h111l-118 -136h-113zM83 0v680h456v-107h-334v-173h284v-106h-284v-187h344v-107h-466z" />
    <glyph glyph-name="ecaron" unicode="&#x11b;" horiz-adv-x="551" 
d="M217 592l-117 136h110l64 -62l63 62h111l-118 -136h-113zM282 -12q-113 0 -172 56t-59 165v102q0 107 57.5 163.5t167.5 56.5q111 0 168.5 -56.5t57.5 -164.5v-86h-331v-16q0 -63 26.5 -93t84.5 -30q47 0 73 19t29 53h115q-4 -83 -60 -126t-157 -43zM171 313h217
q0 63 -26 92t-82 29q-57 0 -83 -29t-26 -92z" />
    <glyph glyph-name="Gcircumflex" unicode="&#x11c;" horiz-adv-x="635" 
d="M143 746l117 136h113l118 -136h-111l-63 62l-64 -62h-110zM323 -12q-266 0 -266 267v170q0 132 66 199.5t196 67.5q119 0 185.5 -57t70.5 -166h-117q-8 116 -138 116q-73 0 -107 -40t-34 -127v-156q0 -87 35 -127t111 -40q73 0 106 37.5t33 120.5v17h-127v107h245v-125
q0 -264 -259 -264z" />
    <glyph glyph-name="gcircumflex" unicode="&#x11d;" horiz-adv-x="580" 
d="M108 592l117 136h113l118 -136h-111l-63 62l-64 -62h-110zM277 -194q-207 0 -216 166h112q7 -69 102 -69q59 0 85.5 26t26.5 84v71q-56 -65 -148 -65q-91 0 -139.5 55t-48.5 160v83q0 105 48.5 159.5t139.5 54.5q102 0 162 -83l4 71h102v-506q0 -105 -57 -156t-173 -51z
M262 119q83 0 125 97v119q-42 96 -124 96q-92 0 -92 -116v-80q0 -116 91 -116z" />
    <glyph glyph-name="Gbreve" unicode="&#x11e;" horiz-adv-x="635" 
d="M317 740q-68 0 -108 37.5t-43 101.5h84q5 -58 67 -58q64 0 67 58h85q-3 -64 -43.5 -101.5t-108.5 -37.5zM323 -12q-266 0 -266 267v170q0 132 66 199.5t196 67.5q119 0 185.5 -57t70.5 -166h-117q-8 116 -138 116q-73 0 -107 -40t-34 -127v-156q0 -87 35 -127t111 -40
q73 0 106 37.5t33 120.5v17h-127v107h245v-125q0 -264 -259 -264z" />
    <glyph glyph-name="gbreve" unicode="&#x11f;" horiz-adv-x="580" 
d="M282 586q-68 0 -108 37.5t-43 101.5h84q5 -58 67 -58q64 0 67 58h85q-3 -64 -43.5 -101.5t-108.5 -37.5zM277 -194q-207 0 -216 166h112q7 -69 102 -69q59 0 85.5 26t26.5 84v71q-56 -65 -148 -65q-91 0 -139.5 55t-48.5 160v83q0 105 48.5 159.5t139.5 54.5
q102 0 162 -83l4 71h102v-506q0 -105 -57 -156t-173 -51zM262 119q83 0 125 97v119q-42 96 -124 96q-92 0 -92 -116v-80q0 -116 91 -116z" />
    <glyph glyph-name="Gdotaccent" unicode="&#x120;" horiz-adv-x="635" 
d="M256 756v113h123v-113h-123zM323 -12q-266 0 -266 267v170q0 132 66 199.5t196 67.5q119 0 185.5 -57t70.5 -166h-117q-8 116 -138 116q-73 0 -107 -40t-34 -127v-156q0 -87 35 -127t111 -40q73 0 106 37.5t33 120.5v17h-127v107h245v-125q0 -264 -259 -264z" />
    <glyph glyph-name="gdotaccent" unicode="&#x121;" horiz-adv-x="580" 
d="M221 602v113h123v-113h-123zM277 -194q-207 0 -216 166h112q7 -69 102 -69q59 0 85.5 26t26.5 84v71q-56 -65 -148 -65q-91 0 -139.5 55t-48.5 160v83q0 105 48.5 159.5t139.5 54.5q102 0 162 -83l4 71h102v-506q0 -105 -57 -156t-173 -51zM262 119q83 0 125 97v119
q-42 96 -124 96q-92 0 -92 -116v-80q0 -116 91 -116z" />
    <glyph glyph-name="Gcommaaccent" unicode="&#x122;" horiz-adv-x="635" 
d="M323 -12q-266 0 -266 267v170q0 132 66 199.5t196 67.5q119 0 185.5 -57t70.5 -166h-117q-8 116 -138 116q-73 0 -107 -40t-34 -127v-156q0 -87 35 -127t111 -40q73 0 106 37.5t33 120.5v17h-127v107h245v-125q0 -264 -259 -264zM260 -247v49q55 0 55 43h-52v89h122v-63
q0 -65 -25.5 -91.5t-99.5 -26.5z" />
    <glyph glyph-name="gcommaaccent" unicode="&#x123;" horiz-adv-x="580" 
d="M346 766v-49q-55 0 -55 -43h52v-89h-122v63q0 65 25.5 91.5t99.5 26.5zM277 -194q-207 0 -216 166h112q7 -69 102 -69q59 0 85.5 26t26.5 84v71q-56 -65 -148 -65q-91 0 -139.5 55t-48.5 160v83q0 105 48.5 159.5t139.5 54.5q102 0 162 -83l4 71h102v-506
q0 -105 -57 -156t-173 -51zM262 119q83 0 125 97v119q-42 96 -124 96q-92 0 -92 -116v-80q0 -116 91 -116z" />
    <glyph glyph-name="Hcircumflex" unicode="&#x124;" horiz-adv-x="688" 
d="M170 746l117 136h113l118 -136h-111l-63 62l-64 -62h-110zM83 0v680h122v-279h278v279h122v-680h-122v293h-278v-293h-122z" />
    <glyph glyph-name="hcircumflex" unicode="&#x125;" horiz-adv-x="570" 
d="M-41 796l117 136h113l118 -136h-111l-63 62l-64 -62h-110zM73 0v730h120v-264q56 65 147 65q163 0 163 -188v-343h-120v332q0 93 -73 93q-74 0 -117 -88v-337h-120z" />
    <glyph glyph-name="Hbar" unicode="&#x126;" horiz-adv-x="708" 
d="M684 578v-91h-69v-487h-122v293h-278v-293h-122v487h-69v91h69v102h122v-102h278v102h122v-102h69zM493 401v86h-278v-86h278z" />
    <glyph glyph-name="hbar" unicode="&#x127;" horiz-adv-x="578" 
d="M348 531q163 0 163 -188v-343h-120v332q0 93 -73 93q-74 0 -117 -88v-337h-120v578h-76v85h76v67h120v-67h128v-85h-128v-112q56 65 147 65z" />
    <glyph glyph-name="Itilde" unicode="&#x128;" horiz-adv-x="288" 
d="M196 745q-24 0 -66 28q-26 17 -37 17q-26 0 -29 -42h-72q2 65 25 97t73 32q25 0 67 -28q25 -16 37 -16q26 0 29 41h72q-2 -64 -25 -96.5t-74 -32.5zM83 0v680h122v-680h-122z" />
    <glyph glyph-name="itilde" unicode="&#x129;" horiz-adv-x="266" 
d="M185 591q-24 0 -66 28q-25 17 -37 17q-26 0 -29 -42h-72q2 65 25 97t73 32q25 0 67 -28q25 -16 37 -16q26 0 29 41h72q-2 -64 -25 -96.5t-74 -32.5zM73 0v519h120v-519h-120z" />
    <glyph glyph-name="Imacron" unicode="&#x12a;" horiz-adv-x="288" 
d="M17 770v86h254v-86h-254zM83 0v680h122v-680h-122z" />
    <glyph glyph-name="imacron" unicode="&#x12b;" horiz-adv-x="266" 
d="M6 616v86h254v-86h-254zM73 0v519h120v-519h-120z" />
    <glyph glyph-name="Ibreve" unicode="&#x12c;" horiz-adv-x="288" 
d="M144 740q-65 0 -104 38t-41 101h83q3 -58 62 -58q58 0 61 58h83q-2 -63 -40.5 -101t-103.5 -38zM83 0v680h122v-680h-122z" />
    <glyph glyph-name="ibreve" unicode="&#x12d;" horiz-adv-x="266" 
d="M133 586q-65 0 -104 38t-41 101h83q3 -58 62 -58q58 0 61 58h83q-2 -63 -40.5 -101t-103.5 -38zM73 0v519h120v-519h-120z" />
    <glyph glyph-name="Iogonek" unicode="&#x12e;" horiz-adv-x="288" 
d="M174 -124q27 0 53 13v-80q-33 -13 -77 -13q-56 0 -87 23t-31 66q0 64 71 115h-20v680h122v-680h-18q-59 -40 -59 -86q0 -38 46 -38z" />
    <glyph glyph-name="iogonek" unicode="&#x12f;" horiz-adv-x="266" 
d="M197 715v-113h-128v113h128zM162 -124q27 0 53 13v-80q-33 -13 -77 -13q-56 0 -87 23t-31 66q0 64 71 115h-18v519h120v-519h-18q-59 -40 -59 -86q0 -38 46 -38z" />
    <glyph glyph-name="Idotaccent" unicode="&#x130;" horiz-adv-x="288" 
d="M83 756v113h123v-113h-123zM83 0v680h122v-680h-122z" />
    <glyph glyph-name="dotlessi" unicode="&#x131;" horiz-adv-x="266" 
d="M73 0v519h120v-519h-120z" />
    <glyph glyph-name="IJ" unicode="&#x132;" horiz-adv-x="839" 
d="M83 0v680h122v-680h-122zM536 -12q-120 0 -176 56.5t-56 177.5v18h117v-18q0 -67 26.5 -97t87.5 -30t88 32.5t27 104.5v448h122v-453q0 -124 -57 -181.5t-179 -57.5z" />
    <glyph glyph-name="ij" unicode="&#x133;" horiz-adv-x="532" 
d="M69 602v113h128v-113h-128zM335 602v113h128v-113h-128zM73 0v519h120v-519h-120zM264 -182v97h28q27 0 37 11.5t10 43.5v549h120v-550q0 -79 -31.5 -115t-102.5 -36h-61z" />
    <glyph glyph-name="Jcircumflex" unicode="&#x134;" horiz-adv-x="551" 
d="M257 746l110 136h113l110 -136h-107l-60 63l-59 -63h-107zM248 -12q-120 0 -176 56.5t-56 177.5v18h117v-18q0 -67 26.5 -97t87.5 -30t88 32.5t27 104.5v448h122v-453q0 -124 -57 -181.5t-179 -57.5z" />
    <glyph glyph-name="jcircumflex" unicode="&#x135;" horiz-adv-x="266" 
d="M-33 592l110 136h113l110 -136h-107l-60 63l-59 -63h-107zM-2 -182v97h28q27 0 37 11.5t10 43.5v549h120v-550q0 -79 -31.5 -115t-102.5 -36h-61z" />
    <glyph glyph-name="Kcommaaccent" unicode="&#x136;" horiz-adv-x="620" 
d="M83 0v680h122v-329l271 329h143l-229 -279l232 -401h-140l-177 307l-100 -119v-188h-122zM275 -247v49q55 0 55 43h-52v89h122v-63q0 -65 -25.5 -91.5t-99.5 -26.5z" />
    <glyph glyph-name="kcommaaccent" unicode="&#x137;" horiz-adv-x="539" 
d="M73 0v730h120v-438l202 227h144l-189 -211l192 -308h-140l-137 221l-72 -79v-142h-120zM229 -247v49q55 0 55 43h-52v89h122v-63q0 -65 -25.5 -91.5t-99.5 -26.5z" />
    <glyph glyph-name="kgreenlandic" unicode="&#x138;" horiz-adv-x="539" 
d="M73 0v519h120v-227l202 227h144l-189 -211l192 -308h-140l-137 221l-72 -79v-142h-120z" />
    <glyph glyph-name="Lacute" unicode="&#x139;" horiz-adv-x="518" 
d="M59 746l112 136h136l-137 -136h-111zM83 0v680h122v-571h306v-109h-428z" />
    <glyph glyph-name="lacute" unicode="&#x13a;" horiz-adv-x="266" 
d="M48 796l112 136h136l-137 -136h-111zM73 0v730h120v-730h-120z" />
    <glyph glyph-name="Lcommaaccent" unicode="&#x13b;" horiz-adv-x="518" 
d="M83 0v680h122v-571h306v-109h-428zM233 -247v49q55 0 55 43h-52v89h122v-63q0 -65 -25.5 -91.5t-99.5 -26.5z" />
    <glyph glyph-name="lcommaaccent" unicode="&#x13c;" horiz-adv-x="266" 
d="M73 0v730h120v-730h-120zM69 -247v49q55 0 55 43h-52v89h122v-63q0 -65 -25.5 -91.5t-99.5 -26.5z" />
    <glyph glyph-name="Lcaron" unicode="&#x13d;" horiz-adv-x="518" 
d="M83 0v680h122v-571h306v-109h-428zM255 465l40 215h118l-77 -215h-81z" />
    <glyph glyph-name="lcaron" unicode="&#x13e;" horiz-adv-x="293" 
d="M73 0v730h120v-730h-120zM224 515l40 215h118l-77 -215h-81z" />
    <glyph glyph-name="Ldot" unicode="&#x13f;" horiz-adv-x="518" 
d="M83 0v680h122v-571h306v-109h-428zM342 314v122h122v-122h-122z" />
    <glyph glyph-name="ldot" unicode="&#x140;" horiz-adv-x="330" 
d="M73 0v730h120v-730h-120zM239 303v113h119v-113h-119z" />
    <glyph glyph-name="Lslash" unicode="&#x141;" horiz-adv-x="528" 
d="M215 109h306v-109h-428v181l-69 -47v121l69 47v378h122v-296l188 127v-120l-188 -127v-155z" />
    <glyph glyph-name="lslash" unicode="&#x142;" horiz-adv-x="294" 
d="M289 526v-111l-82 -56v-359h-120v276l-82 -56v111l82 56v343h120v-260z" />
    <glyph glyph-name="Nacute" unicode="&#x143;" horiz-adv-x="686" 
d="M258 746l112 136h136l-137 -136h-111zM83 0v680h135l269 -472v472h116v-680h-117l-287 503v-503h-116z" />
    <glyph glyph-name="nacute" unicode="&#x144;" horiz-adv-x="570" 
d="M201 592l112 136h136l-137 -136h-111zM73 0v519h102l4 -71q60 83 161 83q163 0 163 -188v-343h-120v332q0 93 -74 93q-73 0 -116 -88v-337h-120z" />
    <glyph glyph-name="Ncommaaccent" unicode="&#x145;" horiz-adv-x="686" 
d="M83 0v680h135l269 -472v472h116v-680h-117l-287 503v-503h-116zM278 -247v49q55 0 55 43h-52v89h122v-63q0 -65 -25.5 -91.5t-99.5 -26.5z" />
    <glyph glyph-name="ncommaaccent" unicode="&#x146;" horiz-adv-x="570" 
d="M73 0v519h102l4 -71q60 83 161 83q163 0 163 -188v-343h-120v332q0 93 -74 93q-73 0 -116 -88v-337h-120zM224 -247v49q55 0 55 43h-52v89h122v-63q0 -65 -25.5 -91.5t-99.5 -26.5z" />
    <glyph glyph-name="Ncaron" unicode="&#x147;" horiz-adv-x="686" 
d="M286 746l-117 136h110l64 -62l63 62h111l-118 -136h-113zM83 0v680h135l269 -472v472h116v-680h-117l-287 503v-503h-116z" />
    <glyph glyph-name="ncaron" unicode="&#x148;" horiz-adv-x="570" 
d="M229 592l-117 136h110l64 -62l63 62h111l-118 -136h-113zM73 0v519h102l4 -71q60 83 161 83q163 0 163 -188v-343h-120v332q0 93 -74 93q-73 0 -116 -88v-337h-120z" />
    <glyph glyph-name="napostrophe" unicode="&#x149;" horiz-adv-x="613" 
d="M-3 524v55q29 0 41 11.5t12 34.5h-50v105h120v-84q0 -63 -26.5 -92.5t-96.5 -29.5zM116 0v519h102l4 -71q60 83 161 83q163 0 163 -188v-343h-120v332q0 93 -74 93q-73 0 -116 -88v-337h-120z" />
    <glyph glyph-name="Eng" unicode="&#x14a;" horiz-adv-x="686" 
d="M407 -182v97h32q28 0 38 11.5t10 43.5v29l-288 504v-503h-116v680h135l269 -472v472h116v-711q0 -79 -31.5 -115t-101.5 -36h-63z" />
    <glyph glyph-name="eng" unicode="&#x14b;" horiz-adv-x="570" 
d="M340 531q163 0 163 -188v-374q0 -79 -31.5 -115t-101.5 -36h-62v95h28q27 0 37 11.5t10 43.5v364q0 93 -74 93q-73 0 -116 -88v-337h-120v519h102l4 -71q60 83 161 83z" />
    <glyph glyph-name="Omacron" unicode="&#x14c;" horiz-adv-x="654" 
d="M188 770v86h276v-86h-276zM327 -12q-137 0 -203.5 67.5t-66.5 206.5v156q0 139 66.5 206.5t203.5 67.5t203.5 -67.5t66.5 -206.5v-156q0 -139 -66.5 -206.5t-203.5 -67.5zM327 95q78 0 113 40t35 128v154q0 88 -35 128t-113 40t-113 -40t-35 -128v-154q0 -88 35 -128
t113 -40z" />
    <glyph glyph-name="omacron" unicode="&#x14d;" horiz-adv-x="562" 
d="M143 616v86h276v-86h-276zM281 -12q-230 0 -230 226v91q0 226 230 226q231 0 231 -226v-91q0 -226 -231 -226zM281 88q58 0 84.5 31t26.5 98v85q0 67 -26.5 98t-84.5 31q-57 0 -83.5 -31t-26.5 -98v-85q0 -67 26.5 -98t83.5 -31z" />
    <glyph glyph-name="Obreve" unicode="&#x14e;" horiz-adv-x="654" 
d="M326 740q-68 0 -108 37.5t-43 101.5h84q5 -58 67 -58q64 0 67 58h85q-3 -64 -43.5 -101.5t-108.5 -37.5zM327 -12q-137 0 -203.5 67.5t-66.5 206.5v156q0 139 66.5 206.5t203.5 67.5t203.5 -67.5t66.5 -206.5v-156q0 -139 -66.5 -206.5t-203.5 -67.5zM327 95q78 0 113 40
t35 128v154q0 88 -35 128t-113 40t-113 -40t-35 -128v-154q0 -88 35 -128t113 -40z" />
    <glyph glyph-name="obreve" unicode="&#x14f;" horiz-adv-x="562" 
d="M281 586q-68 0 -108 37.5t-43 101.5h84q5 -58 67 -58q64 0 67 58h85q-3 -64 -43.5 -101.5t-108.5 -37.5zM281 -12q-230 0 -230 226v91q0 226 230 226q231 0 231 -226v-91q0 -226 -231 -226zM281 88q58 0 84.5 31t26.5 98v85q0 67 -26.5 98t-84.5 31q-57 0 -83.5 -31
t-26.5 -98v-85q0 -67 26.5 -98t83.5 -31z" />
    <glyph glyph-name="Ohungarumlaut" unicode="&#x150;" horiz-adv-x="654" 
d="M160 746l87 136h129l-114 -136h-102zM354 746l87 136h129l-114 -136h-102zM327 -12q-137 0 -203.5 67.5t-66.5 206.5v156q0 139 66.5 206.5t203.5 67.5t203.5 -67.5t66.5 -206.5v-156q0 -139 -66.5 -206.5t-203.5 -67.5zM327 95q78 0 113 40t35 128v154q0 88 -35 128
t-113 40t-113 -40t-35 -128v-154q0 -88 35 -128t113 -40z" />
    <glyph glyph-name="ohungarumlaut" unicode="&#x151;" horiz-adv-x="562" 
d="M115 592l87 136h129l-114 -136h-102zM309 592l87 136h129l-114 -136h-102zM281 -12q-230 0 -230 226v91q0 226 230 226q231 0 231 -226v-91q0 -226 -231 -226zM281 88q58 0 84.5 31t26.5 98v85q0 67 -26.5 98t-84.5 31q-57 0 -83.5 -31t-26.5 -98v-85q0 -67 26.5 -98
t83.5 -31z" />
    <glyph glyph-name="OE" unicode="&#x152;" horiz-adv-x="900" 
d="M318 0q-136 0 -199 64.5t-63 201.5v148q0 137 63.5 201.5t198.5 64.5h536v-107h-309v-173h259v-106h-259v-187h319v-107h-546zM334 107h89v466h-89q-85 0 -120.5 -36.5t-35.5 -124.5v-144q0 -88 35.5 -124.5t120.5 -36.5z" />
    <glyph glyph-name="oe" unicode="&#x153;" horiz-adv-x="892" 
d="M273 -12q-109 0 -165.5 57.5t-56.5 168.5v91q0 111 56.5 168.5t165.5 57.5q127 0 178 -81q49 81 174 81q106 0 162 -56t56 -164v-87h-332v-16q0 -63 26.5 -93t84.5 -30q96 0 102 72h115q-4 -82 -58 -125.5t-150 -43.5q-129 0 -180 82q-51 -82 -178 -82zM511 313h217
q0 63 -25.5 92t-82.5 29t-83 -29t-26 -92zM281 88q57 0 84 31t27 98v85q0 67 -27 98t-84 31t-83.5 -31t-26.5 -98v-85q0 -67 26.5 -98t83.5 -31z" />
    <glyph glyph-name="Racute" unicode="&#x154;" horiz-adv-x="632" 
d="M221 746l112 136h136l-137 -136h-111zM83 0v680h270q121 0 173.5 -49t52.5 -160q0 -85 -31 -133t-99 -65l156 -273h-140l-148 263h-112v-263h-122zM205 369h136q64 0 90 23.5t26 78.5q0 56 -26 79t-90 23h-136v-204z" />
    <glyph glyph-name="racute" unicode="&#x155;" horiz-adv-x="368" 
d="M119 592l112 136h136l-137 -136h-111zM73 0v519h102l5 -95q34 105 140 105h37v-114h-27q-60 0 -92.5 -27.5t-44.5 -89.5v-298h-120z" />
    <glyph glyph-name="Rcommaaccent" unicode="&#x156;" horiz-adv-x="632" 
d="M83 0v680h270q121 0 173.5 -49t52.5 -160q0 -85 -31 -133t-99 -65l156 -273h-140l-148 263h-112v-263h-122zM205 369h136q64 0 90 23.5t26 78.5q0 56 -26 79t-90 23h-136v-204zM268 -247v49q55 0 55 43h-52v89h122v-63q0 -65 -25.5 -91.5t-99.5 -26.5z" />
    <glyph glyph-name="rcommaaccent" unicode="&#x157;" horiz-adv-x="368" 
d="M73 0v519h102l5 -95q34 105 140 105h37v-114h-27q-60 0 -92.5 -27.5t-44.5 -89.5v-298h-120zM69 -247v49q55 0 55 43h-52v89h122v-63q0 -65 -25.5 -91.5t-99.5 -26.5z" />
    <glyph glyph-name="Rcaron" unicode="&#x158;" horiz-adv-x="632" 
d="M249 746l-117 136h110l64 -62l63 62h111l-118 -136h-113zM83 0v680h270q121 0 173.5 -49t52.5 -160q0 -85 -31 -133t-99 -65l156 -273h-140l-148 263h-112v-263h-122zM205 369h136q64 0 90 23.5t26 78.5q0 56 -26 79t-90 23h-136v-204z" />
    <glyph glyph-name="rcaron" unicode="&#x159;" horiz-adv-x="368" 
d="M147 592l-117 136h110l64 -62l63 62h111l-118 -136h-113zM73 0v519h102l5 -95q34 105 140 105h37v-114h-27q-60 0 -92.5 -27.5t-44.5 -89.5v-298h-120z" />
    <glyph glyph-name="Sacute" unicode="&#x15a;" horiz-adv-x="561" 
d="M188 746l112 136h136l-137 -136h-111zM281 -12q-126 0 -187.5 52t-61.5 159h120q0 -108 131 -108q123 0 123 90q0 48 -34 72t-118 37q-115 17 -163 62t-48 136q0 101 61.5 152.5t180.5 51.5q233 0 233 -205h-120q0 101 -116 101q-118 0 -118 -88q0 -44 32.5 -66.5
t111.5 -33.5q120 -16 169.5 -64t49.5 -143q0 -205 -246 -205z" />
    <glyph glyph-name="sacute" unicode="&#x15b;" horiz-adv-x="501" 
d="M162 592l112 136h136l-137 -136h-111zM251 -12q-217 0 -217 168h114q0 -76 103 -76q95 0 95 61q0 32 -26.5 48t-92.5 24q-99 12 -141 47t-42 107q0 80 53.5 122t153.5 42q202 0 202 -163h-115q0 71 -88 71q-42 0 -65 -15.5t-23 -43.5q0 -31 26 -45.5t90 -21.5
q101 -11 143.5 -48.5t42.5 -112.5q0 -164 -213 -164z" />
    <glyph glyph-name="Scircumflex" unicode="&#x15c;" horiz-adv-x="561" 
d="M99 746l117 136h113l118 -136h-111l-63 62l-64 -62h-110zM281 -12q-126 0 -187.5 52t-61.5 159h120q0 -108 131 -108q123 0 123 90q0 48 -34 72t-118 37q-115 17 -163 62t-48 136q0 101 61.5 152.5t180.5 51.5q233 0 233 -205h-120q0 101 -116 101q-118 0 -118 -88
q0 -44 32.5 -66.5t111.5 -33.5q120 -16 169.5 -64t49.5 -143q0 -205 -246 -205z" />
    <glyph glyph-name="scircumflex" unicode="&#x15d;" horiz-adv-x="501" 
d="M73 592l117 136h113l118 -136h-111l-63 62l-64 -62h-110zM251 -12q-217 0 -217 168h114q0 -76 103 -76q95 0 95 61q0 32 -26.5 48t-92.5 24q-99 12 -141 47t-42 107q0 80 53.5 122t153.5 42q202 0 202 -163h-115q0 71 -88 71q-42 0 -65 -15.5t-23 -43.5q0 -31 26 -45.5
t90 -21.5q101 -11 143.5 -48.5t42.5 -112.5q0 -164 -213 -164z" />
    <glyph glyph-name="Scedilla" unicode="&#x15e;" horiz-adv-x="561" 
d="M527 193q0 -192 -214 -204l-17 -45q101 0 101 -73q0 -38 -29 -58t-100 -20q-66 0 -107 22l21 52q32 -17 66 -17q46 0 46 27q0 13 -11.5 18t-43.5 5h-21l35 89q-221 10 -221 210h120q0 -108 131 -108q123 0 123 90q0 48 -34 72t-118 37q-115 17 -163 62t-48 136
q0 101 61.5 152.5t180.5 51.5q233 0 233 -205h-120q0 101 -116 101q-118 0 -118 -88q0 -44 32.5 -66.5t111.5 -33.5q120 -16 169.5 -64t49.5 -143z" />
    <glyph glyph-name="scedilla" unicode="&#x15f;" horiz-adv-x="501" 
d="M464 152q0 -152 -183 -163l-17 -45q101 0 101 -73q0 -38 -29 -58t-100 -20q-66 0 -107 22l21 52q32 -17 66 -17q46 0 46 27q0 13 -11.5 18t-43.5 5h-21l35 89q-187 10 -187 167h114q0 -76 103 -76q95 0 95 61q0 32 -26.5 48t-92.5 24q-99 12 -141 47t-42 107
q0 80 53.5 122t153.5 42q202 0 202 -163h-115q0 71 -88 71q-42 0 -65 -15.5t-23 -43.5q0 -31 26 -45.5t90 -21.5q101 -11 143.5 -48.5t42.5 -112.5z" />
    <glyph glyph-name="Scaron" unicode="&#x160;" horiz-adv-x="561" 
d="M216 746l-117 136h110l64 -62l63 62h111l-118 -136h-113zM281 -12q-126 0 -187.5 52t-61.5 159h120q0 -108 131 -108q123 0 123 90q0 48 -34 72t-118 37q-115 17 -163 62t-48 136q0 101 61.5 152.5t180.5 51.5q233 0 233 -205h-120q0 101 -116 101q-118 0 -118 -88
q0 -44 32.5 -66.5t111.5 -33.5q120 -16 169.5 -64t49.5 -143q0 -205 -246 -205z" />
    <glyph glyph-name="scaron" unicode="&#x161;" horiz-adv-x="501" 
d="M190 592l-117 136h110l64 -62l63 62h111l-118 -136h-113zM251 -12q-217 0 -217 168h114q0 -76 103 -76q95 0 95 61q0 32 -26.5 48t-92.5 24q-99 12 -141 47t-42 107q0 80 53.5 122t153.5 42q202 0 202 -163h-115q0 71 -88 71q-42 0 -65 -15.5t-23 -43.5q0 -31 26 -45.5
t90 -21.5q101 -11 143.5 -48.5t42.5 -112.5q0 -164 -213 -164z" />
    <glyph glyph-name="uni0162" unicode="&#x162;" horiz-adv-x="518" 
d="M320 0h-29l-25 -56q98 -1 98 -73q0 -38 -29 -58t-100 -20q-66 0 -107 22l21 52q32 -17 66 -17q46 0 46 27q0 13 -11.5 18t-43.5 5h-21l45 100h-32v571h-191v109h504v-109h-191v-571z" />
    <glyph glyph-name="uni0163" unicode="&#x163;" horiz-adv-x="352" 
d="M228 0l-21 -56q101 0 101 -73q0 -38 -29 -58t-100 -20q-66 0 -107 22l21 52q32 -17 66 -17q46 0 46 27q0 13 -11.5 18t-43.5 5h-21l43 110q-80 28 -80 156v260h-82v93h84l8 133h110v-133h117v-93h-117v-256q0 -43 13 -58t51 -15h58v-97h-106z" />
    <glyph glyph-name="Tcaron" unicode="&#x164;" horiz-adv-x="518" 
d="M202 746l-117 136h110l64 -62l63 62h111l-118 -136h-113zM198 0v571h-191v109h504v-109h-191v-571h-122z" />
    <glyph glyph-name="tcaron" unicode="&#x165;" horiz-adv-x="352" 
d="M242 563l40 215h118l-77 -215h-81zM239 0q-77 0 -112 39t-35 127v260h-82v93h84l8 133h110v-133h117v-93h-117v-256q0 -43 13 -58t51 -15h58v-97h-95z" />
    <glyph glyph-name="Tbar" unicode="&#x166;" horiz-adv-x="518" 
d="M511 571h-191v-176h127v-107h-127v-288h-122v288h-128v107h128v176h-191v109h504v-109z" />
    <glyph glyph-name="tbar" unicode="&#x167;" horiz-adv-x="352" 
d="M276 97h58v-97h-95q-77 0 -112 39t-35 127v90h-75v87h75v83h-82v93h84l8 133h110v-133h117v-93h-117v-83h108v-87h-108v-86q0 -43 13 -58t51 -15z" />
    <glyph glyph-name="Utilde" unicode="&#x168;" horiz-adv-x="635" 
d="M375 745q-33 0 -73 28q-24 17 -39 17q-27 0 -31 -42h-74q4 129 101 129q33 0 73 -27q26 -17 39 -17q28 0 31 41h74q-4 -129 -101 -129zM318 -12q-131 0 -190.5 56.5t-59.5 181.5v454h122v-451q0 -73 29.5 -103.5t100.5 -30.5t100.5 30.5t29.5 103.5v451h118v-454
q0 -125 -59 -181.5t-191 -56.5z" />
    <glyph glyph-name="utilde" unicode="&#x169;" horiz-adv-x="574" 
d="M342 591q-33 0 -73 28q-24 17 -39 17q-27 0 -31 -42h-74q4 129 101 129q32 0 73 -27q26 -17 39 -17q28 0 31 41h74q-4 -129 -101 -129zM232 -12q-165 0 -165 188v343h120v-332q0 -48 18 -70.5t57 -22.5q77 0 119 90v335h120v-519h-102l-4 73q-62 -85 -163 -85z" />
    <glyph glyph-name="Umacron" unicode="&#x16a;" horiz-adv-x="635" 
d="M179 770v86h276v-86h-276zM318 -12q-131 0 -190.5 56.5t-59.5 181.5v454h122v-451q0 -73 29.5 -103.5t100.5 -30.5t100.5 30.5t29.5 103.5v451h118v-454q0 -125 -59 -181.5t-191 -56.5z" />
    <glyph glyph-name="umacron" unicode="&#x16b;" horiz-adv-x="574" 
d="M146 616v86h276v-86h-276zM232 -12q-165 0 -165 188v343h120v-332q0 -48 18 -70.5t57 -22.5q77 0 119 90v335h120v-519h-102l-4 73q-62 -85 -163 -85z" />
    <glyph glyph-name="Ubreve" unicode="&#x16c;" horiz-adv-x="635" 
d="M317 740q-68 0 -108 37.5t-43 101.5h84q5 -58 67 -58q64 0 67 58h85q-3 -64 -43.5 -101.5t-108.5 -37.5zM318 -12q-131 0 -190.5 56.5t-59.5 181.5v454h122v-451q0 -73 29.5 -103.5t100.5 -30.5t100.5 30.5t29.5 103.5v451h118v-454q0 -125 -59 -181.5t-191 -56.5z" />
    <glyph glyph-name="ubreve" unicode="&#x16d;" horiz-adv-x="574" 
d="M284 586q-68 0 -108 37.5t-43 101.5h84q5 -58 67 -58q64 0 67 58h85q-3 -64 -43.5 -101.5t-108.5 -37.5zM232 -12q-165 0 -165 188v343h120v-332q0 -48 18 -70.5t57 -22.5q77 0 119 90v335h120v-519h-102l-4 73q-62 -85 -163 -85z" />
    <glyph glyph-name="Uring" unicode="&#x16e;" horiz-adv-x="635" 
d="M317 728q-51 0 -83.5 31t-32.5 79t33 79.5t83 31.5t82.5 -31.5t32.5 -79.5t-32.5 -79t-82.5 -31zM317 794q18 0 29.5 12t11.5 32q0 19 -11.5 31t-29.5 12t-29 -12t-11 -31q0 -20 11 -32t29 -12zM318 -12q-131 0 -190.5 56.5t-59.5 181.5v454h122v-451q0 -73 29.5 -103.5
t100.5 -30.5t100.5 30.5t29.5 103.5v451h118v-454q0 -125 -59 -181.5t-191 -56.5z" />
    <glyph glyph-name="uring" unicode="&#x16f;" horiz-adv-x="574" 
d="M284 574q-51 0 -83.5 31t-32.5 79t33 79.5t83 31.5t82.5 -31.5t32.5 -79.5t-32.5 -79t-82.5 -31zM284 640q18 0 29.5 12t11.5 32q0 19 -11.5 31t-29.5 12t-29 -12t-11 -31q0 -20 11 -32t29 -12zM232 -12q-165 0 -165 188v343h120v-332q0 -48 18 -70.5t57 -22.5
q77 0 119 90v335h120v-519h-102l-4 73q-62 -85 -163 -85z" />
    <glyph glyph-name="Uhungarumlaut" unicode="&#x170;" horiz-adv-x="635" 
d="M151 746l87 136h129l-114 -136h-102zM345 746l87 136h129l-114 -136h-102zM318 -12q-131 0 -190.5 56.5t-59.5 181.5v454h122v-451q0 -73 29.5 -103.5t100.5 -30.5t100.5 30.5t29.5 103.5v451h118v-454q0 -125 -59 -181.5t-191 -56.5z" />
    <glyph glyph-name="uhungarumlaut" unicode="&#x171;" horiz-adv-x="574" 
d="M118 592l87 136h129l-114 -136h-102zM312 592l87 136h129l-114 -136h-102zM232 -12q-165 0 -165 188v343h120v-332q0 -48 18 -70.5t57 -22.5q77 0 119 90v335h120v-519h-102l-4 73q-62 -85 -163 -85z" />
    <glyph glyph-name="Uogonek" unicode="&#x172;" horiz-adv-x="635" 
d="M450 680h118v-454q0 -97 -34.5 -152t-109.5 -74q-82 -33 -82 -87q0 -37 46 -37q24 0 50 13v-80q-29 -13 -73 -13q-57 0 -88 23.5t-31 66.5q0 58 58 102q-124 3 -180 59.5t-56 178.5v454h122v-451q0 -73 29.5 -103.5t100.5 -30.5t100.5 30.5t29.5 103.5v451z" />
    <glyph glyph-name="uogonek" unicode="&#x173;" horiz-adv-x="574" 
d="M473 0q-68 -42 -68 -87q0 -37 45 -37q24 0 51 13v-80q-34 -13 -75 -13q-56 0 -86.5 23t-30.5 67q0 72 89 129l-3 58q-62 -85 -163 -85q-165 0 -165 188v343h120v-332q0 -48 18 -70.5t57 -22.5q77 0 119 90v335h120v-519h-28z" />
    <glyph glyph-name="Wcircumflex" unicode="&#x174;" horiz-adv-x="871" 
d="M261 746l117 136h113l118 -136h-111l-63 62l-64 -62h-110zM182 0l-175 680h126l118 -496l130 496h113l130 -498l119 498h121l-175 -680h-126l-127 483l-128 -483h-126z" />
    <glyph glyph-name="wcircumflex" unicode="&#x175;" horiz-adv-x="788" 
d="M220 592l117 136h113l118 -136h-111l-63 62l-64 -62h-110zM163 0l-155 519h126l98 -371l110 371h109l110 -372l98 372h121l-155 -519h-124l-106 356l-106 -356h-126z" />
    <glyph glyph-name="Ycircumflex" unicode="&#x176;" horiz-adv-x="546" 
d="M99 746l117 136h113l118 -136h-111l-63 62l-64 -62h-110zM564 680l-230 -391v-289h-122v287l-230 393h140l156 -270l155 270h131z" />
    <glyph glyph-name="ycircumflex" unicode="&#x177;" horiz-adv-x="485" 
d="M69 592l117 136h113l118 -136h-111l-63 62l-64 -62h-110zM60 -182v97h51q26 0 38.5 9.5t21.5 36.5l17 53l-181 505h128l115 -354l107 354h121l-193 -572q-26 -75 -59 -102t-102 -27h-64z" />
    <glyph glyph-name="Ydieresis" unicode="&#x178;" horiz-adv-x="546" 
d="M117 756v113h118v-113h-118zM310 756v113h118v-113h-118zM564 680l-230 -391v-289h-122v287l-230 393h140l156 -270l155 270h131z" />
    <glyph glyph-name="Zacute" unicode="&#x179;" horiz-adv-x="554" 
d="M197 746l112 136h136l-137 -136h-111zM29 0v97l335 476h-317v107h470v-96l-336 -477h344v-107h-496z" />
    <glyph glyph-name="zacute" unicode="&#x17a;" horiz-adv-x="470" 
d="M153 592l112 136h136l-137 -136h-111zM27 0v85l259 338h-238v96h390v-85l-259 -338h264v-96h-416z" />
    <glyph glyph-name="Zdotaccent" unicode="&#x17b;" horiz-adv-x="554" 
d="M221 756v113h123v-113h-123zM29 0v97l335 476h-317v107h470v-96l-336 -477h344v-107h-496z" />
    <glyph glyph-name="zdotaccent" unicode="&#x17c;" horiz-adv-x="470" 
d="M177 602v113h123v-113h-123zM27 0v85l259 338h-238v96h390v-85l-259 -338h264v-96h-416z" />
    <glyph glyph-name="Zcaron" unicode="&#x17d;" horiz-adv-x="554" 
d="M225 746l-117 136h110l64 -62l63 62h111l-118 -136h-113zM29 0v97l335 476h-317v107h470v-96l-336 -477h344v-107h-496z" />
    <glyph glyph-name="zcaron" unicode="&#x17e;" horiz-adv-x="470" 
d="M181 592l-117 136h110l64 -62l63 62h111l-118 -136h-113zM27 0v85l259 338h-238v96h390v-85l-259 -338h264v-96h-416z" />
    <glyph glyph-name="florin" unicode="&#x192;" horiz-adv-x="599" 
d="M54 -60l11 95h54q40 0 59 19t24 65l30 249h-119v96h131l8 69q10 90 49.5 128.5t119.5 38.5h108l-11 -95h-65q-39 0 -58 -19t-24 -65l-7 -57h134v-96h-146l-32 -261q-11 -90 -50 -128.5t-119 -38.5h-97z" />
    <glyph glyph-name="Aringacute" unicode="&#x1fa;" horiz-adv-x="610" 
d="M220 966l112 136h136l-137 -136h-111zM305 717q-51 0 -83.5 31t-32.5 79t33 79.5t83 31.5t82.5 -31.5t32.5 -79.5t-32.5 -79t-82.5 -31zM305 783q18 0 29.5 12t11.5 32q0 19 -11.5 31t-29.5 12t-29 -12t-11 -31q0 -20 11 -32t29 -12zM5 0l237 680h125l238 -680h-130
l-52 154h-241l-53 -154h-124zM215 259h175l-87 279z" />
    <glyph glyph-name="aringacute" unicode="&#x1fb;" horiz-adv-x="542" 
d="M180 812l112 136h136l-137 -136h-111zM265 563q-51 0 -83.5 31t-32.5 79t33 79.5t83 31.5t82.5 -31.5t32.5 -79.5t-32.5 -79t-82.5 -31zM265 629q18 0 29.5 12t11.5 32q0 19 -11.5 31t-29.5 12t-29 -12t-11 -31q0 -20 11 -32t29 -12zM206 -12q-79 0 -123.5 42t-44.5 118
q0 166 210 166h110v23q0 50 -22.5 73.5t-71.5 23.5q-90 0 -95 -75h-116q12 172 215 172q107 0 158.5 -47.5t51.5 -147.5v-336h-102l-4 68q-59 -80 -166 -80zM236 85q82 0 122 79v64h-94q-57 0 -82 -18t-25 -55q0 -70 79 -70z" />
    <glyph glyph-name="AEacute" unicode="&#x1fc;" horiz-adv-x="898" 
d="M374 746l112 136h136l-137 -136h-111zM-18 0l391 680h479v-107h-308v-174h258v-106h-258v-186h318v-107h-440v154h-219l-88 -154h-133zM260 259h162v300z" />
    <glyph glyph-name="aeacute" unicode="&#x1fd;" horiz-adv-x="858" 
d="M338 592l112 136h136l-137 -136h-111zM213 -12q-83 0 -129 41.5t-46 118.5q0 81 53 123.5t157 42.5h110v24q0 49 -22.5 72.5t-71.5 23.5q-89 0 -95 -75h-116q13 172 204 172q127 0 168 -78q48 78 169 78q105 0 160 -56t55 -165v-86h-331v-16q0 -63 27 -93t85 -30
q95 0 101 72h115q-4 -82 -60 -125.5t-157 -43.5q-142 0 -197 84q-65 -84 -179 -84zM478 313h217q0 63 -25.5 92t-81.5 29q-58 0 -84 -29t-26 -92zM236 85q84 0 124 83q-2 26 -2 41v19h-94q-107 0 -107 -73q0 -70 79 -70z" />
    <glyph glyph-name="Oslashacute" unicode="&#x1fe;" horiz-adv-x="654" 
d="M489 882l-137 -136h-111l112 136h136zM597 635l-36 -51q36 -63 36 -166v-156q0 -139 -66.5 -206.5t-203.5 -67.5q-103 0 -165 37l-26 -37l-79 57l36 51q-36 63 -36 166v156q0 139 66.5 206.5t203.5 67.5q103 0 165 -37l26 37zM179 263q0 -17 2 -43l243 340q-35 25 -97 25
q-78 0 -113 -40t-35 -128v-154zM475 417q0 17 -2 43l-243 -340q35 -25 97 -25q78 0 113 40t35 128v154z" />
    <glyph glyph-name="oslashacute" unicode="&#x1ff;" horiz-adv-x="562" 
d="M444 728l-137 -136h-111l112 136h136zM512 474l-30 -37q30 -51 30 -132v-91q0 -226 -231 -226q-85 0 -138 31l-25 -31l-68 57l30 37q-29 53 -29 132v91q0 226 230 226q85 0 138 -31l25 31zM171 217q0 -15 1 -22l177 219q-24 17 -68 17q-57 0 -83.5 -31t-26.5 -98v-85z
M392 302q0 16 -1 23l-178 -220q26 -17 68 -17q58 0 84.5 31t26.5 98v85z" />
    <glyph glyph-name="Scommaaccent" unicode="&#x218;" horiz-adv-x="561" 
d="M281 -12q-126 0 -187.5 52t-61.5 159h120q0 -108 131 -108q123 0 123 90q0 48 -34 72t-118 37q-115 17 -163 62t-48 136q0 101 61.5 152.5t180.5 51.5q233 0 233 -205h-120q0 101 -116 101q-118 0 -118 -88q0 -44 32.5 -66.5t111.5 -33.5q120 -16 169.5 -64t49.5 -143
q0 -205 -246 -205zM228 -247v49q55 0 55 43h-52v89h122v-63q0 -65 -25.5 -91.5t-99.5 -26.5z" />
    <glyph glyph-name="scommaaccent" unicode="&#x219;" horiz-adv-x="501" 
d="M251 -12q-217 0 -217 168h114q0 -76 103 -76q95 0 95 61q0 32 -26.5 48t-92.5 24q-99 12 -141 47t-42 107q0 80 53.5 122t153.5 42q202 0 202 -163h-115q0 71 -88 71q-42 0 -65 -15.5t-23 -43.5q0 -31 26 -45.5t90 -21.5q101 -11 143.5 -48.5t42.5 -112.5
q0 -164 -213 -164zM196 -247v49q55 0 55 43h-52v89h122v-63q0 -65 -25.5 -91.5t-99.5 -26.5z" />
    <glyph glyph-name="uni021A" unicode="&#x21a;" horiz-adv-x="518" 
d="M198 0v571h-191v109h504v-109h-191v-571h-122zM195 -247v49q55 0 55 43h-52v89h122v-63q0 -65 -25.5 -91.5t-99.5 -26.5z" />
    <glyph glyph-name="uni021B" unicode="&#x21b;" horiz-adv-x="352" 
d="M239 0q-77 0 -112 39t-35 127v260h-82v93h84l8 133h110v-133h117v-93h-117v-256q0 -43 13 -58t51 -15h58v-97h-95zM139 -247v49q55 0 55 43h-52v89h122v-63q0 -65 -25.5 -91.5t-99.5 -26.5z" />
    <glyph glyph-name="uni0237" unicode="&#x237;" horiz-adv-x="266" 
d="M-2 -182v97h28q27 0 37 11.5t10 43.5v549h120v-550q0 -79 -31.5 -115t-102.5 -36h-61z" />
    <glyph glyph-name="uni02BC" unicode="&#x2bc;" horiz-adv-x="168" 
d="M22 524v55q29 0 41 11.5t12 34.5h-50v105h120v-84q0 -63 -26.5 -92.5t-96.5 -29.5z" />
    <glyph glyph-name="circumflex" unicode="&#x2c6;" horiz-adv-x="500" 
d="M76 592l117 136h113l118 -136h-111l-63 62l-64 -62h-110z" />
    <glyph glyph-name="caron" unicode="&#x2c7;" horiz-adv-x="500" 
d="M193 592l-117 136h110l64 -62l63 62h111l-118 -136h-113z" />
    <glyph glyph-name="uni02C9" unicode="&#x2c9;" horiz-adv-x="500" 
d="M112 616v86h276v-86h-276z" />
    <glyph glyph-name="breve" unicode="&#x2d8;" horiz-adv-x="500" 
d="M250 586q-68 0 -108 37.5t-43 101.5h84q5 -58 67 -58q64 0 67 58h85q-3 -64 -43.5 -101.5t-108.5 -37.5z" />
    <glyph glyph-name="dotaccent" unicode="&#x2d9;" horiz-adv-x="500" 
d="M189 602v113h123v-113h-123z" />
    <glyph glyph-name="ring" unicode="&#x2da;" horiz-adv-x="500" 
d="M250 574q-51 0 -83.5 31t-32.5 79t33 79.5t83 31.5t82.5 -31.5t32.5 -79.5t-32.5 -79t-82.5 -31zM250 640q18 0 29.5 12t11.5 32q0 19 -11.5 31t-29.5 12t-29 -12t-11 -31q0 -20 11 -32t29 -12z" />
    <glyph glyph-name="ogonek" unicode="&#x2db;" horiz-adv-x="500" 
d="M271 -204q-56 0 -86.5 23t-30.5 67q0 92 149 161l37 -34q-90 -49 -90 -100q0 -37 45 -37q24 0 51 13v-80q-34 -13 -75 -13z" />
    <glyph glyph-name="tilde" unicode="&#x2dc;" horiz-adv-x="500" 
d="M308 591q-33 0 -73 28q-24 17 -39 17q-27 0 -31 -42h-74q4 129 101 129q32 0 73 -27q26 -17 39 -17q28 0 31 41h74q-4 -129 -101 -129z" />
    <glyph glyph-name="hungarumlaut" unicode="&#x2dd;" horiz-adv-x="500" 
d="M84 592l87 136h129l-114 -136h-102zM278 592l87 136h129l-114 -136h-102z" />
    <glyph glyph-name="gravecomb" unicode="&#x300;" horiz-adv-x="0" 
d="M-26 592l-137 136h137l111 -136h-111z" />
    <glyph glyph-name="acutecomb" unicode="&#x301;" horiz-adv-x="0" 
d="M-85 592l112 136h136l-137 -136h-111z" />
    <glyph glyph-name="uni0302" unicode="&#x302;" horiz-adv-x="0" 
d="M-174 592l117 136h113l118 -136h-111l-63 62l-64 -62h-110z" />
    <glyph glyph-name="tildecomb" unicode="&#x303;" horiz-adv-x="0" 
d="M58 591q-33 0 -73 28q-24 17 -39 17q-27 0 -31 -42h-74q4 129 101 129q32 0 73 -27q26 -17 39 -17q28 0 31 41h74q-4 -129 -101 -129z" />
    <glyph glyph-name="uni0304" unicode="&#x304;" horiz-adv-x="0" 
d="M-138 616v86h276v-86h-276z" />
    <glyph glyph-name="uni0306" unicode="&#x306;" horiz-adv-x="0" 
d="M0 586q-68 0 -108 37.5t-43 101.5h84q5 -58 67 -58q64 0 67 58h85q-3 -64 -43.5 -101.5t-108.5 -37.5z" />
    <glyph glyph-name="uni0307" unicode="&#x307;" horiz-adv-x="0" 
d="M-61 602v113h123v-113h-123z" />
    <glyph glyph-name="uni0308" unicode="&#x308;" horiz-adv-x="0" 
d="M-156 602v113h118v-113h-118zM37 602v113h118v-113h-118z" />
    <glyph glyph-name="uni030A" unicode="&#x30a;" horiz-adv-x="0" 
d="M0 574q-51 0 -83.5 31t-32.5 79t33 79.5t83 31.5t82.5 -31.5t32.5 -79.5t-32.5 -79t-82.5 -31zM0 640q18 0 29.5 12t11.5 32q0 19 -11.5 31t-29.5 12t-29 -12t-11 -31q0 -20 11 -32t29 -12z" />
    <glyph glyph-name="uni030B" unicode="&#x30b;" horiz-adv-x="0" 
d="M-166 592l87 136h129l-114 -136h-102zM28 592l87 136h129l-114 -136h-102z" />
    <glyph glyph-name="uni030C" unicode="&#x30c;" horiz-adv-x="0" 
d="M-57 592l-117 136h110l64 -62l63 62h111l-118 -136h-113z" />
    <glyph glyph-name="uni0312" unicode="&#x312;" horiz-adv-x="0" 
d="M-62 585v67q0 62 26.5 88t99.5 26v-49q-30 0 -42.5 -10.5t-12.5 -32.5h51v-89h-122z" />
    <glyph glyph-name="uni0326" unicode="&#x326;" horiz-adv-x="0" 
d="M-64 -247v49q55 0 55 43h-52v89h122v-63q0 -65 -25.5 -91.5t-99.5 -26.5z" />
    <glyph glyph-name="uni0327" unicode="&#x327;" horiz-adv-x="0" 
d="M-24 -207q-66 0 -107 22l21 52q32 -17 66 -17q46 0 46 27q0 13 -11.5 18t-43.5 5h-21l45 115h60l-27 -71q101 0 101 -73q0 -38 -29 -58t-100 -20z" />
    <glyph glyph-name="uni0328" unicode="&#x328;" horiz-adv-x="0" 
d="M21 -204q-56 0 -86.5 23t-30.5 67q0 92 149 161l37 -34q-90 -49 -90 -100q0 -37 45 -37q24 0 51 13v-80q-34 -13 -75 -13z" />
    <glyph glyph-name="uni0394" unicode="&#x394;" horiz-adv-x="600" 
d="M5 0l231 680h129l230 -680h-590zM163 105h269l-134 418z" />
    <glyph glyph-name="uni03A9" unicode="&#x3a9;" horiz-adv-x="654" 
d="M597 302q0 -137 -83 -198h78v-104h-223v96q106 33 106 173v148q0 86 -36 127t-112 41q-77 0 -112.5 -40.5t-35.5 -127.5v-148q0 -140 106 -173v-96h-223v104h78q-83 60 -83 198v116q0 139 66 206.5t204 67.5q137 0 203.5 -67.5t66.5 -206.5v-116z" />
    <glyph glyph-name="uni03BC" unicode="&#x3bc;" horiz-adv-x="580" 
d="M73 -182v701h120v-331q0 -49 18.5 -71.5t56.5 -22.5q76 0 119 91v334h120v-519h-102l-4 72q-60 -84 -157 -84q-28 0 -51 6v-176h-120z" />
    <glyph glyph-name="pi" unicode="&#x3c0;" horiz-adv-x="600" 
d="M97 0v422h-87v97h571v-97h-86v-265q0 -35 11.5 -47.5t41.5 -12.5h34v-97h-79q-69 0 -98.5 35t-29.5 116v271h-158v-422h-120z" />
    <glyph glyph-name="Wgrave" unicode="&#x1e80;" horiz-adv-x="871" 
d="M409 746l-137 136h137l111 -136h-111zM182 0l-175 680h126l118 -496l130 496h113l130 -498l119 498h121l-175 -680h-126l-127 483l-128 -483h-126z" />
    <glyph glyph-name="wgrave" unicode="&#x1e81;" horiz-adv-x="788" 
d="M368 592l-137 136h137l111 -136h-111zM163 0l-155 519h126l98 -371l110 371h109l110 -372l98 372h121l-155 -519h-124l-106 356l-106 -356h-126z" />
    <glyph glyph-name="Wacute" unicode="&#x1e82;" horiz-adv-x="871" 
d="M350 746l112 136h136l-137 -136h-111zM182 0l-175 680h126l118 -496l130 496h113l130 -498l119 498h121l-175 -680h-126l-127 483l-128 -483h-126z" />
    <glyph glyph-name="wacute" unicode="&#x1e83;" horiz-adv-x="788" 
d="M309 592l112 136h136l-137 -136h-111zM163 0l-155 519h126l98 -371l110 371h109l110 -372l98 372h121l-155 -519h-124l-106 356l-106 -356h-126z" />
    <glyph glyph-name="Wdieresis" unicode="&#x1e84;" horiz-adv-x="871" 
d="M279 756v113h118v-113h-118zM472 756v113h118v-113h-118zM182 0l-175 680h126l118 -496l130 496h113l130 -498l119 498h121l-175 -680h-126l-127 483l-128 -483h-126z" />
    <glyph glyph-name="wdieresis" unicode="&#x1e85;" horiz-adv-x="788" 
d="M238 602v113h118v-113h-118zM431 602v113h118v-113h-118zM163 0l-155 519h126l98 -371l110 371h109l110 -372l98 372h121l-155 -519h-124l-106 356l-106 -356h-126z" />
    <glyph glyph-name="uni1E9E" unicode="&#x1e9e;" horiz-adv-x="638" 
d="M70 0v462q0 112 57 165t178 53h256v-95l-142 -192q101 -10 146 -57t45 -140q0 -104 -56.5 -150t-182.5 -46h-109v106h99q69 0 97.5 20.5t28.5 71.5q0 52 -30.5 72.5t-105.5 20.5h-71v91l141 192h-104q-65 0 -95 -27t-30 -85v-462h-122z" />
    <glyph glyph-name="Ygrave" unicode="&#x1ef2;" horiz-adv-x="546" 
d="M247 746l-137 136h137l111 -136h-111zM564 680l-230 -391v-289h-122v287l-230 393h140l156 -270l155 270h131z" />
    <glyph glyph-name="ygrave" unicode="&#x1ef3;" horiz-adv-x="485" 
d="M217 592l-137 136h137l111 -136h-111zM60 -182v97h51q26 0 38.5 9.5t21.5 36.5l17 53l-181 505h128l115 -354l107 354h121l-193 -572q-26 -75 -59 -102t-102 -27h-64z" />
    <glyph glyph-name="uni2002" unicode="&#x2002;" horiz-adv-x="500" 
 />
    <glyph glyph-name="uni2003" unicode="&#x2003;" horiz-adv-x="900" 
 />
    <glyph glyph-name="uni2007" unicode="&#x2007;" horiz-adv-x="599" 
 />
    <glyph glyph-name="uni2008" unicode="&#x2008;" horiz-adv-x="286" 
 />
    <glyph glyph-name="uni200B" unicode="&#x200b;" horiz-adv-x="0" 
 />
    <glyph glyph-name="figuredash" unicode="&#x2012;" horiz-adv-x="599" 
d="M30 247v97h539v-97h-539z" />
    <glyph glyph-name="endash" unicode="&#x2013;" horiz-adv-x="500" 
d="M30 247v97h440v-97h-440z" />
    <glyph glyph-name="emdash" unicode="&#x2014;" horiz-adv-x="900" 
d="M30 247v97h840v-97h-840z" />
    <glyph glyph-name="quoteleft" unicode="&#x2018;" horiz-adv-x="263" 
d="M65 409v126q0 156 134 157v-68q-54 -2 -54 -64v-23h48v-128h-128z" />
    <glyph glyph-name="quoteright" unicode="&#x2019;" horiz-adv-x="263" 
d="M63 397v67q55 2 55 65v23h-49v128h128v-126q0 -79 -32.5 -117.5t-101.5 -39.5z" />
    <glyph glyph-name="quotesinglbase" unicode="&#x201a;" horiz-adv-x="263" 
d="M63 -155v67q55 2 55 65v23h-49v128h128v-126q0 -79 -32.5 -117.5t-101.5 -39.5z" />
    <glyph glyph-name="quotedblleft" unicode="&#x201c;" horiz-adv-x="475" 
d="M65 409v126q0 156 134 157v-68q-54 -2 -54 -64v-23h48v-128h-128zM277 409v126q0 156 134 157v-68q-54 -2 -54 -64v-23h48v-128h-128z" />
    <glyph glyph-name="quotedblright" unicode="&#x201d;" horiz-adv-x="475" 
d="M63 397v67q55 2 55 65v23h-49v128h128v-126q0 -79 -32.5 -117.5t-101.5 -39.5zM275 397v67q55 2 55 65v23h-49v128h128v-126q0 -79 -32.5 -117.5t-101.5 -39.5z" />
    <glyph glyph-name="quotedblbase" unicode="&#x201e;" horiz-adv-x="475" 
d="M63 -155v67q55 2 55 65v23h-49v128h128v-126q0 -79 -32.5 -117.5t-101.5 -39.5zM275 -155v67q55 2 55 65v23h-49v128h128v-126q0 -79 -32.5 -117.5t-101.5 -39.5z" />
    <glyph glyph-name="dagger" unicode="&#x2020;" horiz-adv-x="603" 
d="M241 -182v528l-203 -9v116l203 -8v235h119v-236l204 9v-116l-204 9v-528h-119z" />
    <glyph glyph-name="daggerdbl" unicode="&#x2021;" horiz-adv-x="603" 
d="M241 -182v215l-203 -8v116l203 -10v235l-203 -9v116l203 -9v216h119v-216l204 9v-116l-204 9v-234l204 9v-116l-204 9v-216h-119z" />
    <glyph glyph-name="bullet" unicode="&#x2022;" horiz-adv-x="500" 
d="M132 175v240h236v-240h-236z" />
    <glyph glyph-name="ellipsis" unicode="&#x2026;" horiz-adv-x="900" 
d="M85 0v130h130v-130h-130zM385 0v130h130v-130h-130zM685 0v130h130v-130h-130z" />
    <glyph glyph-name="perthousand" unicode="&#x2030;" horiz-adv-x="1124" 
d="M184 312q-73 0 -111 34t-38 100v112q0 66 38 100t111 34t111 -34t38 -100v-112q0 -66 -38 -100t-111 -34zM141 -12l405 704h92l-405 -704h-92zM185 389q58 0 58 62v103q0 61 -58 61q-59 0 -59 -61v-103q0 -62 59 -62zM593 -12q-73 0 -111 34t-38 100v112q0 66 38 100
t111 34t111 -34t38 -100v-112q0 -66 -38 -100t-111 -34zM939 -12q-73 0 -111 34t-38 100v112q0 66 38 100t111 34t111 -34t38 -100v-112q0 -66 -38 -100t-111 -34zM594 65q58 0 58 62v103q0 61 -58 61q-59 0 -59 -61v-103q0 -62 59 -62zM939 65q58 0 58 62v103q0 61 -58 61
q-59 0 -59 -61v-103q0 -62 59 -62z" />
    <glyph glyph-name="guilsinglleft" unicode="&#x2039;" horiz-adv-x="293" 
d="M152 82l-135 178l135 179h124l-136 -179l136 -178h-124z" />
    <glyph glyph-name="guilsinglright" unicode="&#x203a;" horiz-adv-x="293" 
d="M17 80l135 179l-135 178h123l136 -178l-136 -179h-123z" />
    <glyph glyph-name="fraction" unicode="&#x2044;" horiz-adv-x="111" 
d="M-173 -12l366 704h90l-366 -704h-90z" />
    <glyph glyph-name="uni2070" unicode="&#x2070;" 
d="M183 404q-72 0 -110 34t-38 100v150q0 66 38 100t110 34t110 -34t38 -100v-150q0 -66 -38 -100t-110 -34zM183 481q57 0 57 62v141q0 61 -57 61t-57 -61v-141q0 -62 57 -62z" />
    <glyph glyph-name="uni2074" unicode="&#x2074;" 
d="M213 416v83h-189v79l183 232h96v-238h43v-73h-43v-83h-90zM109 572h104v137z" />
    <glyph glyph-name="uni2075" unicode="&#x2075;" 
d="M182 404q-71 0 -108.5 30t-37.5 88h87q2 -41 59 -41q61 0 61 58t-59 58q-40 0 -59 -21h-76l13 234h252v-79h-180l-4 -82q33 22 81 22q59 0 91 -34t32 -96q0 -137 -152 -137z" />
    <glyph glyph-name="uni2076" unicode="&#x2076;" 
d="M187 404q-72 0 -110.5 34.5t-38.5 99.5v146q0 68 38.5 103t112.5 35q71 0 106 -31t36 -85h-87q-2 39 -54 39q-61 0 -61 -65v-41q32 31 86 31q58 0 89 -33t31 -95q0 -138 -148 -138zM188 481q56 0 56 60q0 56 -52 56q-44 0 -63 -38v-16q0 -62 59 -62z" />
    <glyph glyph-name="uni2077" unicode="&#x2077;" 
d="M86 416q9 197 152 314h-207v80h303v-84q-76 -67 -111.5 -140.5t-40.5 -169.5h-96z" />
    <glyph glyph-name="uni2078" unicode="&#x2078;" 
d="M184 404q-157 0 -157 117q0 75 62 99v2q-52 22 -52 86q0 56 37.5 85t108.5 29t108.5 -29t37.5 -85q0 -64 -52 -86v-2q62 -24 62 -99q0 -117 -155 -117zM183 653q57 0 57 47q0 45 -57 45q-58 0 -58 -45q0 -47 58 -47zM183 481q65 0 65 48q0 49 -65 49q-66 0 -66 -49
q0 -48 66 -48z" />
    <glyph glyph-name="uni2079" unicode="&#x2079;" 
d="M177 404q-71 0 -106 31t-36 85h87q2 -39 54 -39q61 0 61 65v41q-32 -31 -86 -31q-58 0 -89 33t-31 95q0 138 148 138q72 0 110.5 -34.5t38.5 -99.5v-146q0 -68 -38.5 -103t-112.5 -35zM174 629q44 0 63 38v16q0 62 -59 62q-56 0 -56 -60q0 -56 52 -56z" />
    <glyph glyph-name="uni2080" unicode="&#x2080;" 
d="M183 -132q-72 0 -110 34t-38 100v150q0 66 38 100t110 34t110 -34t38 -100v-150q0 -66 -38 -100t-110 -34zM183 -55q57 0 57 62v141q0 61 -57 61t-57 -61v-141q0 -62 57 -62z" />
    <glyph glyph-name="uni2081" unicode="&#x2081;" 
d="M71 -120v77h89v212q-36 -13 -101 -15v69q78 3 108 51h84v-317h90v-77h-270z" />
    <glyph glyph-name="uni2082" unicode="&#x2082;" 
d="M36 -120v44q0 57 29.5 96t95.5 68q42 19 59.5 36t17.5 40q0 45 -54 45q-56 0 -56 -58v-7h-85v17q0 60 37 92.5t107 32.5q68 0 105 -31.5t37 -87.5q0 -49 -29 -83.5t-95 -63.5q-41 -18 -57.5 -31t-20.5 -30h202v-79h-293z" />
    <glyph glyph-name="uni2083" unicode="&#x2083;" 
d="M185 -132q-149 0 -149 115v18h86v-7q0 -49 62 -49q59 0 59 49q0 48 -65 48h-44v74h41q60 0 60 46q0 47 -53 47q-55 0 -55 -47v-6h-85v11q0 119 143 119q140 0 140 -115q0 -63 -50 -85v-2q59 -22 59 -94q0 -122 -149 -122z" />
    <glyph glyph-name="uni2084" unicode="&#x2084;" 
d="M213 -120v83h-189v79l183 232h96v-238h43v-73h-43v-83h-90zM109 36h104v137z" />
    <glyph glyph-name="uni2085" unicode="&#x2085;" 
d="M182 -132q-71 0 -108.5 30t-37.5 88h87q2 -41 59 -41q61 0 61 58t-59 58q-40 0 -59 -21h-76l13 234h252v-79h-180l-4 -82q33 22 81 22q59 0 91 -34t32 -96q0 -137 -152 -137z" />
    <glyph glyph-name="uni2086" unicode="&#x2086;" 
d="M187 -132q-72 0 -110.5 34.5t-38.5 99.5v146q0 68 38.5 103t112.5 35q71 0 106 -31t36 -85h-87q-2 39 -54 39q-61 0 -61 -65v-41q32 31 86 31q58 0 89 -33t31 -95q0 -138 -148 -138zM188 -55q56 0 56 60q0 56 -52 56q-44 0 -63 -38v-16q0 -62 59 -62z" />
    <glyph glyph-name="uni2087" unicode="&#x2087;" 
d="M86 -120q9 197 152 314h-207v80h303v-84q-76 -67 -111.5 -140.5t-40.5 -169.5h-96z" />
    <glyph glyph-name="uni2088" unicode="&#x2088;" 
d="M184 -132q-157 0 -157 117q0 75 62 99v2q-52 22 -52 86q0 56 37.5 85t108.5 29t108.5 -29t37.5 -85q0 -64 -52 -86v-2q62 -24 62 -99q0 -117 -155 -117zM183 117q57 0 57 47q0 45 -57 45q-58 0 -58 -45q0 -47 58 -47zM183 -55q65 0 65 48q0 49 -65 49q-66 0 -66 -49
q0 -48 66 -48z" />
    <glyph glyph-name="uni2089" unicode="&#x2089;" 
d="M177 -132q-71 0 -106 31t-36 85h87q2 -39 54 -39q61 0 61 65v41q-32 -31 -86 -31q-58 0 -89 33t-31 95q0 138 148 138q72 0 110.5 -34.5t38.5 -99.5v-146q0 -68 -38.5 -103t-112.5 -35zM174 93q44 0 63 38v16q0 62 -59 62q-56 0 -56 -60q0 -56 52 -56z" />
    <glyph glyph-name="Euro" unicode="&#x20ac;" horiz-adv-x="599" 
d="M326 -12q-116 0 -176.5 59t-60.5 171v11h-48v79h48v64h-48v79h48v11q0 113 60.5 171.5t176.5 58.5q221 0 228 -215h-113q-4 111 -115 111q-119 0 -119 -127v-10h191l-13 -79h-178v-64h166l-13 -79h-153v-10q0 -127 119 -127q111 0 115 111h113q-8 -215 -228 -215z" />
    <glyph glyph-name="uni20B9" unicode="&#x20b9;" horiz-adv-x="599" 
d="M348 0l-281 255v78h113q73 0 109 23t44 75h-280l18 85h259q-10 42 -43 60.5t-97 18.5h-137l18 85h493l-18 -85h-141q33 -29 44 -79h115l-18 -85h-92q-7 -84 -59 -128.5t-154 -52.5l276 -250h-169z" />
    <glyph glyph-name="uni2113" unicode="&#x2113;" horiz-adv-x="477" 
d="M264 -12q-196 0 -196 207v347q0 200 185 200q172 0 172 -177q0 -100 -58 -185t-179 -164v-18q0 -104 98 -104q58 0 112 44l42 -88q-72 -62 -176 -62zM188 337q130 99 130 220q0 81 -62 81q-68 0 -68 -101v-200z" />
    <glyph glyph-name="uni2116" unicode="&#x2116;" horiz-adv-x="1072" 
d="M83 0v680h135l269 -472v472h116v-680h-117l-287 503v-503h-116zM855 151q-164 0 -164 159v64q0 160 164 160t164 -160v-64q0 -159 -164 -159zM855 228q36 0 53 19.5t17 62.5v65q0 82 -70 82t-70 -82v-65q0 -43 17 -62.5t53 -19.5zM694 0v78h322v-78h-322z" />
    <glyph glyph-name="uni2117" unicode="&#x2117;" horiz-adv-x="766" 
d="M383 -12q-153 0 -252.5 99.5t-99.5 252.5t99.5 252.5t252.5 99.5t252.5 -99.5t99.5 -252.5t-99.5 -252.5t-252.5 -99.5zM383 67q119 0 192 75t73 198t-73 198t-192 75q-120 0 -192.5 -75t-72.5 -198t72.5 -198t192.5 -75zM257 162v356h153q73 0 106 -28.5t33 -90.5
t-33 -90.5t-106 -28.5h-63v-118h-90zM347 353h54q31 0 44.5 10.5t13.5 35.5t-13.5 35.5t-44.5 10.5h-54v-92z" />
    <glyph glyph-name="uni2120" unicode="&#x2120;" horiz-adv-x="708" 
d="M135 344q-63 0 -92.5 25t-29.5 80h76q0 -44 47 -44q45 0 45 35q0 18 -13.5 27t-50.5 17q-54 11 -77 34.5t-23 66.5q0 103 119 103q116 0 116 -102h-76q0 41 -41 41t-41 -35q0 -17 14 -27t48 -16q54 -10 78 -34.5t24 -70.5q0 -100 -123 -100zM320 352v328h112l65 -207
l64 207h115v-328h-78v241l-77 -241h-53l-75 234v-234h-73z" />
    <glyph glyph-name="trademark" unicode="&#x2122;" horiz-adv-x="688" 
d="M86 352v262h-86v66h250v-66h-86v-262h-78zM300 352v328h113l65 -207l64 207h114v-328h-78v237l-76 -237h-53l-76 237v-237h-73z" />
    <glyph glyph-name="uni2126" unicode="&#x2126;" horiz-adv-x="654" 
d="M597 302q0 -137 -83 -198h78v-104h-223v96q106 33 106 173v148q0 86 -36 127t-112 41q-77 0 -112.5 -40.5t-35.5 -127.5v-148q0 -140 106 -173v-96h-223v104h78q-83 60 -83 198v116q0 139 66 206.5t204 67.5q137 0 203.5 -67.5t66.5 -206.5v-116z" />
    <glyph glyph-name="estimated" unicode="&#x212e;" horiz-adv-x="796" 
d="M405 -12q-154 0 -262.5 103t-108.5 249t108.5 249t262.5 103t262.5 -103t108.5 -249v-9h-601q-5 0 -5 -5v-191q0 -10 9 -21q89 -105 228 -105q69 0 132 31.5t107 85.5h54q-52 -64 -129.5 -101t-165.5 -37zM175 351h461q6 0 6 6v193q0 12 -10 22q-94 99 -225 99
q-135 0 -228 -103q-9 -11 -9 -22v-190q0 -5 5 -5z" />
    <glyph glyph-name="uni2153" unicode="&#x2153;" horiz-adv-x="843" 
d="M193 -12l366 704h90l-366 -704h-90zM71 286v77h89v212q-36 -13 -101 -15v69q78 3 108 51h84v-317h90v-77h-270zM662 -12q-149 0 -149 115v18h86v-7q0 -49 62 -49q59 0 59 49q0 48 -65 48h-44v74h41q60 0 60 46q0 47 -53 47q-55 0 -55 -47v-6h-85v11q0 119 143 119
q140 0 140 -115q0 -63 -50 -85v-2q59 -22 59 -94q0 -122 -149 -122z" />
    <glyph glyph-name="uni2154" unicode="&#x2154;" horiz-adv-x="843" 
d="M36 286v44q0 57 29.5 96t95.5 68q42 19 59.5 36t17.5 40q0 45 -54 45q-56 0 -56 -58v-7h-85v17q0 60 37 92.5t107 32.5q68 0 105 -31.5t37 -87.5q0 -49 -29 -83.5t-95 -63.5q-41 -18 -57.5 -31t-20.5 -30h202v-79h-293zM193 -12l366 704h90l-366 -704h-90zM662 -12
q-149 0 -149 115v18h86v-7q0 -49 62 -49q59 0 59 49q0 48 -65 48h-44v74h41q60 0 60 46q0 47 -53 47q-55 0 -55 -47v-6h-85v11q0 119 143 119q140 0 140 -115q0 -63 -50 -85v-2q59 -22 59 -94q0 -122 -149 -122z" />
    <glyph glyph-name="uni2155" unicode="&#x2155;" horiz-adv-x="843" 
d="M193 -12l366 704h90l-366 -704h-90zM71 286v77h89v212q-36 -13 -101 -15v69q78 3 108 51h84v-317h90v-77h-270zM659 -12q-71 0 -108.5 30t-37.5 88h87q2 -41 59 -41q61 0 61 58t-59 58q-39 0 -59 -21h-76l13 234h252v-79h-180l-4 -82q33 22 81 22q59 0 91 -34t32 -96
q0 -137 -152 -137z" />
    <glyph glyph-name="uni2156" unicode="&#x2156;" horiz-adv-x="843" 
d="M36 286v44q0 57 29.5 96t95.5 68q42 19 59.5 36t17.5 40q0 45 -54 45q-56 0 -56 -58v-7h-85v17q0 60 37 92.5t107 32.5q68 0 105 -31.5t37 -87.5q0 -49 -29 -83.5t-95 -63.5q-41 -18 -57.5 -31t-20.5 -30h202v-79h-293zM193 -12l366 704h90l-366 -704h-90zM659 -12
q-71 0 -108.5 30t-37.5 88h87q2 -41 59 -41q61 0 61 58t-59 58q-39 0 -59 -21h-76l13 234h252v-79h-180l-4 -82q33 22 81 22q59 0 91 -34t32 -96q0 -137 -152 -137z" />
    <glyph glyph-name="uni2157" unicode="&#x2157;" horiz-adv-x="843" 
d="M185 274q-149 0 -149 115v18h86v-7q0 -49 62 -49q59 0 59 49q0 48 -65 48h-44v74h41q60 0 60 46q0 47 -53 47q-55 0 -55 -47v-6h-85v11q0 119 143 119q140 0 140 -115q0 -63 -50 -85v-2q59 -22 59 -94q0 -122 -149 -122zM193 -12l366 704h90l-366 -704h-90zM659 -12
q-71 0 -108.5 30t-37.5 88h87q2 -41 59 -41q61 0 61 58t-59 58q-39 0 -59 -21h-76l13 234h252v-79h-180l-4 -82q33 22 81 22q59 0 91 -34t32 -96q0 -137 -152 -137z" />
    <glyph glyph-name="uni2158" unicode="&#x2158;" horiz-adv-x="843" 
d="M193 -12l366 704h90l-366 -704h-90zM213 286v83h-189v79l183 232h96v-238h43v-73h-43v-83h-90zM109 442h104v137zM659 -12q-71 0 -108.5 30t-37.5 88h87q2 -41 59 -41q61 0 61 58t-59 58q-39 0 -59 -21h-76l13 234h252v-79h-180l-4 -82q33 22 81 22q59 0 91 -34t32 -96
q0 -137 -152 -137z" />
    <glyph glyph-name="uni2159" unicode="&#x2159;" horiz-adv-x="843" 
d="M193 -12l366 704h90l-366 -704h-90zM71 286v77h89v212q-36 -13 -101 -15v69q78 3 108 51h84v-317h90v-77h-270zM664 -12q-72 0 -110.5 34.5t-38.5 99.5v146q0 68 38.5 103t112.5 35q71 0 106 -31t36 -85h-87q-2 39 -54 39q-61 0 -61 -65v-41q32 31 86 31q58 0 89 -33
t31 -95q0 -138 -148 -138zM665 65q56 0 56 60q0 56 -52 56q-44 0 -63 -38v-16q0 -62 59 -62z" />
    <glyph glyph-name="uni215A" unicode="&#x215a;" horiz-adv-x="843" 
d="M193 -12l366 704h90l-366 -704h-90zM182 274q-71 0 -108.5 30t-37.5 88h87q2 -41 59 -41q61 0 61 58t-59 58q-40 0 -59 -21h-76l13 234h252v-79h-180l-4 -82q33 22 81 22q59 0 91 -34t32 -96q0 -137 -152 -137zM664 -12q-72 0 -110.5 34.5t-38.5 99.5v146q0 68 38.5 103
t112.5 35q71 0 106 -31t36 -85h-87q-2 39 -54 39q-61 0 -61 -65v-41q32 31 86 31q58 0 89 -33t31 -95q0 -138 -148 -138zM665 65q56 0 56 60q0 56 -52 56q-44 0 -63 -38v-16q0 -62 59 -62z" />
    <glyph glyph-name="oneeighth" unicode="&#x215b;" horiz-adv-x="843" 
d="M193 -12l366 704h90l-366 -704h-90zM71 286v77h89v212q-36 -13 -101 -15v69q78 3 108 51h84v-317h90v-77h-270zM661 -12q-157 0 -157 117q0 75 62 99v2q-52 22 -52 86q0 56 37.5 85t108.5 29t108.5 -29t37.5 -85q0 -64 -52 -86v-2q62 -24 62 -99q0 -117 -155 -117z
M660 237q57 0 57 47q0 45 -57 45q-58 0 -58 -45q0 -47 58 -47zM660 65q65 0 65 48q0 49 -65 49q-66 0 -66 -49q0 -48 66 -48z" />
    <glyph glyph-name="threeeighths" unicode="&#x215c;" horiz-adv-x="843" 
d="M185 274q-149 0 -149 115v18h86v-7q0 -49 62 -49q59 0 59 49q0 48 -65 48h-44v74h41q60 0 60 46q0 47 -53 47q-55 0 -55 -47v-6h-85v11q0 119 143 119q140 0 140 -115q0 -63 -50 -85v-2q59 -22 59 -94q0 -122 -149 -122zM193 -12l366 704h90l-366 -704h-90zM661 -12
q-157 0 -157 117q0 75 62 99v2q-52 22 -52 86q0 56 37.5 85t108.5 29t108.5 -29t37.5 -85q0 -64 -52 -86v-2q62 -24 62 -99q0 -117 -155 -117zM660 237q57 0 57 47q0 45 -57 45q-58 0 -58 -45q0 -47 58 -47zM660 65q65 0 65 48q0 49 -65 49q-66 0 -66 -49q0 -48 66 -48z" />
    <glyph glyph-name="fiveeighths" unicode="&#x215d;" horiz-adv-x="843" 
d="M193 -12l366 704h90l-366 -704h-90zM182 274q-71 0 -108.5 30t-37.5 88h87q2 -41 59 -41q61 0 61 58t-59 58q-40 0 -59 -21h-76l13 234h252v-79h-180l-4 -82q33 22 81 22q59 0 91 -34t32 -96q0 -137 -152 -137zM661 -12q-157 0 -157 117q0 75 62 99v2q-52 22 -52 86
q0 56 37.5 85t108.5 29t108.5 -29t37.5 -85q0 -64 -52 -86v-2q62 -24 62 -99q0 -117 -155 -117zM660 237q57 0 57 47q0 45 -57 45q-58 0 -58 -45q0 -47 58 -47zM660 65q65 0 65 48q0 49 -65 49q-66 0 -66 -49q0 -48 66 -48z" />
    <glyph glyph-name="seveneighths" unicode="&#x215e;" horiz-adv-x="843" 
d="M166 -12l366 704h90l-366 -704h-90zM86 286q9 197 152 314h-207v80h303v-84q-76 -67 -111.5 -140.5t-40.5 -169.5h-96zM661 -12q-157 0 -157 117q0 75 62 99v2q-52 22 -52 86q0 56 37.5 85t108.5 29t108.5 -29t37.5 -85q0 -64 -52 -86v-2q62 -24 62 -99q0 -117 -155 -117
zM660 237q57 0 57 47q0 45 -57 45q-58 0 -58 -45q0 -47 58 -47zM660 65q65 0 65 48q0 49 -65 49q-66 0 -66 -49q0 -48 66 -48z" />
    <glyph glyph-name="arrowleft" unicode="&#x2190;" horiz-adv-x="800" 
d="M372 22l-318 318l318 318l66 -66l-203 -200h511v-104h-511l203 -200z" />
    <glyph glyph-name="arrowup" unicode="&#x2191;" horiz-adv-x="800" 
d="M346 0v509l-204 -207l-66 66l324 324l324 -324l-66 -66l-203 206v-508h-109z" />
    <glyph glyph-name="arrowright" unicode="&#x2192;" horiz-adv-x="800" 
d="M428 23l-66 66l203 200h-511v104h511l-203 200l66 66l318 -318z" />
    <glyph glyph-name="arrowdown" unicode="&#x2193;" horiz-adv-x="800" 
d="M400 -12l-324 324l66 66l204 -207v509h109v-508l203 206l66 -66z" />
    <glyph glyph-name="arrowboth" unicode="&#x2194;" horiz-adv-x="1000" 
d="M351 42l-297 298l297 298l66 -66l-182 -180h530l-182 180l66 66l297 -298l-297 -298l-66 66l182 180h-530l182 -180z" />
    <glyph glyph-name="arrowupdn" unicode="&#x2195;" horiz-adv-x="800" 
d="M400 -84l-295 295l66 66l175 -177v480l-175 -177l-66 66l295 295l295 -295l-66 -66l-174 176v-478l174 176l66 -66z" />
    <glyph glyph-name="uni2196" unicode="&#x2196;" horiz-adv-x="800" 
d="M623 44l-395 396l2 -281h-96v449h448v-90l-285 1l401 -401z" />
    <glyph glyph-name="uni2197" unicode="&#x2197;" horiz-adv-x="800" 
d="M176 44l-74 74l400 401l-284 -1v90h448v-449h-96l2 281z" />
    <glyph glyph-name="uni2198" unicode="&#x2198;" horiz-adv-x="800" 
d="M218 72v90l284 -1l-400 401l74 74l396 -396l-2 281h96v-449h-448z" />
    <glyph glyph-name="uni2199" unicode="&#x2199;" horiz-adv-x="800" 
d="M134 72v449h96l-2 -281l395 396l75 -74l-401 -401l285 1v-90h-448z" />
    <glyph glyph-name="partialdiff" unicode="&#x2202;" horiz-adv-x="602" 
d="M260 -12q-105 0 -163 60.5t-58 166.5q0 115 65 185.5t172 70.5q99 0 153 -66q-2 122 -39 179.5t-130 57.5q-77 0 -131 -41v106q61 35 155 35q137 0 200.5 -81.5t63.5 -259.5q0 -198 -74.5 -305.5t-213.5 -107.5zM267 88q127 0 154 186q-32 97 -127 97q-62 0 -98.5 -42.5
t-36.5 -115.5q0 -61 28 -93t80 -32z" />
    <glyph glyph-name="emptyset" unicode="&#x2205;" horiz-adv-x="823" 
d="M129 -12l-70 70l68 68q-68 93 -68 214q0 151 101 251.5t252 100.5q121 0 213 -68l68 68l71 -70l-68 -68q68 -92 68 -214q0 -151 -100.5 -251.5t-251.5 -100.5q-122 0 -215 68zM200 199l354 354q-62 41 -142 41q-110 0 -180 -71t-70 -183q0 -79 38 -141zM412 86
q110 0 180 71t70 183q0 79 -38 142l-356 -355q63 -41 144 -41z" />
    <glyph glyph-name="uni2206" unicode="&#x2206;" horiz-adv-x="600" 
d="M5 0l231 680h129l230 -680h-590zM163 105h269l-134 418z" />
    <glyph glyph-name="product" unicode="&#x220f;" horiz-adv-x="773" 
d="M87 -183v954h599v-954h-114v850h-371v-850h-114z" />
    <glyph glyph-name="summation" unicode="&#x2211;" horiz-adv-x="624" 
d="M23 -183v107l298 370l-298 370v107h578v-103h-437l301 -374l-301 -374h437v-103h-578z" />
    <glyph glyph-name="minus" unicode="&#x2212;" horiz-adv-x="599" 
d="M54 260v98h491v-98h-491z" />
    <glyph glyph-name="uni2215" unicode="&#x2215;" horiz-adv-x="411" 
d="M-10 -12l320 704h111l-319 -704h-112z" />
    <glyph glyph-name="uni2219" unicode="&#x2219;" horiz-adv-x="286" 
d="M78 243v130h130v-130h-130z" />
    <glyph glyph-name="radical" unicode="&#x221a;" horiz-adv-x="599" 
d="M232 -183l-99 330h-79v98h153l78 -265l225 791h105l-275 -954h-108z" />
    <glyph glyph-name="infinity" unicode="&#x221e;" horiz-adv-x="913" 
d="M251 102q-91 0 -146 59.5t-55 157.5t55.5 157t148.5 59q74 0 122 -34t86 -94q40 65 86 96.5t114 31.5q92 0 146.5 -59t54.5 -158q0 -98 -55.5 -157t-148.5 -59q-73 0 -121 34t-86 94q-41 -66 -87.5 -97t-113.5 -31zM654 202q48 0 76 33t28 87t-29.5 85t-81.5 31
q-45 0 -75.5 -24.5t-65.5 -84.5q35 -63 67 -95t81 -32zM267 200q45 0 75.5 24t64.5 85q-34 62 -66 94t-81 32q-48 0 -76.5 -33t-28.5 -87t29.5 -84.5t82.5 -30.5z" />
    <glyph glyph-name="integral" unicode="&#x222b;" horiz-adv-x="316" 
d="M56 -194q-35 0 -65 10v95q23 -10 47 -10q36 0 52.5 23.5t16.5 74.5v598q0 96 36.5 142t114.5 46q34 0 67 -9v-96q-24 10 -48 10q-36 0 -52.5 -23.5t-16.5 -74.5v-598q0 -96 -37 -142t-115 -46z" />
    <glyph glyph-name="approxequal" unicode="&#x2248;" horiz-adv-x="599" 
d="M403 321q-62 0 -128 51q-48 37 -79 37q-59 0 -62 -76h-88q2 83 41.5 129t109.5 46q62 0 128 -51q48 -37 79 -37q59 0 62 76h88q-2 -83 -41.5 -129t-109.5 -46zM403 89q-62 0 -128 51q-48 37 -79 37q-59 0 -62 -76h-88q2 83 41.5 129t109.5 46q62 0 128 -51q48 -37 79 -37
q59 0 62 76h88q-2 -83 -41.5 -129t-109.5 -46z" />
    <glyph glyph-name="notequal" unicode="&#x2260;" horiz-adv-x="599" 
d="M545 374h-152l-80 -130h232v-98h-292l-80 -129h-108l80 129h-91v98h151l80 130h-231v98h292l79 128h108l-79 -128h91v-98z" />
    <glyph glyph-name="lessequal" unicode="&#x2264;" horiz-adv-x="599" 
d="M545 140l-491 175v94l491 176v-106l-337 -116l337 -117v-106zM54 0v98h491v-98h-491z" />
    <glyph glyph-name="greaterequal" unicode="&#x2265;" horiz-adv-x="599" 
d="M54 140v106l337 117l-337 116v106l491 -176v-94zM54 0v98h491v-98h-491z" />
    <glyph glyph-name="lozenge" unicode="&#x25ca;" horiz-adv-x="599" 
d="M299 -32l-272 372l272 372l273 -372zM300 135l149 205l-149 205l-150 -205z" />
    <glyph glyph-name="uniF8FF" unicode="&#xf8ff;" horiz-adv-x="649" 
d="M263 50q-101 0 -163 61t-62 163q0 101 64.5 163t185.5 62h50v116h157v-116h132v-149h-132v-51q0 -116 -63.5 -182.5t-168.5 -66.5zM266 205q72 0 72 92v53h-49q-89 0 -89 -76q0 -32 17.5 -50.5t48.5 -18.5z" />
    <glyph glyph-name="Iacute_J.loclNLD" horiz-adv-x="839" 
d="M59 746l112 136h136l-137 -136h-111zM626 746l112 136h136l-137 -136h-111zM83 0v680h122v-680h-122zM536 -12q-120 0 -176 56.5t-56 177.5v18h117v-18q0 -67 26.5 -97t87.5 -30t88 32.5t27 104.5v448h122v-453q0 -124 -57 -181.5t-179 -57.5z" />
    <glyph glyph-name="iacute_j.loclNLD" horiz-adv-x="532" 
d="M48 592l112 136h136l-137 -136h-111zM314 592l112 136h136l-137 -136h-111zM73 0v519h120v-519h-120zM264 -182v97h28q27 0 37 11.5t10 43.5v549h120v-550q0 -79 -31.5 -115t-102.5 -36h-61z" />
    <glyph glyph-name="i.loclTRK" horiz-adv-x="266" 
d="M69 602v113h128v-113h-128zM73 0v519h120v-519h-120z" />
    <glyph glyph-name="germandbls.calt" horiz-adv-x="638" 
d="M70 0v462q0 112 57 165t178 53h256v-95l-142 -192q101 -10 146 -57t45 -140q0 -104 -56.5 -150t-182.5 -46h-109v106h99q69 0 97.5 20.5t28.5 71.5q0 52 -30.5 72.5t-105.5 20.5h-71v91l141 192h-104q-65 0 -95 -27t-30 -85v-462h-122z" />
    <glyph glyph-name="zero.pf" horiz-adv-x="625" 
d="M312 -12q-117 0 -178.5 58t-61.5 170v248q0 112 61.5 170t178.5 58q118 0 179.5 -58t61.5 -170v-248q0 -112 -61.5 -170t-179.5 -58zM312 92q62 0 91.5 31.5t29.5 98.5v236q0 67 -29.5 98.5t-91.5 31.5t-91 -31.5t-29 -98.5v-236q0 -67 29 -98.5t91 -31.5z" />
    <glyph glyph-name="one.pf" horiz-adv-x="443" 
d="M228 0v528q-65 -27 -184 -31v95q133 4 190 88h114v-680h-120z" />
    <glyph glyph-name="two.pf" horiz-adv-x="571" 
d="M47 0v61q0 96 49 159t165 117q83 38 115.5 72t32.5 82q0 46 -29 71.5t-86 25.5q-122 0 -122 -118v-17h-114v28q0 102 61.5 156.5t175.5 54.5t174 -52.5t60 -147.5q0 -83 -48 -140t-160 -107q-81 -36 -115.5 -66.5t-38.5 -72.5h361v-106h-481z" />
    <glyph glyph-name="three.pf" horiz-adv-x="596" 
d="M300 -12q-120 0 -182 49t-62 145v30h116v-14q0 -106 128 -106q125 0 125 101q0 51 -31.5 75.5t-100.5 24.5h-70v104h69q118 0 118 94q0 97 -112 97q-117 0 -117 -104v-11h-115v18q0 98 60.5 149.5t174.5 51.5q110 0 169 -48.5t59 -140.5q0 -109 -89 -148v-2
q105 -39 105 -165q0 -200 -245 -200z" />
    <glyph glyph-name="four.pf" horiz-adv-x="596" 
d="M369 0v147h-332v109l321 424h131v-431h75v-102h-75v-147h-120zM158 249h211v284z" />
    <glyph glyph-name="five.pf" horiz-adv-x="573" 
d="M288 -12q-116 0 -178 50t-63 145h116q2 -43 34.5 -67t89.5 -24q130 0 130 127q0 62 -32 94t-92 32q-69 0 -118 -46h-108l24 381h415v-106h-313l-10 -171q55 45 141 45q103 0 158 -58.5t55 -167.5q0 -234 -249 -234z" />
    <glyph glyph-name="six.pf" horiz-adv-x="622" 
d="M318 -12q-118 0 -180.5 58.5t-62.5 171.5v240q0 115 63 174.5t184 59.5q222 0 230 -191h-116q-8 87 -115 87q-126 0 -126 -135v-80q59 63 160 63q98 0 151 -56t53 -162q0 -113 -61 -171.5t-180 -58.5zM319 92q119 0 119 123q0 117 -110 117q-94 0 -133 -90v-19
q0 -131 124 -131z" />
    <glyph glyph-name="seven.pf" horiz-adv-x="539" 
d="M121 0q15 344 263 571h-362v109h492v-112q-129 -125 -193.5 -261.5t-71.5 -306.5h-128z" />
    <glyph glyph-name="eight.pf" horiz-adv-x="615" 
d="M308 -12q-125 0 -190.5 51t-65.5 147q0 125 110 167v2q-92 39 -92 147q0 91 62.5 140.5t176.5 49.5q113 0 175 -49t62 -140q0 -109 -92 -148v-2q110 -43 110 -167q0 -96 -65.5 -147t-190.5 -51zM307 398q120 0 120 96q0 95 -120 95q-119 0 -119 -95q0 -47 31 -71.5
t88 -24.5zM307 91q136 0 136 101q0 103 -136 103t-136 -103q0 -101 136 -101z" />
    <glyph glyph-name="nine.pf" horiz-adv-x="622" 
d="M300 -12q-111 0 -169 49t-61 142h116q8 -87 114 -87q127 0 127 135v81q-61 -64 -160 -64t-151.5 56t-52.5 162q0 113 60.5 171.5t179.5 58.5t181.5 -58.5t62.5 -171.5v-240q0 -115 -63 -174.5t-184 -59.5zM294 348q95 0 133 92v17q0 131 -124 131q-120 0 -120 -123
q0 -117 111 -117z" />
    <glyph glyph-name="zero.numr" 
d="M183 274q-72 0 -110 34t-38 100v150q0 66 38 100t110 34t110 -34t38 -100v-150q0 -66 -38 -100t-110 -34zM183 351q57 0 57 62v141q0 61 -57 61t-57 -61v-141q0 -62 57 -62z" />
    <glyph glyph-name="one.numr" 
d="M71 286v77h89v212q-36 -13 -101 -15v69q78 3 108 51h84v-317h90v-77h-270z" />
    <glyph glyph-name="two.numr" 
d="M36 286v44q0 57 29.5 96t95.5 68q42 19 59.5 36t17.5 40q0 45 -54 45q-56 0 -56 -58v-7h-85v17q0 60 37 92.5t107 32.5q68 0 105 -31.5t37 -87.5q0 -49 -29 -83.5t-95 -63.5q-41 -18 -57.5 -31t-20.5 -30h202v-79h-293z" />
    <glyph glyph-name="three.numr" 
d="M185 274q-149 0 -149 115v18h86v-7q0 -49 62 -49q59 0 59 49q0 48 -65 48h-44v74h41q60 0 60 46q0 47 -53 47q-55 0 -55 -47v-6h-85v11q0 119 143 119q140 0 140 -115q0 -63 -50 -85v-2q59 -22 59 -94q0 -122 -149 -122z" />
    <glyph glyph-name="four.numr" 
d="M213 286v83h-189v79l183 232h96v-238h43v-73h-43v-83h-90zM109 442h104v137z" />
    <glyph glyph-name="five.numr" 
d="M182 274q-71 0 -108.5 30t-37.5 88h87q2 -41 59 -41q61 0 61 58t-59 58q-40 0 -59 -21h-76l13 234h252v-79h-180l-4 -82q33 22 81 22q59 0 91 -34t32 -96q0 -137 -152 -137z" />
    <glyph glyph-name="six.numr" 
d="M187 274q-72 0 -110.5 34.5t-38.5 99.5v146q0 68 38.5 103t112.5 35q71 0 106 -31t36 -85h-87q-2 39 -54 39q-61 0 -61 -65v-41q32 31 86 31q58 0 89 -33t31 -95q0 -138 -148 -138zM188 351q56 0 56 60q0 56 -52 56q-44 0 -63 -38v-16q0 -62 59 -62z" />
    <glyph glyph-name="seven.numr" 
d="M86 286q9 197 152 314h-207v80h303v-84q-76 -67 -111.5 -140.5t-40.5 -169.5h-96z" />
    <glyph glyph-name="eight.numr" 
d="M184 274q-157 0 -157 117q0 75 62 99v2q-52 22 -52 86q0 56 37.5 85t108.5 29t108.5 -29t37.5 -85q0 -64 -52 -86v-2q62 -24 62 -99q0 -117 -155 -117zM183 523q57 0 57 47q0 45 -57 45q-58 0 -58 -45q0 -47 58 -47zM183 351q65 0 65 48q0 49 -65 49q-66 0 -66 -49
q0 -48 66 -48z" />
    <glyph glyph-name="nine.numr" 
d="M177 274q-71 0 -106 31t-36 85h87q2 -39 54 -39q61 0 61 65v41q-32 -31 -86 -31q-58 0 -89 33t-31 95q0 138 148 138q72 0 110.5 -34.5t38.5 -99.5v-146q0 -68 -38.5 -103t-112.5 -35zM174 499q44 0 63 38v16q0 62 -59 62q-56 0 -56 -60q0 -56 52 -56z" />
    <glyph glyph-name="zero.dnom" 
d="M183 -12q-72 0 -110 34t-38 100v150q0 66 38 100t110 34t110 -34t38 -100v-150q0 -66 -38 -100t-110 -34zM183 65q57 0 57 62v141q0 61 -57 61t-57 -61v-141q0 -62 57 -62z" />
    <glyph glyph-name="one.dnom" 
d="M71 0v77h89v212q-36 -13 -101 -15v69q78 3 108 51h84v-317h90v-77h-270z" />
    <glyph glyph-name="two.dnom" 
d="M36 0v44q0 57 29.5 96t95.5 68q42 19 59.5 36t17.5 40q0 45 -54 45q-56 0 -56 -58v-7h-85v17q0 60 37 92.5t107 32.5q68 0 105 -31.5t37 -87.5q0 -49 -29 -83.5t-95 -63.5q-41 -18 -57.5 -31t-20.5 -30h202v-79h-293z" />
    <glyph glyph-name="three.dnom" 
d="M185 -12q-149 0 -149 115v18h86v-7q0 -49 62 -49q59 0 59 49q0 48 -65 48h-44v74h41q60 0 60 46q0 47 -53 47q-55 0 -55 -47v-6h-85v11q0 119 143 119q140 0 140 -115q0 -63 -50 -85v-2q59 -22 59 -94q0 -122 -149 -122z" />
    <glyph glyph-name="four.dnom" 
d="M213 0v83h-189v79l183 232h96v-238h43v-73h-43v-83h-90zM109 156h104v137z" />
    <glyph glyph-name="five.dnom" 
d="M182 -12q-71 0 -108.5 30t-37.5 88h87q2 -41 59 -41q61 0 61 58t-59 58q-40 0 -59 -21h-76l13 234h252v-79h-180l-4 -82q33 22 81 22q59 0 91 -34t32 -96q0 -137 -152 -137z" />
    <glyph glyph-name="six.dnom" 
d="M187 -12q-72 0 -110.5 34.5t-38.5 99.5v146q0 68 38.5 103t112.5 35q71 0 106 -31t36 -85h-87q-2 39 -54 39q-61 0 -61 -65v-41q32 31 86 31q58 0 89 -33t31 -95q0 -138 -148 -138zM188 65q56 0 56 60q0 56 -52 56q-44 0 -63 -38v-16q0 -62 59 -62z" />
    <glyph glyph-name="seven.dnom" 
d="M86 0q9 197 152 314h-207v80h303v-84q-76 -67 -111.5 -140.5t-40.5 -169.5h-96z" />
    <glyph glyph-name="eight.dnom" 
d="M184 -12q-157 0 -157 117q0 75 62 99v2q-52 22 -52 86q0 56 37.5 85t108.5 29t108.5 -29t37.5 -85q0 -64 -52 -86v-2q62 -24 62 -99q0 -117 -155 -117zM183 237q57 0 57 47q0 45 -57 45q-58 0 -58 -45q0 -47 58 -47zM183 65q65 0 65 48q0 49 -65 49q-66 0 -66 -49
q0 -48 66 -48z" />
    <glyph glyph-name="nine.dnom" 
d="M177 -12q-71 0 -106 31t-36 85h87q2 -39 54 -39q61 0 61 65v41q-32 -31 -86 -31q-58 0 -89 33t-31 95q0 138 148 138q72 0 110.5 -34.5t38.5 -99.5v-146q0 -68 -38.5 -103t-112.5 -35zM174 213q44 0 63 38v16q0 62 -59 62q-56 0 -56 -60q0 -56 52 -56z" />
    <glyph glyph-name="exclamdown.case" horiz-adv-x="301" 
d="M85 550v130h130v-130h-130zM88 0l3 188l16 278h87l17 -278l3 -188h-126z" />
    <glyph glyph-name="questiondown.case" horiz-adv-x="453" 
d="M182 550v130h130v-130h-130zM229 -12q-99 0 -153 46.5t-54 132.5q0 52 21.5 89t73.5 72q43 29 60 55t17 63v20h104v-24q0 -59 -21.5 -99t-71.5 -76q-37 -27 -50.5 -47t-13.5 -49q0 -39 23.5 -59.5t65.5 -20.5q95 0 95 103h114q0 -101 -53.5 -153.5t-156.5 -52.5z" />
    <glyph glyph-name="at.case" horiz-adv-x="755" 
d="M410 -21q-173 0 -275.5 97.5t-102.5 261.5q0 162 100 262.5t264 100.5q155 0 249.5 -90.5t94.5 -235.5q0 -100 -45.5 -155t-124.5 -55q-81 0 -108 59q-41 -59 -114 -59q-58 0 -88.5 35t-30.5 100v72q0 135 119 135q70 0 110 -52l4 40h79v-199q0 -50 37 -50q32 0 49 31.5
t17 89.5q0 116 -66 182t-180 66q-123 0 -194.5 -75t-71.5 -199q0 -127 75 -201.5t203 -74.5q103 0 181 50l33 -82q-86 -54 -214 -54zM375 247q44 0 66 47v85q-20 46 -67 46q-46 0 -46 -56v-67q0 -55 47 -55z" />
    <glyph glyph-name="parenleft.case" horiz-adv-x="341" 
d="M323 -96q-126 33 -194.5 146.5t-68.5 289.5t68.5 289.5t194.5 146.5v-92q-150 -72 -150 -344t150 -344v-92z" />
    <glyph glyph-name="parenright.case" horiz-adv-x="341" 
d="M18 -96v92q150 72 150 344t-150 344v92q126 -33 194.5 -146.5t68.5 -289.5t-68.5 -289.5t-194.5 -146.5z" />
    <glyph glyph-name="braceleft.case" horiz-adv-x="341" 
d="M253 -84q-82 0 -118.5 41t-36.5 135v131q0 42 -16 57.5t-57 15.5v88q41 0 57 15.5t16 57.5v131q0 94 36.5 135t118.5 41h70v-89h-42q-42 0 -56.5 -18.5t-14.5 -69.5v-124q0 -103 -71 -122v-2q71 -20 71 -122v-124q0 -51 14.5 -69.5t56.5 -18.5h42v-89h-70z" />
    <glyph glyph-name="braceright.case" horiz-adv-x="341" 
d="M18 -84v89h43q41 0 55.5 18.5t14.5 69.5v124q0 101 71 122v2q-71 19 -71 122v124q0 51 -14.5 69.5t-55.5 18.5h-43v89h70q82 0 119 -41t37 -135v-131q0 -42 15.5 -57.5t56.5 -15.5v-88q-41 0 -56.5 -15.5t-15.5 -57.5v-131q0 -94 -37 -135t-119 -41h-70z" />
    <glyph glyph-name="bracketleft.case" horiz-adv-x="341" 
d="M81 -84v848h242v-89h-129v-670h129v-89h-242z" />
    <glyph glyph-name="bracketright.case" horiz-adv-x="341" 
d="M18 -84v89h129v670h-129v89h242v-848h-242z" />
    <glyph glyph-name="bar.case" horiz-adv-x="290" 
d="M95 -160v1000h99v-1000h-99z" />
    <glyph glyph-name="brokenbar.case" horiz-adv-x="290" 
d="M95 440v400h99v-400h-99zM95 -160v400h99v-400h-99z" />
    <glyph glyph-name="periodcentered.case" horiz-adv-x="286" 
d="M78 274v130h130v-130h-130z" />
    <glyph glyph-name="bullet.case" horiz-adv-x="500" 
d="M132 219v240h236v-240h-236z" />
    <glyph glyph-name="hyphen.case" horiz-adv-x="377" 
d="M33 285v109h310v-109h-310z" />
    <glyph glyph-name="uni00AD.case" horiz-adv-x="377" 
d="M33 285v109h310v-109h-310z" />
    <glyph glyph-name="figuredash.case" horiz-adv-x="599" 
d="M30 291v97h539v-97h-539z" />
    <glyph glyph-name="endash.case" horiz-adv-x="500" 
d="M30 291v97h440v-97h-440z" />
    <glyph glyph-name="emdash.case" horiz-adv-x="900" 
d="M30 291v97h840v-97h-840z" />
    <glyph glyph-name="guillemotleft.case" horiz-adv-x="522" 
d="M152 161l-135 178l135 179h124l-136 -179l136 -178h-124zM381 161l-135 178l135 179h124l-136 -179l136 -178h-124z" />
    <glyph glyph-name="guillemotright.case" horiz-adv-x="522" 
d="M17 161l135 179l-135 178h123l136 -178l-136 -179h-123zM246 161l135 179l-135 178h123l136 -178l-136 -179h-123z" />
    <glyph glyph-name="guilsinglleft.case" horiz-adv-x="293" 
d="M152 161l-135 178l135 179h124l-136 -179l136 -178h-124z" />
    <glyph glyph-name="guilsinglright.case" horiz-adv-x="293" 
d="M17 161l135 179l-135 178h123l136 -178l-136 -179h-123z" />
    <glyph glyph-name="caron.alt" horiz-adv-x="169" 
d="M16 515l40 215h118l-77 -215h-81z" />
    <glyph glyph-name="ringacute" horiz-adv-x="500" 
d="M165 812l112 136h136l-137 -136h-111zM250 563q-51 0 -83.5 31t-32.5 79t33 79.5t83 31.5t82.5 -31.5t32.5 -79.5t-32.5 -79t-82.5 -31zM250 629q18 0 29.5 12t11.5 32q0 19 -11.5 31t-29.5 12t-29 -12t-11 -31q0 -20 11 -32t29 -12z" />
    <glyph glyph-name="NULL" horiz-adv-x="0" 
 />
    </font>
</defs>
</svg>
