<?xml version="1.0" standalone="no"?>
<!DOCTYPE svg PUBLIC "-//W3C//DTD SVG 1.1//EN" "http://www.w3.org/Graphics/SVG/1.1/DTD/svg11.dtd" >
<svg xmlns="http://www.w3.org/2000/svg" xmlns:xlink="http://www.w3.org/1999/xlink" version="1.1">
<metadata>
Created by FontForge 20170731 at Fri Feb  5 17:50:14 2016
 By Aleksey,,,
Copyright (c) 2014-2015 by Ryoichi Tsunekawa. All rights reserved.
</metadata>
<defs>
<font id="BioSans-Italic" horiz-adv-x="366" >
  <font-face 
    font-family="Bio Sans"
    font-weight="400"
    font-style="italic"
    font-stretch="normal"
    units-per-em="1000"
    panose-1="2 11 5 6 2 2 2 11 2 4"
    ascent="800"
    descent="-200"
    x-height="516"
    cap-height="680"
    bbox="-215 -238 1067 1087"
    underline-thickness="50"
    underline-position="-200"
    slope="-10"
    unicode-range="U+000D-FB02"
  />
<missing-glyph horiz-adv-x="689" 
d="M45 0l119 680h509l-119 -680h-509zM367 396l193 225h-309zM122 110l199 233l-116 227zM513 110l83 460l-200 -232zM158 59h309l-116 226z" />
    <glyph glyph-name="fi" unicode="fi" horiz-adv-x="596" 
d="M62 0l78 444h-94l12 72h95l10 56q14 82 54.5 120t112.5 38h86l-13 -74h-62q-40 0 -61 -19t-29 -65l-10 -56h133l-12 -72h-134l-78 -444h-88zM482 609l17 98h96l-17 -98h-96zM379 0l91 516h88l-91 -516h-88z" />
    <glyph glyph-name="fl" unicode="fl" horiz-adv-x="596" 
d="M62 0l78 444h-94l12 72h95l10 56q14 82 54.5 120t112.5 38h86l-13 -74h-62q-40 0 -61 -19t-29 -65l-10 -56h133l-12 -72h-134l-78 -444h-88zM379 0l129 730h88l-129 -730h-88z" />
    <glyph glyph-name=".notdef" horiz-adv-x="689" 
d="M45 0l119 680h509l-119 -680h-509zM367 396l193 225h-309zM122 110l199 233l-116 227zM513 110l83 460l-200 -232zM158 59h309l-116 226z" />
    <glyph glyph-name=".null" horiz-adv-x="0" 
 />
    <glyph glyph-name="nonmarkingreturn" horiz-adv-x="333" 
 />
    <glyph glyph-name="CR" unicode="&#xd;" horiz-adv-x="264" 
 />
    <glyph glyph-name="space" unicode=" " horiz-adv-x="264" 
 />
    <glyph glyph-name="exclam" unicode="!" horiz-adv-x="292" 
d="M104 202l41 298l29 180h92l-33 -180l-65 -298h-64zM50 0l17 102h102l-17 -102h-102z" />
    <glyph glyph-name="quotedbl" unicode="&#x22;" horiz-adv-x="404" 
d="M111 443l28 237h95l-54 -237h-69zM290 443l28 237h95l-54 -237h-69z" />
    <glyph glyph-name="numbersign" unicode="#" horiz-adv-x="602" 
d="M63 0l53 176h-88l12 71h97l59 196h-87l12 71h96l50 166h79l-50 -166h143l50 166h79l-50 -166h87l-12 -71h-96l-59 -196h86l-12 -71h-95l-53 -176h-79l53 176h-143l-53 -176h-79zM216 247h143l59 196h-143z" />
    <glyph glyph-name="dollar" unicode="$" horiz-adv-x="602" 
d="M205 -72l13 73q-171 14 -171 150q0 22 4 42h80q-3 -15 -3 -28q0 -76 104 -85l40 229q-93 19 -128 52.5t-35 100.5q0 93 61 151t167 66l13 73h75l-13 -74q75 -8 114 -44.5t39 -100.5q0 -21 -4 -41h-80q3 13 3 26q0 70 -86 81l-39 -220q96 -19 131.5 -53t35.5 -106
q0 -97 -61 -154t-172 -65l-13 -73h-75zM287 394l36 204q-60 -8 -93 -40t-33 -82q0 -34 18.5 -51.5t71.5 -30.5zM307 82q63 9 97.5 41t34.5 84q0 36 -20 55t-75 32z" />
    <glyph glyph-name="percent" unicode="%" horiz-adv-x="769" 
d="M202 314q-65 0 -98 28t-33 78q0 16 3 32l19 108q23 132 163 132q65 0 98 -28t33 -78q0 -16 -3 -32l-19 -108q-23 -132 -163 -132zM97 -12l527 704h78l-527 -704h-78zM204 379q76 0 89 74l18 102q2 12 2 25q0 47 -59 47q-76 0 -89 -74l-18 -102q-2 -12 -2 -25
q0 -47 59 -47zM542 -12q-65 0 -98 28t-33 78q0 16 3 32l19 108q23 132 163 132q65 0 98 -28t33 -78q0 -16 -3 -32l-19 -108q-23 -132 -163 -132zM544 53q76 0 89 74l18 102q2 12 2 25q0 47 -59 47q-76 0 -89 -74l-18 -102q-2 -12 -2 -25q0 -47 59 -47z" />
    <glyph glyph-name="ampersand" unicode="&#x26;" horiz-adv-x="665" 
d="M232 -12q-98 0 -149.5 42t-51.5 120q0 136 178 231q-41 61 -41 119q0 84 59 138t152 54q69 0 108.5 -32.5t39.5 -94.5q0 -65 -44.5 -114t-145.5 -95l121 -163q37 60 57 146h90q-31 -129 -95 -215l93 -124h-115l-43 58q-87 -70 -213 -70zM290 419q81 35 116.5 68t35.5 72
q0 57 -70 57q-53 0 -85.5 -32t-32.5 -78q0 -38 36 -87zM242 66q91 0 156 56l-143 196q-72 -37 -103 -73t-31 -83q0 -96 121 -96z" />
    <glyph glyph-name="quotesingle" unicode="'" horiz-adv-x="225" 
d="M111 443l28 237h95l-54 -237h-69z" />
    <glyph glyph-name="parenleft" unicode="(" horiz-adv-x="339" 
d="M250 -130q-183 66 -183 321q0 121 37.5 233.5t115.5 200t183 117.5l-13 -76q-59 -26 -107 -81.5t-77 -124t-44 -142t-15 -142.5q0 -181 114 -238z" />
    <glyph glyph-name="parenright" unicode=")" horiz-adv-x="339" 
d="M-47 -130l13 76q59 26 107 81.5t77 124t44 142t15 142.5q0 181 -114 238l11 68q183 -66 183 -321q0 -121 -37.5 -233.5t-115.5 -200t-183 -117.5z" />
    <glyph glyph-name="asterisk" unicode="*" horiz-adv-x="407" 
d="M132 300l-53 47l116 122l-141 38l26 72l141 -60l20 161h71l-36 -157l147 53l18 -71l-158 -39l81 -133l-64 -33l-61 135z" />
    <glyph glyph-name="plus" unicode="+" horiz-adv-x="602" 
d="M226 53l38 218h-206l14 76h206l38 218h78l-38 -218h206l-14 -76h-206l-38 -218h-78z" />
    <glyph glyph-name="comma" unicode="," horiz-adv-x="278" 
d="M10 -134l10 56q20 1 38 18.5t22 42.5l3 17h-41l18 102h103l-18 -102q-12 -68 -45 -100t-90 -34z" />
    <glyph glyph-name="hyphen" unicode="-" horiz-adv-x="371" 
d="M33 250l15 87h302l-15 -87h-302z" />
    <glyph glyph-name="period" unicode="." horiz-adv-x="278" 
d="M42 0l18 102h103l-18 -102h-103z" />
    <glyph glyph-name="slash" unicode="/" horiz-adv-x="445" 
d="M-64 -140l499 870h87l-499 -870h-87z" />
    <glyph glyph-name="zero" unicode="0" horiz-adv-x="602" 
d="M259 -12q-100 0 -152 44t-52 128q0 32 5 59l44 249q19 111 87.5 167.5t180.5 56.5q100 0 152 -44t52 -128q0 -31 -5 -59l-44 -249q-19 -111 -87.5 -167.5t-180.5 -56.5zM263 68q150 0 178 155l42 238q4 23 4 46q0 105 -119 105q-150 0 -178 -155l-42 -238q-4 -23 -4 -46
q0 -105 119 -105z" />
    <glyph glyph-name="one" unicode="1" horiz-adv-x="602" 
d="M80 0l14 83h168l84 478q-69 -42 -196 -46l14 78q123 4 206 87h85l-105 -597h166l-14 -83h-422z" />
    <glyph glyph-name="two" unicode="2" horiz-adv-x="602" 
d="M22 0l10 57q16 93 75 153t190 117q107 47 151.5 90.5t44.5 101.5q0 93 -117 93q-151 0 -175 -139l-2 -11h-86l5 28q17 98 85 150t179 52q199 0 199 -165q0 -88 -60 -152.5t-196 -122.5q-99 -42 -143.5 -79.5t-57.5 -89.5h379l-14 -83h-467z" />
    <glyph glyph-name="three" unicode="3" horiz-adv-x="602" 
d="M258 -12q-103 0 -156.5 40t-53.5 114q0 17 4 40l4 23h86l-3 -17q-3 -16 -3 -29q0 -91 129 -91q83 0 132 39t49 106q0 49 -30.5 71.5t-102.5 22.5h-77l14 80h74q74 0 117 36.5t43 96.5q0 92 -115 92q-72 0 -115.5 -33t-53.5 -93l-1 -6h-85l3 17q16 92 83 143.5t178 51.5
q194 0 194 -160q0 -131 -121 -179v-2q82 -32 82 -136q0 -106 -74 -166.5t-201 -60.5z" />
    <glyph glyph-name="four" unicode="4" horiz-adv-x="602" 
d="M349 0l27 156h-350l15 85l415 439h100l-78 -444h80l-14 -80h-80l-27 -156h-88zM145 236h245l57 320z" />
    <glyph glyph-name="five" unicode="5" horiz-adv-x="602" 
d="M257 -12q-99 0 -153.5 42t-54.5 113q0 17 3 33h86q-1 -6 -1 -18q0 -44 32.5 -67t91.5 -23q90 0 142 51t52 130q0 115 -124 115q-80 0 -152 -52h-81l87 368h405l-15 -83h-326l-46 -197q66 44 154 44q187 0 187 -184q0 -121 -77 -196.5t-210 -75.5z" />
    <glyph glyph-name="six" unicode="6" horiz-adv-x="602" 
d="M268 -12q-99 0 -153 44t-54 132q0 30 5 58l43 244q20 113 90.5 169.5t183.5 56.5q96 0 147 -40t51 -113q0 -20 -2 -31h-86q1 5 1 16q0 88 -115 88q-157 0 -185 -160l-16 -89q75 69 183 69q89 0 134.5 -43t45.5 -121q0 -128 -72.5 -204t-200.5 -76zM272 68
q85 0 132.5 51.5t47.5 135.5q0 97 -111 97q-121 0 -184 -113l-4 -20q-4 -23 -4 -43q0 -108 123 -108z" />
    <glyph glyph-name="seven" unicode="7" horiz-adv-x="602" 
d="M123 0q75 353 371 596h-377l15 84h483l-15 -87q-311 -258 -383 -593h-94z" />
    <glyph glyph-name="eight" unicode="8" horiz-adv-x="602" 
d="M253 -12q-219 0 -219 168q0 73 40 124t112 73v2q-76 34 -76 124q0 94 73 153.5t195 59.5q96 0 148.5 -41t52.5 -122q0 -132 -128 -176v-2q91 -34 91 -142q0 -102 -78 -161.5t-211 -59.5zM317 388q80 0 127 36t47 96q0 92 -120 92q-80 0 -127.5 -37.5t-47.5 -96.5
q0 -90 121 -90zM258 68q91 0 144 37.5t53 103.5q0 99 -136 99q-90 0 -143 -37.5t-53 -104.5q0 -50 32.5 -74t102.5 -24z" />
    <glyph glyph-name="nine" unicode="9" horiz-adv-x="602" 
d="M248 -12q-96 0 -147 40t-51 113q0 20 2 31h86q-1 -5 -1 -16q0 -88 115 -88q157 0 185 160l16 89q-75 -69 -183 -69q-89 0 -134.5 43t-45.5 121q0 128 72.5 204t200.5 76q99 0 153 -44t54 -132q0 -30 -5 -58l-43 -244q-20 -113 -90.5 -169.5t-183.5 -56.5zM290 328
q121 0 184 113l4 20q4 23 4 43q0 108 -123 108q-85 0 -132.5 -51.5t-47.5 -135.5q0 -97 111 -97z" />
    <glyph glyph-name="colon" unicode=":" horiz-adv-x="278" 
d="M108 376l18 102h103l-18 -102h-103zM42 0l18 102h103l-18 -102h-103z" />
    <glyph glyph-name="semicolon" unicode=";" horiz-adv-x="278" 
d="M109 376l18 102h103l-18 -102h-103zM10 -134l10 56q20 1 38 18.5t22 42.5l3 17h-41l18 102h103l-18 -102q-12 -68 -45 -100t-90 -34z" />
    <glyph glyph-name="less" unicode="&#x3c;" horiz-adv-x="602" 
d="M512 64l-454 206l13 74l527 206l-15 -86l-416 -161l359 -161z" />
    <glyph glyph-name="equal" unicode="=" horiz-adv-x="602" 
d="M78 384l14 76h490l-14 -76h-490zM38 158l14 76h490l-14 -76h-490z" />
    <glyph glyph-name="greater" unicode="&#x3e;" horiz-adv-x="602" 
d="M108 552l454 -206l-13 -74l-527 -206l15 86l416 161l-359 161z" />
    <glyph glyph-name="question" unicode="?" horiz-adv-x="436" 
d="M151 202l6 34q10 58 37 95.5t86 75.5q52 33 72.5 63t20.5 72q0 73 -91 73q-57 0 -93.5 -31.5t-46.5 -89.5h-85q35 198 229 198q83 0 129 -37t46 -104q0 -65 -29 -110.5t-97 -87.5q-51 -32 -74 -60t-30 -68l-4 -23h-76zM103 0l17 102h102l-17 -102h-102z" />
    <glyph glyph-name="at" unicode="@" horiz-adv-x="758" 
d="M387 -68q-161 0 -254 86t-93 237q0 170 111.5 283.5t287.5 113.5q141 0 228 -76.5t87 -207.5q0 -102 -52 -177t-146 -75q-82 0 -98 60q-50 -60 -123 -60q-52 0 -80 26.5t-28 71.5q0 15 4 36l14 79q23 132 138 132q77 0 109 -59l13 47h69l-37 -210q-2 -10 -2 -18
q0 -32 34 -32t58.5 30t34.5 69.5t10 81.5q0 97 -62.5 152t-168.5 55q-141 0 -228.5 -92t-87.5 -229q0 -118 68.5 -183.5t190.5 -65.5q114 0 182 52l34 -74q-86 -53 -213 -53zM357 189q54 0 95 59l15 87q-16 53 -68 53q-59 0 -71 -70l-11 -63q-2 -10 -2 -26q0 -40 42 -40z
" />
    <glyph glyph-name="A" unicode="A" horiz-adv-x="605" 
d="M-36 0l367 680h91l129 -680h-93l-32 174h-273l-93 -174h-96zM196 256h216l-54 309z" />
    <glyph glyph-name="B" unicode="B" horiz-adv-x="640" 
d="M47 0l120 680h259q101 0 146 -35t45 -114q0 -133 -119 -175v-2q88 -28 88 -136q0 -103 -66.5 -160.5t-186.5 -57.5h-286zM205 388h165q76 0 116.5 33t40.5 95q0 46 -26 64t-91 18h-167zM151 82h178q80 0 124 36t44 101q0 49 -30 68t-106 19h-170z" />
    <glyph glyph-name="C" unicode="C" horiz-adv-x="614" 
d="M276 -12q-220 0 -220 195q0 34 8 79l29 164q24 133 96 199.5t199 66.5q216 0 216 -182q0 -30 -4 -54h-88q3 20 3 38q0 60 -32.5 88t-100.5 28q-87 0 -135.5 -47t-65.5 -146l-28 -159q-6 -34 -6 -65q0 -64 32.5 -93.5t100.5 -29.5q156 0 190 153h89q-50 -235 -283 -235z
" />
    <glyph glyph-name="D" unicode="D" horiz-adv-x="647" 
d="M47 0l120 680h230q223 0 223 -186q0 -35 -8 -81l-27 -153q-24 -137 -94.5 -198.5t-204.5 -61.5h-239zM151 82h133q95 0 145 44t67 138l27 153q6 34 6 62q0 63 -35.5 91t-114.5 28h-136z" />
    <glyph glyph-name="E" unicode="E" horiz-adv-x="583" 
d="M47 0l120 680h444l-14 -82h-354l-37 -209h304l-14 -82h-305l-40 -225h365l-14 -82h-455z" />
    <glyph glyph-name="F" unicode="F" horiz-adv-x="547" 
d="M47 0l120 680h435l-14 -82h-345l-37 -209h295l-14 -82h-296l-54 -307h-90z" />
    <glyph glyph-name="G" unicode="G" horiz-adv-x="636" 
d="M283 -12q-112 0 -170 51t-58 143q0 30 7 70l32 179q22 125 96.5 193t199.5 68q105 0 162 -47.5t57 -134.5q0 -19 -3 -40h-88q2 18 2 28q0 112 -135 112q-170 0 -203 -188l-30 -170q-6 -32 -6 -57q0 -64 34.5 -94.5t107.5 -30.5q86 0 133.5 43.5t64.5 136.5l6 35h-144
l14 83h233l-22 -124q-45 -256 -290 -256z" />
    <glyph glyph-name="H" unicode="H" horiz-adv-x="693" 
d="M47 0l120 680h90l-51 -290h328l51 290h90l-120 -680h-90l54 306h-328l-54 -306h-90z" />
    <glyph glyph-name="I" unicode="I" horiz-adv-x="275" 
d="M47 0l120 680h90l-120 -680h-90z" />
    <glyph glyph-name="J" unicode="J" horiz-adv-x="549" 
d="M200 -12q-101 0 -148 40.5t-47 130.5q0 28 6 63l2 11h87l-3 -17q-5 -28 -5 -51q0 -50 26.5 -72.5t86.5 -22.5q78 0 118.5 38t55.5 124l79 448h90l-81 -459q-22 -123 -85 -178t-182 -55z" />
    <glyph glyph-name="K" unicode="K" horiz-adv-x="617" 
d="M47 0l120 680h90l-63 -358l375 358h115l-292 -280l174 -400h-98l-146 335l-151 -140l-34 -195h-90z" />
    <glyph glyph-name="L" unicode="L" horiz-adv-x="517" 
d="M47 0l120 680h90l-105 -597h327l-14 -83h-418z" />
    <glyph glyph-name="M" unicode="M" horiz-adv-x="863" 
d="M47 0l120 680h132l110 -533l299 533h137l-119 -680h-90l98 561l-315 -561h-65l-120 569l-100 -569h-87z" />
    <glyph glyph-name="N" unicode="N" horiz-adv-x="691" 
d="M47 0l120 680h101l225 -529l93 529h87l-119 -680h-87l-236 552l-97 -552h-87z" />
    <glyph glyph-name="O" unicode="O" horiz-adv-x="654" 
d="M284 -12q-227 0 -227 199q0 34 7 75l29 164q47 266 306 266q227 0 227 -199q0 -34 -7 -75l-29 -164q-47 -266 -306 -266zM290 70q178 0 211 187l29 165q6 34 6 62q0 64 -34.5 95t-108.5 31q-178 0 -211 -187l-29 -165q-6 -34 -6 -62q0 -64 34.5 -95t108.5 -31z" />
    <glyph glyph-name="P" unicode="P" horiz-adv-x="601" 
d="M47 0l120 680h252q107 0 152.5 -38.5t45.5 -129.5q0 -120 -68.5 -184.5t-196.5 -64.5h-169l-46 -263h-90zM198 345h157q83 0 128 40.5t45 116.5q0 54 -27 75t-97 21h-161z" />
    <glyph glyph-name="Q" unicode="Q" horiz-adv-x="654" 
d="M399 692q227 0 227 -199q0 -34 -7 -75l-29 -164q-21 -118 -81 -182l67 -83l-71 -58l-70 87q-63 -30 -151 -30q-227 0 -227 199q0 34 7 75l29 164q47 266 306 266zM530 422q6 34 6 62q0 64 -34.5 95t-108.5 31q-178 0 -211 -187l-29 -165q-6 -34 -6 -62q0 -64 34.5 -95
t108.5 -31q56 0 95 16l-104 128l68 55l105 -130q33 43 47 118z" />
    <glyph glyph-name="R" unicode="R" horiz-adv-x="631" 
d="M47 0l120 680h257q104 0 148 -37.5t44 -126.5q0 -97 -46 -156.5t-135 -76.5l116 -283h-97l-113 276h-155l-49 -276h-90zM200 358h161q80 0 122.5 39t42.5 112q0 50 -25.5 69.5t-93.5 19.5h-164z" />
    <glyph glyph-name="S" unicode="S" horiz-adv-x="558" 
d="M241 -12q-220 0 -220 158q0 24 4 47h90q-3 -18 -3 -32q0 -91 132 -91q84 0 130.5 36t46.5 106q0 36 -32.5 57t-112.5 36q-103 20 -146 54t-43 97q0 113 71 174.5t194 61.5q203 0 203 -152q0 -24 -4 -47h-90q3 18 3 33q0 45 -28.5 64.5t-87.5 19.5q-79 0 -125.5 -36
t-46.5 -101q0 -34 31 -52.5t107 -32.5q106 -19 151.5 -55.5t45.5 -103.5q0 -118 -71 -179.5t-199 -61.5z" />
    <glyph glyph-name="T" unicode="T" horiz-adv-x="507" 
d="M163 0l105 597h-201l15 83h492l-15 -83h-201l-105 -597h-90z" />
    <glyph glyph-name="U" unicode="U" horiz-adv-x="641" 
d="M280 -12q-114 0 -165.5 41.5t-51.5 126.5q0 32 7 71l80 453h90l-81 -459q-5 -27 -5 -50q0 -56 30.5 -78.5t99.5 -22.5q87 0 130.5 35.5t58.5 121.5l80 453h87l-81 -459q-22 -123 -87 -178t-192 -55z" />
    <glyph glyph-name="V" unicode="V" horiz-adv-x="582" 
d="M199 0l-116 680h92l92 -552l285 552h95l-354 -680h-94z" />
    <glyph glyph-name="W" unicode="W" horiz-adv-x="862" 
d="M148 0l-64 680h90l45 -532l240 532h88l53 -534l233 534h93l-302 -680h-92l-54 527l-239 -527h-91z" />
    <glyph glyph-name="X" unicode="X" horiz-adv-x="567" 
d="M-33 0l277 354l-149 326h99l120 -264l204 264h106l-268 -342l154 -338h-99l-124 276l-214 -276h-106z" />
    <glyph glyph-name="Y" unicode="Y" horiz-adv-x="552" 
d="M185 0l51 291l-172 389h99l132 -297l235 297h106l-310 -392l-51 -288h-90z" />
    <glyph glyph-name="Z" unicode="Z" horiz-adv-x="549" 
d="M-13 0l13 74l448 524h-338l14 82h459l-13 -73l-448 -525h364l-14 -82h-485z" />
    <glyph glyph-name="bracketleft" unicode="[" horiz-adv-x="339" 
d="M26 -118l149 848h226l-12 -69h-142l-125 -710h142l-12 -69h-226z" />
    <glyph glyph-name="backslash" unicode="\" horiz-adv-x="445" 
d="M286 -140l-195 870h81l195 -870h-81z" />
    <glyph glyph-name="bracketright" unicode="]" horiz-adv-x="339" 
d="M-45 -118l12 69h142l125 710h-142l12 69h226l-149 -848h-226z" />
    <glyph glyph-name="asciicircum" unicode="^" horiz-adv-x="602" 
d="M41 332l299 348h68l177 -348h-85l-135 267l-229 -267h-95z" />
    <glyph glyph-name="underscore" unicode="_" horiz-adv-x="500" 
d="M-68 -128l13 74h500l-13 -74h-500z" />
    <glyph glyph-name="grave" unicode="`" horiz-adv-x="500" 
d="M295 594l-107 132h105l86 -132h-84z" />
    <glyph glyph-name="a" unicode="a" horiz-adv-x="540" 
d="M175 -12q-73 0 -113 34.5t-40 102.5q0 88 64 135t175 47h129l5 28q3 18 3 36q0 81 -97 81q-56 0 -92 -24t-46 -69h-86q40 169 231 169q179 0 179 -145q0 -25 -4 -49l-59 -334h-75l9 67q-76 -79 -183 -79zM191 64q108 0 174 102l12 68h-121q-69 0 -107.5 -26.5
t-38.5 -77.5q0 -66 81 -66z" />
    <glyph glyph-name="b" unicode="b" horiz-adv-x="582" 
d="M293 -12q-114 0 -162 98l-18 -86h-75l129 730h88l-49 -278q72 76 172 76q79 0 120.5 -41t41.5 -117q0 -28 -6 -60l-19 -109q-18 -103 -74.5 -158t-147.5 -55zM287 65q56 0 92.5 38t48.5 106l18 102q5 27 5 46q0 45 -23 69.5t-67 24.5q-100 0 -177 -120l-27 -152
q34 -114 130 -114z" />
    <glyph glyph-name="c" unicode="c" horiz-adv-x="517" 
d="M230 -12q-91 0 -139 41.5t-48 122.5q0 26 6 59l18 102q38 215 246 215q88 0 135 -39.5t47 -113.5q0 -19 -3 -38h-86q2 10 2 25q0 48 -24 68.5t-72 20.5q-132 0 -158 -144l-18 -102q-5 -28 -5 -46q0 -94 104 -94q115 0 144 114h85q-38 -191 -234 -191z" />
    <glyph glyph-name="d" unicode="d" horiz-adv-x="582" 
d="M204 -12q-79 0 -120.5 41t-41.5 117q0 28 6 60l19 109q18 103 74.5 158t147.5 55q107 0 155 -85l50 287h88l-128 -730h-75l11 79q-78 -91 -186 -91zM221 65q100 0 178 122l26 149q-33 115 -130 115q-56 0 -92.5 -38t-48.5 -106l-18 -102q-5 -27 -5 -46q0 -45 23 -69.5
t67 -24.5z" />
    <glyph glyph-name="e" unicode="e" horiz-adv-x="548" 
d="M238 -12q-194 0 -194 168q0 26 5 55l18 102q19 106 83 160.5t168 54.5q91 0 140 -42t49 -125q0 -25 -5 -53l-13 -74h-348l-5 -29q-5 -28 -5 -44q0 -97 110 -97q60 0 96.5 24.5t48.5 65.5h85q-39 -166 -233 -166zM154 307h263q5 32 5 50q0 95 -108 95q-133 0 -160 -145z
" />
    <glyph glyph-name="f" unicode="f" horiz-adv-x="341" 
d="M62 0l78 444h-94l12 72h95l10 56q14 82 54.5 120t112.5 38h86l-13 -74h-62q-40 0 -61 -19t-29 -65l-10 -56h133l-12 -72h-134l-78 -444h-88z" />
    <glyph glyph-name="g" unicode="g" horiz-adv-x="581" 
d="M204 -194q-91 0 -139.5 34.5t-48.5 102.5q0 14 1 23h81v-12q0 -72 108 -72q70 0 109 31t51 98l14 81q-72 -75 -171 -75q-79 0 -120.5 41t-41.5 117q0 29 6 60l14 80q18 103 74.5 158t147.5 55q112 0 161 -96l18 84h75l-90 -510q-35 -200 -249 -200zM226 94q99 0 175 118
l23 128q-33 111 -129 111q-56 0 -92.5 -37.5t-48.5 -106.5l-13 -73q-5 -27 -5 -46q0 -45 23 -69.5t67 -24.5z" />
    <glyph glyph-name="h" unicode="h" horiz-adv-x="570" 
d="M38 0l129 730h88l-49 -277q74 75 169 75q139 0 139 -135q0 -32 -5 -59l-59 -334h-88l58 329q4 23 4 47q0 71 -71 71q-93 0 -168 -114l-59 -333h-88z" />
    <glyph glyph-name="i" unicode="i" horiz-adv-x="255" 
d="M141 609l17 98h96l-17 -98h-96zM38 0l91 516h88l-91 -516h-88z" />
    <glyph glyph-name="j" unicode="j" horiz-adv-x="255" 
d="M141 609l17 98h96l-17 -98h-96zM-80 -182l14 76h23q36 0 51.5 14.5t22.5 52.5l98 555h88l-98 -555q-14 -77 -49 -110t-102 -33h-48z" />
    <glyph glyph-name="k" unicode="k" horiz-adv-x="527" 
d="M38 0l129 730h88l-82 -465l278 251h114l-236 -211l148 -305h-98l-118 244l-109 -97l-26 -147h-88z" />
    <glyph glyph-name="l" unicode="l" horiz-adv-x="255" 
d="M38 0l129 730h88l-129 -730h-88z" />
    <glyph glyph-name="m" unicode="m" horiz-adv-x="862" 
d="M38 0l91 516h75l-10 -76q72 88 171 88q109 0 131 -88q73 88 173 88q68 0 103 -34t35 -99q0 -27 -3 -44l-62 -351h-88l61 346q3 18 3 34q0 67 -66 67q-82 0 -159 -111l-59 -336h-88l61 346q3 18 3 34q0 67 -67 67q-82 0 -158 -115l-59 -332h-88z" />
    <glyph glyph-name="n" unicode="n" horiz-adv-x="570" 
d="M38 0l91 516h75l-11 -77q79 89 182 89q139 0 139 -135q0 -32 -5 -59l-59 -334h-88l58 329q4 23 4 47q0 71 -71 71q-93 0 -168 -114l-59 -333h-88z" />
    <glyph glyph-name="o" unicode="o" horiz-adv-x="560" 
d="M238 -12q-194 0 -194 171q0 23 6 58l15 85q40 226 257 226q194 0 194 -171q0 -23 -6 -58l-15 -85q-40 -226 -257 -226zM243 65q138 0 165 155l14 80q5 28 5 49q0 102 -110 102q-138 0 -165 -155l-14 -80q-5 -28 -5 -49q0 -102 110 -102z" />
    <glyph glyph-name="p" unicode="p" horiz-adv-x="582" 
d="M5 -182l124 698h75l-11 -77q78 89 185 89q79 0 120.5 -41t41.5 -117q0 -28 -6 -60l-19 -109q-18 -103 -74.5 -158t-147.5 -55q-107 0 -155 85l-45 -255h-88zM287 65q56 0 92.5 38t48.5 106l18 102q5 27 5 46q0 45 -23 69.5t-67 24.5q-100 0 -177 -120l-27 -152
q33 -114 130 -114z" />
    <glyph glyph-name="q" unicode="q" horiz-adv-x="581" 
d="M332 -182l43 245q-71 -75 -171 -75q-79 0 -120.5 41t-41.5 117q0 28 6 60l19 109q18 103 74.5 158t147.5 55q112 0 161 -96l18 84h75l-123 -698h-88zM221 65q99 0 175 118l28 157q-33 111 -129 111q-56 0 -92.5 -38t-48.5 -106l-18 -102q-5 -27 -5 -46q0 -45 23 -69.5
t67 -24.5z" />
    <glyph glyph-name="r" unicode="r" horiz-adv-x="358" 
d="M38 0l91 516h75l-12 -91q53 101 162 101h38l-15 -87h-24q-123 0 -174 -138l-53 -301h-88z" />
    <glyph glyph-name="s" unicode="s" horiz-adv-x="497" 
d="M205 -12q-93 0 -141 34t-48 98q0 16 3 32h84q-2 -14 -2 -20q0 -69 110 -69q65 0 103 24t38 68q0 30 -26.5 45t-91.5 23q-89 11 -127.5 41.5t-38.5 87.5q0 81 61 128.5t162 47.5q85 0 130.5 -33.5t45.5 -95.5q0 -20 -2 -30h-86q2 14 2 20q0 64 -96 64q-59 0 -95 -24.5
t-36 -64.5q0 -28 25.5 -41.5t86.5 -20.5q90 -10 131 -42t41 -93q0 -86 -62 -132.5t-171 -46.5z" />
    <glyph glyph-name="t" unicode="t" horiz-adv-x="341" 
d="M201 0q-121 0 -121 111q0 25 5 53l49 280h-88l12 72h91l31 136h79l-24 -136h127l-12 -72h-128l-50 -286q-4 -21 -4 -39q0 -25 13.5 -34t48.5 -9h61l-13 -76h-77z" />
    <glyph glyph-name="u" unicode="u" horiz-adv-x="574" 
d="M196 -12q-140 0 -140 138q0 28 5 56l59 334h88l-59 -334q-3 -17 -3 -41q0 -38 17.5 -55t54.5 -17q95 0 171 114l59 333h88l-91 -516h-75l11 77q-80 -89 -185 -89z" />
    <glyph glyph-name="v" unicode="v" horiz-adv-x="479" 
d="M147 0l-91 516h91l65 -406l207 406h94l-271 -516h-95z" />
    <glyph glyph-name="w" unicode="w" horiz-adv-x="775" 
d="M127 0l-71 516h90l47 -400l194 400h87l54 -402l188 402h93l-251 -516h-94l-54 389l-189 -389h-94z" />
    <glyph glyph-name="x" unicode="x" horiz-adv-x="485" 
d="M-41 0l230 275l-127 241h100l98 -189l156 189h105l-219 -261l134 -255h-100l-105 203l-167 -203h-105z" />
    <glyph glyph-name="y" unicode="y" horiz-adv-x="472" 
d="M-21 -182l14 76h42q30 0 47.5 12t34.5 44l38 74l-99 492h91l70 -381l195 381h94l-305 -581q-36 -68 -71.5 -92.5t-95.5 -24.5h-55z" />
    <glyph glyph-name="z" unicode="z" horiz-adv-x="463" 
d="M-15 0l11 66l344 375h-257l13 75h375l-11 -66l-344 -375h283l-13 -75h-401z" />
    <glyph glyph-name="braceleft" unicode="{" horiz-adv-x="339" 
d="M196 -118q-65 0 -95.5 28t-30.5 89q0 25 5 54l26 147q3 17 3 28q0 26 -15.5 35t-54.5 9l12 68q43 0 64.5 17t28.5 59l26 147q16 92 56 129.5t118 37.5h62l-12 -69h-40q-44 0 -67.5 -21.5t-33.5 -78.5l-25 -142q-9 -52 -29 -78.5t-55 -34.5v-2q47 -16 47 -78q0 -16 -4 -39
l-25 -142q-4 -23 -4 -39q0 -30 15 -42.5t52 -12.5h44l-12 -69h-56z" />
    <glyph glyph-name="bar" unicode="|" horiz-adv-x="290" 
d="M21 -226l176 1000h78l-176 -1000h-78z" />
    <glyph glyph-name="braceright" unicode="}" horiz-adv-x="339" 
d="M-45 -118l12 69h40q44 0 67.5 21.5t33.5 78.5l25 142q9 52 29 78.5t55 34.5v2q-47 16 -47 78q0 16 4 39l25 142q4 23 4 39q0 30 -15 42.5t-52 12.5h-44l12 69h56q65 0 95.5 -28t30.5 -89q0 -25 -5 -54l-26 -147q-3 -16 -3 -28q0 -26 15.5 -35t54.5 -9l-12 -68
q-43 0 -64.5 -17t-28.5 -59l-26 -147q-16 -92 -56 -129.5t-118 -37.5h-62z" />
    <glyph glyph-name="asciitilde" unicode="~" horiz-adv-x="602" 
d="M407 224q-64 0 -121 53q-44 40 -81 40q-68 0 -88 -83h-69q15 77 57.5 118t107.5 41q64 0 121 -53q44 -40 81 -40q68 0 88 83h69q-15 -77 -57.5 -118t-107.5 -41z" />
    <glyph glyph-name="uni00A0" unicode="&#xa0;" horiz-adv-x="264" 
 />
    <glyph glyph-name="exclamdown" unicode="&#xa1;" horiz-adv-x="292" 
d="M123 414l17 102h102l-17 -102h-102zM26 -164l33 180l65 298h64l-41 -298l-29 -180h-92z" />
    <glyph glyph-name="cent" unicode="&#xa2;" horiz-adv-x="602" 
d="M214 -72l13 74q-150 18 -150 157q0 25 5 53l17 97q34 192 218 206l13 73h75l-13 -75q71 -8 108 -45.5t37 -100.5q0 -17 -3 -35h-85q2 16 2 27q0 67 -72 78l-63 -357q86 15 107 104h85q-34 -168 -206 -183l-13 -73h-75zM241 79l62 357q-51 -8 -78.5 -40t-38.5 -91l-17 -96
q-5 -28 -5 -46q0 -73 77 -84z" />
    <glyph glyph-name="sterling" unicode="&#xa3;" horiz-adv-x="602" 
d="M39 0l13 76q61 37 88 84.5t27 119.5h-100l14 80h76q-15 62 -15 91q0 114 67.5 177.5t187.5 63.5q192 0 192 -153q0 -24 -4 -45h-86q3 16 3 32q0 86 -112 86q-78 0 -119.5 -42t-41.5 -120q0 -20 12 -90h258l-14 -80h-236q-3 -131 -85 -197h339l-14 -83h-450z" />
    <glyph glyph-name="currency" unicode="&#xa4;" horiz-adv-x="602" 
d="M109 79l-57 56l113 116q-24 42 -24 89t24 89l-113 116l57 56l112 -115q43 27 94 27t94 -27l112 115l57 -56l-113 -116q24 -42 24 -89t-24 -89l113 -116l-57 -56l-112 115q-43 -27 -94 -27t-94 27zM315 246q40 0 67 27t27 67t-27 67t-67 27t-67 -27t-27 -67t27 -67t67 -27
z" />
    <glyph glyph-name="yen" unicode="&#xa5;" horiz-adv-x="602" 
d="M212 0l21 121h-181l12 69h181l12 68h-181l12 70h174l-158 352h97l122 -282l219 282h106l-280 -352h170l-12 -70h-181l-12 -68h181l-12 -69h-181l-21 -121h-88z" />
    <glyph glyph-name="brokenbar" unicode="&#xa6;" horiz-adv-x="290" 
d="M127 374l70 400h78l-70 -400h-78zM21 -226l70 400h78l-70 -400h-78z" />
    <glyph glyph-name="section" unicode="&#xa7;" horiz-adv-x="594" 
d="M217 -196q-98 0 -149.5 36.5t-51.5 106.5q0 17 3 37h86q-2 -9 -2 -25q0 -80 118 -80q73 0 118 28t45 79q0 37 -28.5 55.5t-116.5 39.5q-108 25 -147 57t-39 93q0 112 118 164v2q-48 34 -48 103q0 89 66.5 140.5t175.5 51.5q90 0 139.5 -36t49.5 -103q0 -16 -3 -34h-86
q2 8 2 24q0 74 -106 74q-67 0 -109.5 -28t-42.5 -76q0 -36 28.5 -55t115.5 -39q105 -24 145.5 -57t40.5 -93q0 -110 -118 -162v-2q50 -34 50 -106q0 -93 -69 -144t-185 -51zM339 141q51 12 81.5 42t30.5 70q0 35 -30 54.5t-113 38.5q-38 8 -60 16q-51 -15 -79 -45t-28 -69
q0 -37 28.5 -56t112.5 -37q49 -12 57 -14z" />
    <glyph glyph-name="dieresis" unicode="&#xa8;" horiz-adv-x="500" 
d="M174 609l17 98h98l-17 -98h-98zM352 609l17 98h98l-17 -98h-98z" />
    <glyph glyph-name="copyright" unicode="&#xa9;" horiz-adv-x="772" 
d="M400 -12q-153 0 -252.5 99.5t-99.5 252.5t99.5 252.5t252.5 99.5t252.5 -99.5t99.5 -252.5t-99.5 -252.5t-252.5 -99.5zM400 57q125 0 200.5 77.5t75.5 205.5t-75.5 205.5t-200.5 77.5t-200.5 -77.5t-75.5 -205.5t75.5 -205.5t200.5 -77.5zM398 151q-143 0 -143 146v86
q0 146 143 146q140 0 143 -133h-75q-2 36 -16.5 51.5t-49.5 15.5q-37 0 -52 -19t-15 -64v-80q0 -45 15 -64t52 -19q35 0 49.5 15.5t16.5 51.5h75q-3 -133 -143 -133z" />
    <glyph glyph-name="ordfeminine" unicode="&#xaa;" horiz-adv-x="426" 
d="M176 311q-55 0 -84 25.5t-29 74.5q0 59 42 93t116 34h112l4 25q2 12 2 18q0 47 -69 47q-83 0 -96 -55h-69q27 119 171 119q67 0 102.5 -26.5t35.5 -75.5q0 -11 -4 -35l-41 -232h-64l6 47q-55 -59 -135 -59zM192 375q75 0 124 70l7 37h-94q-43 0 -66.5 -17.5t-23.5 -48.5
q0 -41 53 -41zM27 167l11 65h315l-11 -65h-315z" />
    <glyph glyph-name="guillemotleft" unicode="&#xab;" horiz-adv-x="482" 
d="M131 82l-110 178l168 175h101l-177 -183l105 -170h-87zM340 82l-110 178l168 175h101l-177 -183l105 -170h-87z" />
    <glyph glyph-name="logicalnot" unicode="&#xac;" horiz-adv-x="602" 
d="M444 123l39 218h-412l13 76h490l-52 -294h-78z" />
    <glyph glyph-name="uni00AD" unicode="&#xad;" horiz-adv-x="371" 
d="M33 250l15 87h302l-15 -87h-302z" />
    <glyph glyph-name="registered" unicode="&#xae;" horiz-adv-x="772" 
d="M400 -12q-153 0 -252.5 99.5t-99.5 252.5t99.5 252.5t252.5 99.5t252.5 -99.5t99.5 -252.5t-99.5 -252.5t-252.5 -99.5zM400 57q125 0 200.5 77.5t75.5 205.5t-75.5 205.5t-200.5 77.5t-200.5 -77.5t-75.5 -205.5t75.5 -205.5t200.5 -77.5zM260 161v358h155
q69 0 100.5 -27t31.5 -86q0 -85 -67 -105l88 -140h-88l-80 132h-62v-132h-78zM338 356h67q36 0 50 11t14 38t-14 38t-50 11h-67v-98z" />
    <glyph glyph-name="macron" unicode="&#xaf;" horiz-adv-x="500" 
d="M188 625l12 70h254l-12 -70h-254z" />
    <glyph glyph-name="degree" unicode="&#xb0;" horiz-adv-x="376" 
d="M223 399q-63 0 -101.5 38.5t-38.5 101.5q0 74 51 124.5t125 50.5q63 0 101.5 -38.5t38.5 -101.5q0 -74 -51 -124.5t-125 -50.5zM224 469q43 0 73.5 31t30.5 74q0 32 -19 51t-51 19q-43 0 -73.5 -31t-30.5 -74q0 -32 19 -51t51 -19z" />
    <glyph glyph-name="plusminus" unicode="&#xb1;" horiz-adv-x="602" 
d="M239 128l34 190h-206l13 76h206l35 198h78l-35 -198h206l-13 -76h-206l-34 -190h-78zM10 0l14 76h490l-14 -76h-490z" />
    <glyph glyph-name="uni00B2" unicode="&#xb2;" 
d="M71 416l7 41q10 55 46.5 93.5t107.5 68.5q54 23 77.5 45t23.5 50q0 43 -54 43q-34 0 -56 -17.5t-27 -49.5l-1 -6h-70l3 17q21 121 155 121q123 0 123 -102q0 -52 -36 -91.5t-115 -73.5q-48 -21 -69.5 -36.5t-28.5 -35.5h208l-11 -67h-283z" />
    <glyph glyph-name="uni00B3" unicode="&#xb3;" 
d="M214 404q-63 0 -96 24.5t-33 67.5q0 14 2 26l2 12h70l-1 -6q-1 -6 -1 -11q0 -48 60 -48q43 0 66.5 19.5t23.5 52.5q0 23 -14.5 33t-51.5 10h-46l11 64h41q38 0 60 18.5t22 48.5q0 42 -53 42q-72 0 -82 -56l-1 -6h-69l2 11q21 116 154 116q122 0 122 -100q0 -76 -66 -101
v-2q44 -21 44 -79q0 -63 -44.5 -99.5t-121.5 -36.5z" />
    <glyph glyph-name="acute" unicode="&#xb4;" horiz-adv-x="500" 
d="M235 594l134 132h115l-155 -132h-94z" />
    <glyph glyph-name="uni00B5" unicode="&#xb5;" horiz-adv-x="582" 
d="M5 -182l124 698h88l-59 -333q-4 -21 -4 -43q0 -38 17 -55t54 -17q93 0 173 119l58 329h88l-91 -516h-75l11 78q-80 -90 -181 -90q-50 0 -81 20l-34 -190h-88z" />
    <glyph glyph-name="paragraph" unicode="&#xb6;" horiz-adv-x="594" 
d="M145 -183l82 464q-89 2 -128 39t-39 118q0 115 63 178.5t178 63.5h265l-152 -863h-88l139 787h-93l-139 -787h-88z" />
    <glyph glyph-name="periodcentered" unicode="&#xb7;" horiz-adv-x="278" 
d="M85 242l18 102h103l-18 -102h-103z" />
    <glyph glyph-name="cedilla" unicode="&#xb8;" horiz-adv-x="500" 
d="M153 -204q-61 0 -103 21l26 47q25 -17 61 -17q28 0 44 9.5t16 26.5q0 10 -10 13t-40 3h-30l64 116h56l-40 -73q82 -3 82 -63q0 -83 -126 -83z" />
    <glyph glyph-name="uni00B9" unicode="&#xb9;" 
d="M110 416l11 65h88l43 239q-40 -19 -104 -19l10 59q70 3 113 50h70l-58 -329h87l-11 -65h-249z" />
    <glyph glyph-name="ordmasculine" unicode="&#xba;" horiz-adv-x="420" 
d="M225 311q-142 0 -142 120q0 21 4 41l11 63q27 157 183 157q142 0 142 -120q0 -21 -4 -41l-11 -63q-27 -157 -183 -157zM227 375q90 0 107 97l11 63q3 17 3 31q0 62 -69 62q-90 0 -107 -97l-11 -63q-3 -16 -3 -31q0 -62 69 -62zM36 167l11 65h316l-11 -65h-316z" />
    <glyph glyph-name="guillemotright" unicode="&#xbb;" horiz-adv-x="482" 
d="M-17 81l177 183l-105 170h87l110 -178l-168 -175h-101zM192 81l177 183l-105 170h87l110 -178l-168 -175h-101z" />
    <glyph glyph-name="onequarter" unicode="&#xbc;" horiz-adv-x="839" 
d="M189 -12l489 704h77l-489 -704h-77zM87 286l11 65h88l43 239q-40 -19 -104 -19l10 59q70 3 113 50h70l-58 -329h87l-11 -65h-249zM651 0l15 86h-197l11 67l236 241h77l-43 -244h47l-11 -64h-47l-15 -86h-73zM561 150h116l26 148z" />
    <glyph glyph-name="onehalf" unicode="&#xbd;" horiz-adv-x="839" 
d="M151 -12l489 704h77l-489 -704h-77zM87 286l11 65h88l43 239q-40 -19 -104 -19l10 59q70 3 113 50h70l-58 -329h87l-11 -65h-249zM470 0l7 41q10 55 46.5 93.5t107.5 68.5q54 23 77.5 45t23.5 50q0 43 -54 43q-34 0 -56 -17.5t-27 -49.5l-1 -6h-70l3 17q21 121 155 121
q123 0 123 -102q0 -52 -36 -91.5t-115 -73.5q-48 -21 -69.5 -36.5t-28.5 -35.5h208l-11 -67h-283z" />
    <glyph glyph-name="threequarters" unicode="&#xbe;" horiz-adv-x="839" 
d="M191 274q-63 0 -96 24.5t-33 67.5q0 14 2 26l2 12h70l-1 -6q-1 -6 -1 -11q0 -48 60 -48q43 0 66.5 19.5t23.5 52.5q0 23 -14.5 33t-51.5 10h-46l11 64h41q38 0 60 18.5t22 48.5q0 42 -53 42q-72 0 -82 -56l-1 -6h-69l2 11q21 116 154 116q122 0 122 -100q0 -76 -66 -101
v-2q44 -21 44 -79q0 -63 -44.5 -99.5t-121.5 -36.5zM189 -12l489 704h77l-489 -704h-77zM651 0l15 86h-197l11 67l236 241h77l-43 -244h47l-11 -64h-47l-15 -86h-73zM561 150h116l26 148z" />
    <glyph glyph-name="questiondown" unicode="&#xbf;" horiz-adv-x="436" 
d="M214 414l17 102h102l-17 -102h-102zM150 -176q-83 0 -129 37t-46 104q0 65 29 110.5t97 87.5q51 32 74 60t30 68l4 23h76l-6 -34q-10 -58 -37 -95.5t-86 -75.5q-52 -33 -72.5 -63t-20.5 -72q0 -73 91 -73q57 0 93.5 31.5t46.5 89.5h85q-35 -198 -229 -198z" />
    <glyph glyph-name="Agrave" unicode="&#xc0;" horiz-adv-x="605" 
d="M376 749l-107 132h105l86 -132h-84zM-36 0l367 680h91l129 -680h-93l-32 174h-273l-93 -174h-96zM196 256h216l-54 309z" />
    <glyph glyph-name="Aacute" unicode="&#xc1;" horiz-adv-x="605" 
d="M316 749l134 132h115l-155 -132h-94zM-36 0l367 680h91l129 -680h-93l-32 174h-273l-93 -174h-96zM196 256h216l-54 309z" />
    <glyph glyph-name="Acircumflex" unicode="&#xc2;" horiz-adv-x="605" 
d="M232 749l136 132h90l88 -132h-84l-56 69l-80 -69h-94zM-36 0l367 680h91l129 -680h-93l-32 174h-273l-93 -174h-96zM196 256h216l-54 309z" />
    <glyph glyph-name="Atilde" unicode="&#xc3;" horiz-adv-x="605" 
d="M456 753q-34 0 -69 28q-24 19 -40 19q-30 0 -42 -45h-63q25 117 105 117q34 0 69 -28q24 -19 40 -19q30 0 42 45h63q-25 -117 -105 -117zM-36 0l367 680h91l129 -680h-93l-32 174h-273l-93 -174h-96zM196 256h216l-54 309z" />
    <glyph glyph-name="Adieresis" unicode="&#xc4;" horiz-adv-x="605" 
d="M255 764l17 98h98l-17 -98h-98zM433 764l17 98h98l-17 -98h-98zM-36 0l367 680h91l129 -680h-93l-32 174h-273l-93 -174h-96zM196 256h216l-54 309z" />
    <glyph glyph-name="Aring" unicode="&#xc5;" horiz-adv-x="605" 
d="M397 732q-44 0 -71 26t-27 69q0 48 33.5 80.5t82.5 32.5q44 0 71 -26t27 -69q0 -48 -33.5 -80.5t-82.5 -32.5zM400 791q21 0 35.5 15.5t14.5 38.5q0 16 -10.5 26t-27.5 10q-21 0 -35.5 -15.5t-14.5 -38.5q0 -16 10.5 -26t27.5 -10zM-36 0l367 680h91l129 -680h-93
l-32 174h-273l-93 -174h-96zM196 256h216l-54 309z" />
    <glyph glyph-name="AE" unicode="&#xc6;" horiz-adv-x="896" 
d="M-55 0l523 680h456l-14 -82h-328l-37 -209h278l-14 -82h-279l-40 -225h339l-14 -82h-429l31 174h-234l-134 -174h-104zM244 256h187l58 326z" />
    <glyph glyph-name="Ccedilla" unicode="&#xc7;" horiz-adv-x="614" 
d="M600 456h-88q3 20 3 38q0 60 -32.5 88t-100.5 28q-87 0 -135.5 -47t-65.5 -146l-28 -159q-6 -34 -6 -65q0 -64 32.5 -93.5t100.5 -29.5q156 0 190 153h89q-47 -222 -257 -234l-26 -47q82 -3 82 -63q0 -83 -126 -83q-61 0 -103 21l26 47q25 -17 61 -17q28 0 44 9.5
t16 26.5q0 10 -10 13t-40 3h-30l50 90q-190 13 -190 194q0 34 8 79l29 164q24 133 96 199.5t199 66.5q216 0 216 -182q0 -30 -4 -54z" />
    <glyph glyph-name="Egrave" unicode="&#xc8;" horiz-adv-x="583" 
d="M387 749l-107 132h105l86 -132h-84zM47 0l120 680h444l-14 -82h-354l-37 -209h304l-14 -82h-305l-40 -225h365l-14 -82h-455z" />
    <glyph glyph-name="Eacute" unicode="&#xc9;" horiz-adv-x="583" 
d="M327 749l134 132h115l-155 -132h-94zM47 0l120 680h444l-14 -82h-354l-37 -209h304l-14 -82h-305l-40 -225h365l-14 -82h-455z" />
    <glyph glyph-name="Ecircumflex" unicode="&#xca;" horiz-adv-x="583" 
d="M243 749l136 132h90l88 -132h-84l-56 69l-80 -69h-94zM47 0l120 680h444l-14 -82h-354l-37 -209h304l-14 -82h-305l-40 -225h365l-14 -82h-455z" />
    <glyph glyph-name="Edieresis" unicode="&#xcb;" horiz-adv-x="583" 
d="M266 764l17 98h98l-17 -98h-98zM444 764l17 98h98l-17 -98h-98zM47 0l120 680h444l-14 -82h-354l-37 -209h304l-14 -82h-305l-40 -225h365l-14 -82h-455z" />
    <glyph glyph-name="Igrave" unicode="&#xcc;" horiz-adv-x="275" 
d="M210 749l-107 132h105l86 -132h-84zM47 0l120 680h90l-120 -680h-90z" />
    <glyph glyph-name="Iacute" unicode="&#xcd;" horiz-adv-x="275" 
d="M150 749l134 132h115l-155 -132h-94zM47 0l120 680h90l-120 -680h-90z" />
    <glyph glyph-name="Icircumflex" unicode="&#xce;" horiz-adv-x="275" 
d="M72 749l131 132h88l83 -132h-82l-52 68l-76 -68h-92zM47 0l120 680h90l-120 -680h-90z" />
    <glyph glyph-name="Idieresis" unicode="&#xcf;" horiz-adv-x="275" 
d="M103 764l17 98h98l-17 -98h-98zM253 764l17 98h98l-17 -98h-98zM47 0l120 680h90l-120 -680h-90z" />
    <glyph glyph-name="Eth" unicode="&#xd0;" horiz-adv-x="657" 
d="M407 680q223 0 223 -186q0 -35 -8 -81l-27 -153q-24 -137 -94.5 -198.5t-204.5 -61.5h-239l54 307h-75l14 82h76l51 291h230zM533 417q6 34 6 62q0 63 -35.5 91t-114.5 28h-136l-37 -209h154l-14 -82h-155l-40 -225h133q95 0 145 44t67 138z" />
    <glyph glyph-name="Ntilde" unicode="&#xd1;" horiz-adv-x="691" 
d="M498 753q-34 0 -69 28q-24 19 -40 19q-30 0 -42 -45h-63q25 117 105 117q34 0 69 -28q24 -19 40 -19q30 0 42 45h63q-25 -117 -105 -117zM47 0l120 680h101l225 -529l93 529h87l-119 -680h-87l-236 552l-97 -552h-87z" />
    <glyph glyph-name="Ograve" unicode="&#xd2;" horiz-adv-x="654" 
d="M400 749l-107 132h105l86 -132h-84zM284 -12q-227 0 -227 199q0 34 7 75l29 164q47 266 306 266q227 0 227 -199q0 -34 -7 -75l-29 -164q-47 -266 -306 -266zM290 70q178 0 211 187l29 165q6 34 6 62q0 64 -34.5 95t-108.5 31q-178 0 -211 -187l-29 -165q-6 -34 -6 -62
q0 -64 34.5 -95t108.5 -31z" />
    <glyph glyph-name="Oacute" unicode="&#xd3;" horiz-adv-x="654" 
d="M340 749l134 132h115l-155 -132h-94zM284 -12q-227 0 -227 199q0 34 7 75l29 164q47 266 306 266q227 0 227 -199q0 -34 -7 -75l-29 -164q-47 -266 -306 -266zM290 70q178 0 211 187l29 165q6 34 6 62q0 64 -34.5 95t-108.5 31q-178 0 -211 -187l-29 -165q-6 -34 -6 -62
q0 -64 34.5 -95t108.5 -31z" />
    <glyph glyph-name="Ocircumflex" unicode="&#xd4;" horiz-adv-x="654" 
d="M256 749l136 132h90l88 -132h-84l-56 69l-80 -69h-94zM284 -12q-227 0 -227 199q0 34 7 75l29 164q47 266 306 266q227 0 227 -199q0 -34 -7 -75l-29 -164q-47 -266 -306 -266zM290 70q178 0 211 187l29 165q6 34 6 62q0 64 -34.5 95t-108.5 31q-178 0 -211 -187
l-29 -165q-6 -34 -6 -62q0 -64 34.5 -95t108.5 -31z" />
    <glyph glyph-name="Otilde" unicode="&#xd5;" horiz-adv-x="654" 
d="M480 753q-34 0 -69 28q-24 19 -40 19q-30 0 -42 -45h-63q25 117 105 117q34 0 69 -28q24 -19 40 -19q30 0 42 45h63q-25 -117 -105 -117zM284 -12q-227 0 -227 199q0 34 7 75l29 164q47 266 306 266q227 0 227 -199q0 -34 -7 -75l-29 -164q-47 -266 -306 -266zM290 70
q178 0 211 187l29 165q6 34 6 62q0 64 -34.5 95t-108.5 31q-178 0 -211 -187l-29 -165q-6 -34 -6 -62q0 -64 34.5 -95t108.5 -31z" />
    <glyph glyph-name="Odieresis" unicode="&#xd6;" horiz-adv-x="654" 
d="M279 764l17 98h98l-17 -98h-98zM457 764l17 98h98l-17 -98h-98zM284 -12q-227 0 -227 199q0 34 7 75l29 164q47 266 306 266q227 0 227 -199q0 -34 -7 -75l-29 -164q-47 -266 -306 -266zM290 70q178 0 211 187l29 165q6 34 6 62q0 64 -34.5 95t-108.5 31
q-178 0 -211 -187l-29 -165q-6 -34 -6 -62q0 -64 34.5 -95t108.5 -31z" />
    <glyph glyph-name="multiply" unicode="&#xd7;" horiz-adv-x="602" 
d="M85 65l-52 60l219 187l-152 187l66 54l151 -186l218 186l52 -60l-219 -187l152 -187l-66 -54l-151 186z" />
    <glyph glyph-name="Oslash" unicode="&#xd8;" horiz-adv-x="654" 
d="M659 644l-50 -57q17 -40 17 -94q0 -34 -7 -75l-29 -164q-47 -266 -306 -266q-110 0 -166 46l-40 -46l-54 48l50 57q-17 40 -17 94q0 34 7 75l29 164q47 266 306 266q110 0 166 -46l40 46zM147 196q0 -14 1 -20l356 401q-36 33 -111 33q-178 0 -211 -187l-29 -165
q-6 -34 -6 -62zM536 484q0 14 -1 20l-356 -401q36 -33 111 -33q178 0 211 187l29 165q6 34 6 62z" />
    <glyph glyph-name="Ugrave" unicode="&#xd9;" horiz-adv-x="641" 
d="M394 749l-107 132h105l86 -132h-84zM280 -12q-114 0 -165.5 41.5t-51.5 126.5q0 32 7 71l80 453h90l-81 -459q-5 -27 -5 -50q0 -56 30.5 -78.5t99.5 -22.5q87 0 130.5 35.5t58.5 121.5l80 453h87l-81 -459q-22 -123 -87 -178t-192 -55z" />
    <glyph glyph-name="Uacute" unicode="&#xda;" horiz-adv-x="641" 
d="M334 749l134 132h115l-155 -132h-94zM280 -12q-114 0 -165.5 41.5t-51.5 126.5q0 32 7 71l80 453h90l-81 -459q-5 -27 -5 -50q0 -56 30.5 -78.5t99.5 -22.5q87 0 130.5 35.5t58.5 121.5l80 453h87l-81 -459q-22 -123 -87 -178t-192 -55z" />
    <glyph glyph-name="Ucircumflex" unicode="&#xdb;" horiz-adv-x="641" 
d="M250 749l136 132h90l88 -132h-84l-56 69l-80 -69h-94zM280 -12q-114 0 -165.5 41.5t-51.5 126.5q0 32 7 71l80 453h90l-81 -459q-5 -27 -5 -50q0 -56 30.5 -78.5t99.5 -22.5q87 0 130.5 35.5t58.5 121.5l80 453h87l-81 -459q-22 -123 -87 -178t-192 -55z" />
    <glyph glyph-name="Udieresis" unicode="&#xdc;" horiz-adv-x="641" 
d="M273 764l17 98h98l-17 -98h-98zM451 764l17 98h98l-17 -98h-98zM280 -12q-114 0 -165.5 41.5t-51.5 126.5q0 32 7 71l80 453h90l-81 -459q-5 -27 -5 -50q0 -56 30.5 -78.5t99.5 -22.5q87 0 130.5 35.5t58.5 121.5l80 453h87l-81 -459q-22 -123 -87 -178t-192 -55z" />
    <glyph glyph-name="Yacute" unicode="&#xdd;" horiz-adv-x="552" 
d="M289 749l134 132h115l-155 -132h-94zM185 0l51 291l-172 389h99l132 -297l235 297h106l-310 -392l-51 -288h-90z" />
    <glyph glyph-name="Thorn" unicode="&#xde;" horiz-adv-x="601" 
d="M47 0l120 680h90l-18 -103h162q107 0 152.5 -38.5t45.5 -129.5q0 -120 -68.5 -184.5t-196.5 -64.5h-169l-28 -160h-90zM180 242h157q84 0 128.5 41t44.5 116q0 54 -27 75t-97 21h-162z" />
    <glyph glyph-name="germandbls" unicode="&#xdf;" horiz-adv-x="592" 
d="M62 0l78 444h-94l12 72h95l9 50q31 176 221 176q167 0 167 -129q0 -86 -92 -162q-32 -27 -44.5 -44.5t-12.5 -35.5t12 -30t44 -28q53 -26 71.5 -51t18.5 -72q0 -89 -61.5 -139.5t-172.5 -50.5h-62l13 76h56q63 0 100.5 26t37.5 70q0 25 -13 40t-51 34q-46 23 -63 46
t-17 61q0 44 19.5 80t65.5 73q36 30 50 51.5t14 46.5q0 62 -82 62q-114 0 -132 -106l-99 -560h-88z" />
    <glyph glyph-name="agrave" unicode="&#xe0;" horiz-adv-x="540" 
d="M309 594l-107 132h105l86 -132h-84zM175 -12q-73 0 -113 34.5t-40 102.5q0 88 64 135t175 47h129l5 28q3 18 3 36q0 81 -97 81q-56 0 -92 -24t-46 -69h-86q40 169 231 169q179 0 179 -145q0 -25 -4 -49l-59 -334h-75l9 67q-76 -79 -183 -79zM191 64q108 0 174 102l12 68
h-121q-69 0 -107.5 -26.5t-38.5 -77.5q0 -66 81 -66z" />
    <glyph glyph-name="aacute" unicode="&#xe1;" horiz-adv-x="540" 
d="M249 594l134 132h115l-155 -132h-94zM175 -12q-73 0 -113 34.5t-40 102.5q0 88 64 135t175 47h129l5 28q3 18 3 36q0 81 -97 81q-56 0 -92 -24t-46 -69h-86q40 169 231 169q179 0 179 -145q0 -25 -4 -49l-59 -334h-75l9 67q-76 -79 -183 -79zM191 64q108 0 174 102l12 68
h-121q-69 0 -107.5 -26.5t-38.5 -77.5q0 -66 81 -66z" />
    <glyph glyph-name="acircumflex" unicode="&#xe2;" horiz-adv-x="540" 
d="M165 594l136 132h90l88 -132h-84l-56 69l-80 -69h-94zM175 -12q-73 0 -113 34.5t-40 102.5q0 88 64 135t175 47h129l5 28q3 18 3 36q0 81 -97 81q-56 0 -92 -24t-46 -69h-86q40 169 231 169q179 0 179 -145q0 -25 -4 -49l-59 -334h-75l9 67q-76 -79 -183 -79zM191 64
q108 0 174 102l12 68h-121q-69 0 -107.5 -26.5t-38.5 -77.5q0 -66 81 -66z" />
    <glyph glyph-name="atilde" unicode="&#xe3;" horiz-adv-x="540" 
d="M389 598q-34 0 -69 28q-24 19 -40 19q-30 0 -42 -45h-63q25 117 105 117q34 0 69 -28q24 -19 40 -19q30 0 42 45h63q-25 -117 -105 -117zM175 -12q-73 0 -113 34.5t-40 102.5q0 88 64 135t175 47h129l5 28q3 18 3 36q0 81 -97 81q-56 0 -92 -24t-46 -69h-86
q40 169 231 169q179 0 179 -145q0 -25 -4 -49l-59 -334h-75l9 67q-76 -79 -183 -79zM191 64q108 0 174 102l12 68h-121q-69 0 -107.5 -26.5t-38.5 -77.5q0 -66 81 -66z" />
    <glyph glyph-name="adieresis" unicode="&#xe4;" horiz-adv-x="540" 
d="M188 609l17 98h98l-17 -98h-98zM366 609l17 98h98l-17 -98h-98zM175 -12q-73 0 -113 34.5t-40 102.5q0 88 64 135t175 47h129l5 28q3 18 3 36q0 81 -97 81q-56 0 -92 -24t-46 -69h-86q40 169 231 169q179 0 179 -145q0 -25 -4 -49l-59 -334h-75l9 67q-76 -79 -183 -79z
M191 64q108 0 174 102l12 68h-121q-69 0 -107.5 -26.5t-38.5 -77.5q0 -66 81 -66z" />
    <glyph glyph-name="aring" unicode="&#xe5;" horiz-adv-x="540" 
d="M330 577q-44 0 -71 26t-27 69q0 48 33.5 80.5t82.5 32.5q44 0 71 -26t27 -69q0 -48 -33.5 -80.5t-82.5 -32.5zM333 636q21 0 35.5 15.5t14.5 38.5q0 16 -10.5 26t-27.5 10q-21 0 -35.5 -15.5t-14.5 -38.5q0 -16 10.5 -26t27.5 -10zM175 -12q-73 0 -113 34.5t-40 102.5
q0 88 64 135t175 47h129l5 28q3 18 3 36q0 81 -97 81q-56 0 -92 -24t-46 -69h-86q40 169 231 169q179 0 179 -145q0 -25 -4 -49l-59 -334h-75l9 67q-76 -79 -183 -79zM191 64q108 0 174 102l12 68h-121q-69 0 -107.5 -26.5t-38.5 -77.5q0 -66 81 -66z" />
    <glyph glyph-name="ae" unicode="&#xe6;" horiz-adv-x="872" 
d="M176 -12q-154 0 -154 136q0 88 64 135t175 47h128l6 32q3 18 3 35q0 41 -23.5 60t-73.5 19q-118 0 -138 -93h-86q40 169 225 169q133 0 159 -89q57 89 185 89q90 0 137.5 -41t47.5 -122q0 -29 -5 -57l-13 -74h-348l-5 -29q-5 -28 -5 -44q0 -97 111 -97q59 0 95.5 24.5
t48.5 65.5h85q-40 -166 -234 -166q-143 0 -180 91q-85 -91 -205 -91zM478 307h263q5 32 5 50q0 95 -108 95q-133 0 -160 -145zM191 64q108 0 177 107q3 31 5 42l4 20h-122q-68 0 -106.5 -26.5t-38.5 -76.5q0 -66 81 -66z" />
    <glyph glyph-name="ccedilla" unicode="&#xe7;" horiz-adv-x="517" 
d="M492 337h-86q2 10 2 25q0 48 -24 68.5t-72 20.5q-132 0 -158 -144l-18 -102q-5 -28 -5 -46q0 -94 104 -94q115 0 144 114h85q-36 -178 -207 -190l-26 -47q82 -3 82 -63q0 -83 -126 -83q-61 0 -103 21l26 47q26 -17 61 -17q28 0 44 9.5t16 26.5q0 10 -10 13t-40 3h-30
l50 90q-158 14 -158 163q0 26 6 59l18 102q38 215 246 215q88 0 135 -39.5t47 -113.5q0 -19 -3 -38z" />
    <glyph glyph-name="egrave" unicode="&#xe8;" horiz-adv-x="548" 
d="M318 594l-107 132h105l86 -132h-84zM238 -12q-194 0 -194 168q0 26 5 55l18 102q19 106 83 160.5t168 54.5q91 0 140 -42t49 -125q0 -25 -5 -53l-13 -74h-348l-5 -29q-5 -28 -5 -44q0 -97 110 -97q60 0 96.5 24.5t48.5 65.5h85q-39 -166 -233 -166zM154 307h263
q5 32 5 50q0 95 -108 95q-133 0 -160 -145z" />
    <glyph glyph-name="eacute" unicode="&#xe9;" horiz-adv-x="548" 
d="M258 594l134 132h115l-155 -132h-94zM238 -12q-194 0 -194 168q0 26 5 55l18 102q19 106 83 160.5t168 54.5q91 0 140 -42t49 -125q0 -25 -5 -53l-13 -74h-348l-5 -29q-5 -28 -5 -44q0 -97 110 -97q60 0 96.5 24.5t48.5 65.5h85q-39 -166 -233 -166zM154 307h263
q5 32 5 50q0 95 -108 95q-133 0 -160 -145z" />
    <glyph glyph-name="ecircumflex" unicode="&#xea;" horiz-adv-x="548" 
d="M174 594l136 132h90l88 -132h-84l-56 69l-80 -69h-94zM238 -12q-194 0 -194 168q0 26 5 55l18 102q19 106 83 160.5t168 54.5q91 0 140 -42t49 -125q0 -25 -5 -53l-13 -74h-348l-5 -29q-5 -28 -5 -44q0 -97 110 -97q60 0 96.5 24.5t48.5 65.5h85q-39 -166 -233 -166z
M154 307h263q5 32 5 50q0 95 -108 95q-133 0 -160 -145z" />
    <glyph glyph-name="edieresis" unicode="&#xeb;" horiz-adv-x="548" 
d="M197 609l17 98h98l-17 -98h-98zM375 609l17 98h98l-17 -98h-98zM238 -12q-194 0 -194 168q0 26 5 55l18 102q19 106 83 160.5t168 54.5q91 0 140 -42t49 -125q0 -25 -5 -53l-13 -74h-348l-5 -29q-5 -28 -5 -44q0 -97 110 -97q60 0 96.5 24.5t48.5 65.5h85
q-39 -166 -233 -166zM154 307h263q5 32 5 50q0 95 -108 95q-133 0 -160 -145z" />
    <glyph glyph-name="igrave" unicode="&#xec;" horiz-adv-x="255" 
d="M172 594l-107 132h105l86 -132h-84zM38 0l91 516h88l-91 -516h-88z" />
    <glyph glyph-name="iacute" unicode="&#xed;" horiz-adv-x="255" 
d="M112 594l134 132h115l-155 -132h-94zM38 0l91 516h88l-91 -516h-88z" />
    <glyph glyph-name="icircumflex" unicode="&#xee;" horiz-adv-x="255" 
d="M34 594l131 132h88l83 -132h-82l-52 68l-76 -68h-92zM38 0l91 516h88l-91 -516h-88z" />
    <glyph glyph-name="idieresis" unicode="&#xef;" horiz-adv-x="255" 
d="M65 609l17 98h98l-17 -98h-98zM215 609l17 98h98l-17 -98h-98zM38 0l91 516h88l-91 -516h-88z" />
    <glyph glyph-name="eth" unicode="&#xf0;" horiz-adv-x="555" 
d="M235 -12q-194 0 -194 168q0 26 6 61l10 57q38 215 222 215q100 0 147 -72q-14 86 -68 164l-150 -55l-23 63l129 47q-46 50 -113 94h120q40 -30 73 -64l102 37l23 -63l-81 -30q74 -109 74 -244q0 -40 -7 -79l-13 -74q-40 -225 -257 -225zM239 65q139 0 167 157l13 73
q-17 117 -127 117q-123 0 -149 -150l-8 -45q-5 -30 -5 -54q0 -98 109 -98z" />
    <glyph glyph-name="ntilde" unicode="&#xf1;" horiz-adv-x="570" 
d="M412 598q-34 0 -69 28q-24 19 -40 19q-30 0 -42 -45h-63q25 117 105 117q34 0 69 -28q24 -19 40 -19q30 0 42 45h63q-25 -117 -105 -117zM38 0l91 516h75l-11 -77q79 89 182 89q139 0 139 -135q0 -32 -5 -59l-59 -334h-88l58 329q4 23 4 47q0 71 -71 71q-93 0 -168 -114
l-59 -333h-88z" />
    <glyph glyph-name="ograve" unicode="&#xf2;" horiz-adv-x="560" 
d="M325 594l-107 132h105l86 -132h-84zM238 -12q-194 0 -194 171q0 23 6 58l15 85q40 226 257 226q194 0 194 -171q0 -23 -6 -58l-15 -85q-40 -226 -257 -226zM243 65q138 0 165 155l14 80q5 28 5 49q0 102 -110 102q-138 0 -165 -155l-14 -80q-5 -28 -5 -49
q0 -102 110 -102z" />
    <glyph glyph-name="oacute" unicode="&#xf3;" horiz-adv-x="560" 
d="M265 594l134 132h115l-155 -132h-94zM238 -12q-194 0 -194 171q0 23 6 58l15 85q40 226 257 226q194 0 194 -171q0 -23 -6 -58l-15 -85q-40 -226 -257 -226zM243 65q138 0 165 155l14 80q5 28 5 49q0 102 -110 102q-138 0 -165 -155l-14 -80q-5 -28 -5 -49
q0 -102 110 -102z" />
    <glyph glyph-name="ocircumflex" unicode="&#xf4;" horiz-adv-x="560" 
d="M181 594l136 132h90l88 -132h-84l-56 69l-80 -69h-94zM238 -12q-194 0 -194 171q0 23 6 58l15 85q40 226 257 226q194 0 194 -171q0 -23 -6 -58l-15 -85q-40 -226 -257 -226zM243 65q138 0 165 155l14 80q5 28 5 49q0 102 -110 102q-138 0 -165 -155l-14 -80
q-5 -28 -5 -49q0 -102 110 -102z" />
    <glyph glyph-name="otilde" unicode="&#xf5;" horiz-adv-x="560" 
d="M405 598q-34 0 -69 28q-24 19 -40 19q-30 0 -42 -45h-63q25 117 105 117q34 0 69 -28q24 -19 40 -19q30 0 42 45h63q-25 -117 -105 -117zM238 -12q-194 0 -194 171q0 23 6 58l15 85q40 226 257 226q194 0 194 -171q0 -23 -6 -58l-15 -85q-40 -226 -257 -226zM243 65
q138 0 165 155l14 80q5 28 5 49q0 102 -110 102q-138 0 -165 -155l-14 -80q-5 -28 -5 -49q0 -102 110 -102z" />
    <glyph glyph-name="odieresis" unicode="&#xf6;" horiz-adv-x="560" 
d="M204 609l17 98h98l-17 -98h-98zM382 609l17 98h98l-17 -98h-98zM238 -12q-194 0 -194 171q0 23 6 58l15 85q40 226 257 226q194 0 194 -171q0 -23 -6 -58l-15 -85q-40 -226 -257 -226zM243 65q138 0 165 155l14 80q5 28 5 49q0 102 -110 102q-138 0 -165 -155l-14 -80
q-5 -28 -5 -49q0 -102 110 -102z" />
    <glyph glyph-name="divide" unicode="&#xf7;" horiz-adv-x="602" 
d="M288 467l18 100h100l-18 -100h-100zM58 271l14 76h490l-14 -76h-490zM215 51l18 100h100l-18 -100h-100z" />
    <glyph glyph-name="oslash" unicode="&#xf8;" horiz-adv-x="560" 
d="M542 481l-41 -43q15 -34 15 -81q0 -23 -6 -58l-15 -85q-40 -226 -257 -226q-88 0 -136 36l-35 -36l-49 47l41 43q-15 34 -15 81q0 23 6 58l15 85q40 226 257 226q88 0 136 -36l35 36zM133 167v-12l264 273q-29 23 -80 23q-138 0 -165 -155l-14 -80q-5 -28 -5 -49z
M427 349v12l-264 -273q29 -23 80 -23q138 0 165 155l14 80q5 28 5 49z" />
    <glyph glyph-name="ugrave" unicode="&#xf9;" horiz-adv-x="574" 
d="M328 594l-107 132h105l86 -132h-84zM196 -12q-140 0 -140 138q0 28 5 56l59 334h88l-59 -334q-3 -17 -3 -41q0 -38 17.5 -55t54.5 -17q95 0 171 114l59 333h88l-91 -516h-75l11 77q-80 -89 -185 -89z" />
    <glyph glyph-name="uacute" unicode="&#xfa;" horiz-adv-x="574" 
d="M268 594l134 132h115l-155 -132h-94zM196 -12q-140 0 -140 138q0 28 5 56l59 334h88l-59 -334q-3 -17 -3 -41q0 -38 17.5 -55t54.5 -17q95 0 171 114l59 333h88l-91 -516h-75l11 77q-80 -89 -185 -89z" />
    <glyph glyph-name="ucircumflex" unicode="&#xfb;" horiz-adv-x="574" 
d="M184 594l136 132h90l88 -132h-84l-56 69l-80 -69h-94zM196 -12q-140 0 -140 138q0 28 5 56l59 334h88l-59 -334q-3 -17 -3 -41q0 -38 17.5 -55t54.5 -17q95 0 171 114l59 333h88l-91 -516h-75l11 77q-80 -89 -185 -89z" />
    <glyph glyph-name="udieresis" unicode="&#xfc;" horiz-adv-x="574" 
d="M207 609l17 98h98l-17 -98h-98zM385 609l17 98h98l-17 -98h-98zM196 -12q-140 0 -140 138q0 28 5 56l59 334h88l-59 -334q-3 -17 -3 -41q0 -38 17.5 -55t54.5 -17q95 0 171 114l59 333h88l-91 -516h-75l11 77q-80 -89 -185 -89z" />
    <glyph glyph-name="yacute" unicode="&#xfd;" horiz-adv-x="472" 
d="M221 594l134 132h115l-155 -132h-94zM-21 -182l14 76h42q30 0 47.5 12t34.5 44l38 74l-99 492h91l70 -381l195 381h94l-305 -581q-36 -68 -71.5 -92.5t-95.5 -24.5h-55z" />
    <glyph glyph-name="thorn" unicode="&#xfe;" horiz-adv-x="582" 
d="M5 -182l162 912h88l-49 -278q72 76 172 76q79 0 120.5 -41t41.5 -117q0 -28 -6 -60l-19 -109q-18 -103 -74.5 -158t-147.5 -55q-107 0 -155 85l-45 -255h-88zM287 65q56 0 92.5 38t48.5 106l18 102q5 27 5 46q0 45 -23 69.5t-67 24.5q-100 0 -177 -120l-27 -152
q33 -114 130 -114z" />
    <glyph glyph-name="ydieresis" unicode="&#xff;" horiz-adv-x="472" 
d="M160 609l17 98h98l-17 -98h-98zM338 609l17 98h98l-17 -98h-98zM-21 -182l14 76h42q30 0 47.5 12t34.5 44l38 74l-99 492h91l70 -381l195 381h94l-305 -581q-36 -68 -71.5 -92.5t-95.5 -24.5h-55z" />
    <glyph glyph-name="Amacron" unicode="&#x100;" horiz-adv-x="605" 
d="M269 780l12 70h254l-12 -70h-254zM-36 0l367 680h91l129 -680h-93l-32 174h-273l-93 -174h-96zM196 256h216l-54 309z" />
    <glyph glyph-name="amacron" unicode="&#x101;" horiz-adv-x="540" 
d="M202 625l12 70h254l-12 -70h-254zM175 -12q-73 0 -113 34.5t-40 102.5q0 88 64 135t175 47h129l5 28q3 18 3 36q0 81 -97 81q-56 0 -92 -24t-46 -69h-86q40 169 231 169q179 0 179 -145q0 -25 -4 -49l-59 -334h-75l9 67q-76 -79 -183 -79zM191 64q108 0 174 102l12 68
h-121q-69 0 -107.5 -26.5t-38.5 -77.5q0 -66 81 -66z" />
    <glyph glyph-name="Abreve" unicode="&#x102;" horiz-adv-x="605" 
d="M395 746q-59 0 -90.5 30t-31.5 81q0 14 1 21h67v-14q0 -49 57 -49q70 0 85 63h69q-13 -63 -53.5 -97.5t-103.5 -34.5zM-36 0l367 680h91l129 -680h-93l-32 174h-273l-93 -174h-96zM196 256h216l-54 309z" />
    <glyph glyph-name="abreve" unicode="&#x103;" horiz-adv-x="540" 
d="M328 591q-59 0 -90.5 30t-31.5 81q0 14 1 21h67v-14q0 -49 57 -49q70 0 85 63h69q-13 -63 -53.5 -97.5t-103.5 -34.5zM175 -12q-73 0 -113 34.5t-40 102.5q0 88 64 135t175 47h129l5 28q3 18 3 36q0 81 -97 81q-56 0 -92 -24t-46 -69h-86q40 169 231 169q179 0 179 -145
q0 -25 -4 -49l-59 -334h-75l9 67q-76 -79 -183 -79zM191 64q108 0 174 102l12 68h-121q-69 0 -107.5 -26.5t-38.5 -77.5q0 -66 81 -66z" />
    <glyph glyph-name="Aogonek" unicode="&#x104;" horiz-adv-x="605" 
d="M434 -106q0 -28 37 -28q25 0 60 16l-13 -71q-25 -13 -66 -13q-48 0 -74 19.5t-26 56.5q0 72 104 137l-30 163h-273l-93 -174h-96l367 680h91l129 -680h-18q-99 -54 -99 -106zM196 256h216l-54 309z" />
    <glyph glyph-name="aogonek" unicode="&#x105;" horiz-adv-x="540" 
d="M308 528q179 0 179 -145q0 -25 -4 -49l-59 -334h-19q-99 -54 -99 -106q0 -28 37 -28q25 0 60 16l-13 -71q-25 -13 -66 -13q-48 0 -74 19.5t-26 56.5q0 81 128 151l6 42q-76 -79 -183 -79q-73 0 -113 34.5t-40 102.5q0 88 64 135t175 47h129l5 28q3 18 3 36q0 81 -97 81
q-56 0 -92 -24t-46 -69h-86q40 169 231 169zM191 64q108 0 174 102l12 68h-121q-69 0 -107.5 -26.5t-38.5 -77.5q0 -66 81 -66z" />
    <glyph glyph-name="Cacute" unicode="&#x106;" horiz-adv-x="614" 
d="M330 749l134 132h115l-155 -132h-94zM276 -12q-220 0 -220 195q0 34 8 79l29 164q24 133 96 199.5t199 66.5q216 0 216 -182q0 -30 -4 -54h-88q3 20 3 38q0 60 -32.5 88t-100.5 28q-87 0 -135.5 -47t-65.5 -146l-28 -159q-6 -34 -6 -65q0 -64 32.5 -93.5t100.5 -29.5
q156 0 190 153h89q-50 -235 -283 -235z" />
    <glyph glyph-name="cacute" unicode="&#x107;" horiz-adv-x="517" 
d="M254 594l134 132h115l-155 -132h-94zM230 -12q-91 0 -139 41.5t-48 122.5q0 26 6 59l18 102q38 215 246 215q88 0 135 -39.5t47 -113.5q0 -19 -3 -38h-86q2 10 2 25q0 48 -24 68.5t-72 20.5q-132 0 -158 -144l-18 -102q-5 -28 -5 -46q0 -94 104 -94q115 0 144 114h85
q-38 -191 -234 -191z" />
    <glyph glyph-name="Ccircumflex" unicode="&#x108;" horiz-adv-x="614" 
d="M246 749l136 132h90l88 -132h-84l-56 69l-80 -69h-94zM276 -12q-220 0 -220 195q0 34 8 79l29 164q24 133 96 199.5t199 66.5q216 0 216 -182q0 -30 -4 -54h-88q3 20 3 38q0 60 -32.5 88t-100.5 28q-87 0 -135.5 -47t-65.5 -146l-28 -159q-6 -34 -6 -65q0 -64 32.5 -93.5
t100.5 -29.5q156 0 190 153h89q-50 -235 -283 -235z" />
    <glyph glyph-name="ccircumflex" unicode="&#x109;" horiz-adv-x="517" 
d="M170 594l136 132h90l88 -132h-84l-56 69l-80 -69h-94zM230 -12q-91 0 -139 41.5t-48 122.5q0 26 6 59l18 102q38 215 246 215q88 0 135 -39.5t47 -113.5q0 -19 -3 -38h-86q2 10 2 25q0 48 -24 68.5t-72 20.5q-132 0 -158 -144l-18 -102q-5 -28 -5 -46q0 -94 104 -94
q115 0 144 114h85q-38 -191 -234 -191z" />
    <glyph glyph-name="Cdotaccent" unicode="&#x10a;" horiz-adv-x="614" 
d="M358 764l17 98h98l-17 -98h-98zM276 -12q-220 0 -220 195q0 34 8 79l29 164q24 133 96 199.5t199 66.5q216 0 216 -182q0 -30 -4 -54h-88q3 20 3 38q0 60 -32.5 88t-100.5 28q-87 0 -135.5 -47t-65.5 -146l-28 -159q-6 -34 -6 -65q0 -64 32.5 -93.5t100.5 -29.5
q156 0 190 153h89q-50 -235 -283 -235z" />
    <glyph glyph-name="cdotaccent" unicode="&#x10b;" horiz-adv-x="517" 
d="M282 609l17 98h98l-17 -98h-98zM230 -12q-91 0 -139 41.5t-48 122.5q0 26 6 59l18 102q38 215 246 215q88 0 135 -39.5t47 -113.5q0 -19 -3 -38h-86q2 10 2 25q0 48 -24 68.5t-72 20.5q-132 0 -158 -144l-18 -102q-5 -28 -5 -46q0 -94 104 -94q115 0 144 114h85
q-38 -191 -234 -191z" />
    <glyph glyph-name="Ccaron" unicode="&#x10c;" horiz-adv-x="614" 
d="M360 749l-88 132h84l56 -69l80 69h94l-136 -132h-90zM276 -12q-220 0 -220 195q0 34 8 79l29 164q24 133 96 199.5t199 66.5q216 0 216 -182q0 -30 -4 -54h-88q3 20 3 38q0 60 -32.5 88t-100.5 28q-87 0 -135.5 -47t-65.5 -146l-28 -159q-6 -34 -6 -65q0 -64 32.5 -93.5
t100.5 -29.5q156 0 190 153h89q-50 -235 -283 -235z" />
    <glyph glyph-name="ccaron" unicode="&#x10d;" horiz-adv-x="517" 
d="M284 594l-88 132h84l56 -69l80 69h94l-136 -132h-90zM230 -12q-91 0 -139 41.5t-48 122.5q0 26 6 59l18 102q38 215 246 215q88 0 135 -39.5t47 -113.5q0 -19 -3 -38h-86q2 10 2 25q0 48 -24 68.5t-72 20.5q-132 0 -158 -144l-18 -102q-5 -28 -5 -46q0 -94 104 -94
q115 0 144 114h85q-38 -191 -234 -191z" />
    <glyph glyph-name="Dcaron" unicode="&#x10e;" horiz-adv-x="647" 
d="M357 749l-88 132h84l56 -69l80 69h94l-136 -132h-90zM47 0l120 680h230q223 0 223 -186q0 -35 -8 -81l-27 -153q-24 -137 -94.5 -198.5t-204.5 -61.5h-239zM151 82h133q95 0 145 44t67 138l27 153q6 34 6 62q0 63 -35.5 91t-114.5 28h-136z" />
    <glyph glyph-name="dcaron" unicode="&#x10f;" horiz-adv-x="583" 
d="M204 -12q-79 0 -120.5 41t-41.5 117q0 28 6 60l19 109q18 103 74.5 158t147.5 55q107 0 155 -85l50 287h88l-128 -730h-75l11 79q-78 -91 -186 -91zM585 523l77 207h98l-107 -207h-68zM221 65q100 0 178 122l26 149q-33 115 -130 115q-56 0 -92.5 -38t-48.5 -106
l-18 -102q-5 -27 -5 -46q0 -45 23 -69.5t67 -24.5z" />
    <glyph glyph-name="Dcroat" unicode="&#x110;" horiz-adv-x="657" 
d="M407 680q223 0 223 -186q0 -35 -8 -81l-27 -153q-24 -137 -94.5 -198.5t-204.5 -61.5h-239l54 307h-75l14 82h76l51 291h230zM533 417q6 34 6 62q0 63 -35.5 91t-114.5 28h-136l-37 -209h154l-14 -82h-155l-40 -225h133q95 0 145 44t67 138z" />
    <glyph glyph-name="dcroat" unicode="&#x111;" horiz-adv-x="590" 
d="M651 651l-12 -71h-83l-102 -580h-75l11 79q-78 -91 -186 -91q-79 0 -120.5 41t-41.5 117q0 28 6 60l19 109q18 103 74.5 158t147.5 55q107 0 155 -85l24 137h-134l12 71h134l14 79h88l-14 -79h83zM399 187l26 149q-33 115 -130 115q-56 0 -92.5 -38t-48.5 -106l-18 -102
q-5 -27 -5 -46q0 -45 23 -69.5t67 -24.5q100 0 178 122z" />
    <glyph glyph-name="Emacron" unicode="&#x112;" horiz-adv-x="583" 
d="M280 780l12 70h254l-12 -70h-254zM47 0l120 680h444l-14 -82h-354l-37 -209h304l-14 -82h-305l-40 -225h365l-14 -82h-455z" />
    <glyph glyph-name="emacron" unicode="&#x113;" horiz-adv-x="548" 
d="M211 625l12 70h254l-12 -70h-254zM238 -12q-194 0 -194 168q0 26 5 55l18 102q19 106 83 160.5t168 54.5q91 0 140 -42t49 -125q0 -25 -5 -53l-13 -74h-348l-5 -29q-5 -28 -5 -44q0 -97 110 -97q60 0 96.5 24.5t48.5 65.5h85q-39 -166 -233 -166zM154 307h263q5 32 5 50
q0 95 -108 95q-133 0 -160 -145z" />
    <glyph glyph-name="Ebreve" unicode="&#x114;" horiz-adv-x="583" 
d="M406 746q-59 0 -90.5 30t-31.5 81q0 14 1 21h67v-14q0 -49 57 -49q70 0 85 63h69q-13 -63 -53.5 -97.5t-103.5 -34.5zM47 0l120 680h444l-14 -82h-354l-37 -209h304l-14 -82h-305l-40 -225h365l-14 -82h-455z" />
    <glyph glyph-name="ebreve" unicode="&#x115;" horiz-adv-x="548" 
d="M337 591q-59 0 -90.5 30t-31.5 81q0 14 1 21h67v-14q0 -49 57 -49q70 0 85 63h69q-13 -63 -53.5 -97.5t-103.5 -34.5zM238 -12q-194 0 -194 168q0 26 5 55l18 102q19 106 83 160.5t168 54.5q91 0 140 -42t49 -125q0 -25 -5 -53l-13 -74h-348l-5 -29q-5 -28 -5 -44
q0 -97 110 -97q60 0 96.5 24.5t48.5 65.5h85q-39 -166 -233 -166zM154 307h263q5 32 5 50q0 95 -108 95q-133 0 -160 -145z" />
    <glyph glyph-name="Edotaccent" unicode="&#x116;" horiz-adv-x="583" 
d="M355 764l17 98h98l-17 -98h-98zM47 0l120 680h444l-14 -82h-354l-37 -209h304l-14 -82h-305l-40 -225h365l-14 -82h-455z" />
    <glyph glyph-name="edotaccent" unicode="&#x117;" horiz-adv-x="548" 
d="M286 609l17 98h98l-17 -98h-98zM238 -12q-194 0 -194 168q0 26 5 55l18 102q19 106 83 160.5t168 54.5q91 0 140 -42t49 -125q0 -25 -5 -53l-13 -74h-348l-5 -29q-5 -28 -5 -44q0 -97 110 -97q60 0 96.5 24.5t48.5 65.5h85q-39 -166 -233 -166zM154 307h263q5 32 5 50
q0 95 -108 95q-133 0 -160 -145z" />
    <glyph glyph-name="Eogonek" unicode="&#x118;" horiz-adv-x="583" 
d="M597 598h-354l-37 -209h304l-14 -82h-305l-40 -225h365l-14 -82h-19q-99 -54 -99 -106q0 -28 37 -28q25 0 60 16l-13 -71q-25 -13 -66 -13q-48 0 -74 19.5t-26 56.5q0 65 87 126h-342l120 680h444z" />
    <glyph glyph-name="eogonek" unicode="&#x119;" horiz-adv-x="548" 
d="M318 528q91 0 140 -42t49 -125q0 -25 -5 -53l-13 -74h-348l-5 -29q-5 -28 -5 -44q0 -97 110 -97q60 0 96.5 24.5t48.5 65.5h85q-22 -94 -95 -134q-84 -59 -84 -120q0 -34 38 -34q27 0 59 16l-13 -71q-22 -13 -65 -13q-101 0 -101 84q0 58 47 106h-19q-194 0 -194 168
q0 26 5 55l18 102q19 106 83 160.5t168 54.5zM417 307q5 32 5 50q0 95 -108 95q-133 0 -160 -145h263z" />
    <glyph glyph-name="Ecaron" unicode="&#x11a;" horiz-adv-x="583" 
d="M357 749l-88 132h84l56 -69l80 69h94l-136 -132h-90zM47 0l120 680h444l-14 -82h-354l-37 -209h304l-14 -82h-305l-40 -225h365l-14 -82h-455z" />
    <glyph glyph-name="ecaron" unicode="&#x11b;" horiz-adv-x="548" 
d="M288 594l-88 132h84l56 -69l80 69h94l-136 -132h-90zM238 -12q-194 0 -194 168q0 26 5 55l18 102q19 106 83 160.5t168 54.5q91 0 140 -42t49 -125q0 -25 -5 -53l-13 -74h-348l-5 -29q-5 -28 -5 -44q0 -97 110 -97q60 0 96.5 24.5t48.5 65.5h85q-39 -166 -233 -166z
M154 307h263q5 32 5 50q0 95 -108 95q-133 0 -160 -145z" />
    <glyph glyph-name="Gcircumflex" unicode="&#x11c;" horiz-adv-x="636" 
d="M247 749l136 132h90l88 -132h-84l-56 69l-80 -69h-94zM283 -12q-112 0 -170 51t-58 143q0 30 7 70l32 179q22 125 96.5 193t199.5 68q105 0 162 -47.5t57 -134.5q0 -19 -3 -40h-88q2 18 2 28q0 112 -135 112q-170 0 -203 -188l-30 -170q-6 -32 -6 -57q0 -64 34.5 -94.5
t107.5 -30.5q86 0 133.5 43.5t64.5 136.5l6 35h-144l14 83h233l-22 -124q-45 -256 -290 -256z" />
    <glyph glyph-name="gcircumflex" unicode="&#x11d;" horiz-adv-x="581" 
d="M181 594l136 132h90l88 -132h-84l-56 69l-80 -69h-94zM204 -194q-91 0 -139.5 34.5t-48.5 102.5q0 14 1 23h81v-12q0 -72 108 -72q70 0 109 31t51 98l14 81q-72 -75 -171 -75q-79 0 -120.5 41t-41.5 117q0 29 6 60l14 80q18 103 74.5 158t147.5 55q112 0 161 -96l18 84
h75l-90 -510q-35 -200 -249 -200zM226 94q99 0 175 118l23 128q-33 111 -129 111q-56 0 -92.5 -37.5t-48.5 -106.5l-13 -73q-5 -27 -5 -46q0 -45 23 -69.5t67 -24.5z" />
    <glyph glyph-name="Gbreve" unicode="&#x11e;" horiz-adv-x="636" 
d="M410 746q-59 0 -90.5 30t-31.5 81q0 14 1 21h67v-14q0 -49 57 -49q70 0 85 63h69q-13 -63 -53.5 -97.5t-103.5 -34.5zM283 -12q-112 0 -170 51t-58 143q0 30 7 70l32 179q22 125 96.5 193t199.5 68q105 0 162 -47.5t57 -134.5q0 -19 -3 -40h-88q2 18 2 28q0 112 -135 112
q-170 0 -203 -188l-30 -170q-6 -32 -6 -57q0 -64 34.5 -94.5t107.5 -30.5q86 0 133.5 43.5t64.5 136.5l6 35h-144l14 83h233l-22 -124q-45 -256 -290 -256z" />
    <glyph glyph-name="gbreve" unicode="&#x11f;" horiz-adv-x="581" 
d="M344 591q-59 0 -90.5 30t-31.5 81q0 14 1 21h67v-14q0 -49 57 -49q70 0 85 63h69q-13 -63 -53.5 -97.5t-103.5 -34.5zM204 -194q-91 0 -139.5 34.5t-48.5 102.5q0 14 1 23h81v-12q0 -72 108 -72q70 0 109 31t51 98l14 81q-72 -75 -171 -75q-79 0 -120.5 41t-41.5 117
q0 29 6 60l14 80q18 103 74.5 158t147.5 55q112 0 161 -96l18 84h75l-90 -510q-35 -200 -249 -200zM226 94q99 0 175 118l23 128q-33 111 -129 111q-56 0 -92.5 -37.5t-48.5 -106.5l-13 -73q-5 -27 -5 -46q0 -45 23 -69.5t67 -24.5z" />
    <glyph glyph-name="Gdotaccent" unicode="&#x120;" horiz-adv-x="636" 
d="M359 764l17 98h98l-17 -98h-98zM283 -12q-112 0 -170 51t-58 143q0 30 7 70l32 179q22 125 96.5 193t199.5 68q105 0 162 -47.5t57 -134.5q0 -19 -3 -40h-88q2 18 2 28q0 112 -135 112q-170 0 -203 -188l-30 -170q-6 -32 -6 -57q0 -64 34.5 -94.5t107.5 -30.5
q86 0 133.5 43.5t64.5 136.5l6 35h-144l14 83h233l-22 -124q-45 -256 -290 -256z" />
    <glyph glyph-name="gdotaccent" unicode="&#x121;" horiz-adv-x="581" 
d="M293 609l17 98h98l-17 -98h-98zM204 -194q-91 0 -139.5 34.5t-48.5 102.5q0 14 1 23h81v-12q0 -72 108 -72q70 0 109 31t51 98l14 81q-72 -75 -171 -75q-79 0 -120.5 41t-41.5 117q0 29 6 60l14 80q18 103 74.5 158t147.5 55q112 0 161 -96l18 84h75l-90 -510
q-35 -200 -249 -200zM226 94q99 0 175 118l23 128q-33 111 -129 111q-56 0 -92.5 -37.5t-48.5 -106.5l-13 -73q-5 -27 -5 -46q0 -45 23 -69.5t67 -24.5z" />
    <glyph glyph-name="Gcommaaccent" unicode="&#x122;" horiz-adv-x="636" 
d="M283 -12q-112 0 -170 51t-58 143q0 30 7 70l32 179q22 125 96.5 193t199.5 68q105 0 162 -47.5t57 -134.5q0 -19 -3 -40h-88q2 18 2 28q0 112 -135 112q-170 0 -203 -188l-30 -170q-6 -32 -6 -57q0 -64 34.5 -94.5t107.5 -30.5q86 0 133.5 43.5t64.5 136.5l6 35h-144
l14 83h233l-22 -124q-45 -256 -290 -256zM184 -238l7 42q46 0 54 44h-42l14 78h98l-11 -62q-10 -57 -32.5 -79.5t-87.5 -22.5z" />
    <glyph glyph-name="gcommaaccent" unicode="&#x123;" horiz-adv-x="581" 
d="M421 754l-7 -42q-46 0 -54 -44h42l-14 -78h-98l11 62q10 57 32.5 79.5t87.5 22.5zM204 -194q-91 0 -139.5 34.5t-48.5 102.5q0 14 1 23h81v-12q0 -72 108 -72q70 0 109 31t51 98l14 81q-72 -75 -171 -75q-79 0 -120.5 41t-41.5 117q0 29 6 60l14 80q18 103 74.5 158
t147.5 55q112 0 161 -96l18 84h75l-90 -510q-35 -200 -249 -200zM226 94q99 0 175 118l23 128q-33 111 -129 111q-56 0 -92.5 -37.5t-48.5 -106.5l-13 -73q-5 -27 -5 -46q0 -45 23 -69.5t67 -24.5z" />
    <glyph glyph-name="Hcircumflex" unicode="&#x124;" horiz-adv-x="693" 
d="M275 749l136 132h90l88 -132h-84l-56 69l-80 -69h-94zM47 0l120 680h90l-51 -290h328l51 290h90l-120 -680h-90l54 306h-328l-54 -306h-90z" />
    <glyph glyph-name="hcircumflex" unicode="&#x125;" horiz-adv-x="570" 
d="M65 799l136 132h90l88 -132h-84l-56 69l-80 -69h-94zM38 0l129 730h88l-49 -277q74 75 169 75q139 0 139 -135q0 -32 -5 -59l-59 -334h-88l58 329q4 23 4 47q0 71 -71 71q-93 0 -168 -114l-59 -333h-88z" />
    <glyph glyph-name="Hbar" unicode="&#x126;" horiz-adv-x="713" 
d="M740 563l-13 -75h-76l-86 -488h-90l54 306h-328l-54 -306h-90l86 488h-75l13 75h75l21 117h90l-21 -117h328l21 117h90l-21 -117h76zM544 390l17 98h-328l-17 -98h328z" />
    <glyph glyph-name="hbar" unicode="&#x127;" horiz-adv-x="578" 
d="M383 528q139 0 139 -135q0 -32 -5 -59l-59 -334h-88l58 329q4 23 4 47q0 71 -71 71q-93 0 -168 -114l-59 -333h-88l102 580h-83l12 71h84l14 79h88l-14 -79h133l-12 -71h-134l-22 -127q74 75 169 75z" />
    <glyph glyph-name="Itilde" unicode="&#x128;" horiz-adv-x="275" 
d="M286 753q-30 0 -64 28q-23 19 -38 19q-30 0 -41 -45h-61q25 117 102 117q30 0 64 -28q23 -19 38 -19q30 0 41 45h61q-25 -117 -102 -117zM47 0l120 680h90l-120 -680h-90z" />
    <glyph glyph-name="itilde" unicode="&#x129;" horiz-adv-x="255" 
d="M248 598q-30 0 -64 28q-23 19 -38 19q-30 0 -41 -45h-61q25 117 102 117q30 0 64 -28q23 -19 38 -19q30 0 41 45h61q-25 -117 -102 -117zM38 0l91 516h88l-91 -516h-88z" />
    <glyph glyph-name="Imacron" unicode="&#x12a;" horiz-adv-x="275" 
d="M115 780l12 70h231l-12 -70h-231zM47 0l120 680h90l-120 -680h-90z" />
    <glyph glyph-name="imacron" unicode="&#x12b;" horiz-adv-x="255" 
d="M77 625l12 70h231l-12 -70h-231zM38 0l91 516h88l-91 -516h-88z" />
    <glyph glyph-name="Ibreve" unicode="&#x12c;" horiz-adv-x="275" 
d="M229 746q-56 0 -86 30t-30 81q0 14 1 21h66v-15q0 -48 52 -48q65 0 80 63h68q-12 -63 -51.5 -97.5t-99.5 -34.5zM47 0l120 680h90l-120 -680h-90z" />
    <glyph glyph-name="ibreve" unicode="&#x12d;" horiz-adv-x="255" 
d="M191 591q-56 0 -86 30t-30 81q0 14 1 21h66v-15q0 -48 52 -48q65 0 80 63h68q-12 -63 -51.5 -97.5t-99.5 -34.5zM38 0l91 516h88l-91 -516h-88z" />
    <glyph glyph-name="Iogonek" unicode="&#x12e;" horiz-adv-x="275" 
d="M46 -103q0 -31 38 -31q25 0 60 16l-13 -71q-31 -13 -67 -13q-47 0 -73 20t-26 57q0 66 86 125h-4l120 680h90l-120 -680h-5q-86 -52 -86 -103z" />
    <glyph glyph-name="iogonek" unicode="&#x12f;" horiz-adv-x="255" 
d="M158 707h96l-17 -98h-96zM121 0q-86 -52 -86 -103q0 -31 38 -31q25 0 60 16l-13 -71q-31 -13 -67 -13q-47 0 -73 20t-26 57q0 66 86 125h-2l91 516h88l-91 -516h-5z" />
    <glyph glyph-name="Idotaccent" unicode="&#x130;" horiz-adv-x="275" 
d="M178 764l17 98h98l-17 -98h-98zM47 0l120 680h90l-120 -680h-90z" />
    <glyph glyph-name="dotlessi" unicode="&#x131;" horiz-adv-x="255" 
d="M38 0l91 516h88l-91 -516h-88z" />
    <glyph glyph-name="IJ" unicode="&#x132;" horiz-adv-x="824" 
d="M47 0l120 680h90l-120 -680h-90zM475 -12q-101 0 -148 40.5t-47 130.5q0 28 6 63l2 11h87l-3 -17q-5 -28 -5 -51q0 -50 26.5 -72.5t86.5 -22.5q78 0 118.5 38t55.5 124l79 448h90l-81 -459q-22 -123 -85 -178t-182 -55z" />
    <glyph glyph-name="ij" unicode="&#x133;" horiz-adv-x="510" 
d="M141 609l17 98h96l-17 -98h-96zM396 609l17 98h96l-17 -98h-96zM38 0l91 516h88l-91 -516h-88zM175 -182l14 76h23q36 0 51.5 14.5t22.5 52.5l98 555h88l-98 -555q-14 -77 -49 -110t-102 -33h-48z" />
    <glyph glyph-name="Jcircumflex" unicode="&#x134;" horiz-adv-x="549" 
d="M364 749l131 132h88l83 -132h-82l-52 68l-76 -68h-92zM200 -12q-101 0 -148 40.5t-47 130.5q0 28 6 63l2 11h87l-3 -17q-5 -28 -5 -51q0 -50 26.5 -72.5t86.5 -22.5q78 0 118.5 38t55.5 124l79 448h90l-81 -459q-22 -123 -85 -178t-182 -55z" />
    <glyph glyph-name="jcircumflex" unicode="&#x135;" horiz-adv-x="255" 
d="M34 594l131 132h88l83 -132h-82l-52 68l-76 -68h-92zM-80 -182l14 76h23q36 0 51.5 14.5t22.5 52.5l98 555h88l-98 -555q-14 -77 -49 -110t-102 -33h-48z" />
    <glyph glyph-name="Kcommaaccent" unicode="&#x136;" horiz-adv-x="617" 
d="M47 0l120 680h90l-63 -358l375 358h115l-292 -280l174 -400h-98l-146 335l-151 -140l-34 -195h-90zM197 -238l7 42q46 0 54 44h-42l14 78h98l-11 -62q-10 -57 -32.5 -79.5t-87.5 -22.5z" />
    <glyph glyph-name="kcommaaccent" unicode="&#x137;" horiz-adv-x="527" 
d="M38 0l129 730h88l-82 -465l278 251h114l-236 -211l148 -305h-98l-118 244l-109 -97l-26 -147h-88zM148 -238l7 42q46 0 54 44h-42l14 78h98l-11 -62q-10 -57 -32.5 -79.5t-87.5 -22.5z" />
    <glyph glyph-name="kgreenlandic" unicode="&#x138;" horiz-adv-x="527" 
d="M38 0l91 516h88l-44 -251l278 251h114l-236 -211l148 -305h-98l-118 244l-109 -97l-26 -147h-88z" />
    <glyph glyph-name="Lacute" unicode="&#x139;" horiz-adv-x="517" 
d="M150 749l134 132h115l-155 -132h-94zM47 0l120 680h90l-105 -597h327l-14 -83h-418z" />
    <glyph glyph-name="lacute" unicode="&#x13a;" horiz-adv-x="255" 
d="M149 799l134 132h115l-155 -132h-94zM38 0l129 730h88l-129 -730h-88z" />
    <glyph glyph-name="Lcommaaccent" unicode="&#x13b;" horiz-adv-x="517" 
d="M47 0l120 680h90l-105 -597h327l-14 -83h-418zM160 -238l7 42q46 0 54 44h-42l14 78h98l-11 -62q-10 -57 -32.5 -79.5t-87.5 -22.5z" />
    <glyph glyph-name="lcommaaccent" unicode="&#x13c;" horiz-adv-x="255" 
d="M38 0l129 730h88l-129 -730h-88zM-14 -238l7 42q46 0 54 44h-42l14 78h98l-11 -62q-10 -57 -32.5 -79.5t-87.5 -22.5z" />
    <glyph glyph-name="Lcaron" unicode="&#x13d;" horiz-adv-x="517" 
d="M47 0l120 680h90l-105 -597h327l-14 -83h-418zM279 473l77 207h98l-107 -207h-68z" />
    <glyph glyph-name="lcaron" unicode="&#x13e;" horiz-adv-x="256" 
d="M38 0l129 730h88l-129 -730h-88zM258 523l77 207h98l-107 -207h-68z" />
    <glyph glyph-name="Ldot" unicode="&#x13f;" horiz-adv-x="517" 
d="M47 0l120 680h90l-105 -597h327l-14 -83h-418zM355 314l18 100h101l-18 -100h-101z" />
    <glyph glyph-name="ldot" unicode="&#x140;" horiz-adv-x="278" 
d="M38 0l129 730h88l-129 -730h-88zM226 316l17 88h98l-17 -88h-98z" />
    <glyph glyph-name="Lslash" unicode="&#x141;" horiz-adv-x="527" 
d="M162 83h327l-14 -83h-418l35 199l-84 -52l16 93l85 52l68 388h90l-57 -325l226 139l-16 -93l-227 -140z" />
    <glyph glyph-name="lslash" unicode="&#x142;" horiz-adv-x="280" 
d="M318 512l-16 -91l-100 -63l-63 -358h-88l52 295l-101 -64l16 91l101 64l61 344h88l-50 -281z" />
    <glyph glyph-name="Nacute" unicode="&#x143;" horiz-adv-x="691" 
d="M358 749l134 132h115l-155 -132h-94zM47 0l120 680h101l225 -529l93 529h87l-119 -680h-87l-236 552l-97 -552h-87z" />
    <glyph glyph-name="nacute" unicode="&#x144;" horiz-adv-x="570" 
d="M272 594l134 132h115l-155 -132h-94zM38 0l91 516h75l-11 -77q79 89 182 89q139 0 139 -135q0 -32 -5 -59l-59 -334h-88l58 329q4 23 4 47q0 71 -71 71q-93 0 -168 -114l-59 -333h-88z" />
    <glyph glyph-name="Ncommaaccent" unicode="&#x145;" horiz-adv-x="691" 
d="M47 0l120 680h101l225 -529l93 529h87l-119 -680h-87l-236 552l-97 -552h-87zM204 -238l7 42q46 0 54 44h-42l14 78h98l-11 -62q-10 -57 -32.5 -79.5t-87.5 -22.5z" />
    <glyph glyph-name="ncommaaccent" unicode="&#x146;" horiz-adv-x="570" 
d="M38 0l91 516h75l-11 -77q79 89 182 89q139 0 139 -135q0 -32 -5 -59l-59 -334h-88l58 329q4 23 4 47q0 71 -71 71q-93 0 -168 -114l-59 -333h-88zM148 -238l7 42q46 0 54 44h-42l14 78h98l-11 -62q-10 -57 -32.5 -79.5t-87.5 -22.5z" />
    <glyph glyph-name="Ncaron" unicode="&#x147;" horiz-adv-x="691" 
d="M388 749l-88 132h84l56 -69l80 69h94l-136 -132h-90zM47 0l120 680h101l225 -529l93 529h87l-119 -680h-87l-236 552l-97 -552h-87z" />
    <glyph glyph-name="ncaron" unicode="&#x148;" horiz-adv-x="570" 
d="M302 594l-88 132h84l56 -69l80 69h94l-136 -132h-90zM38 0l91 516h75l-11 -77q79 89 182 89q139 0 139 -135q0 -32 -5 -59l-59 -334h-88l58 329q4 23 4 47q0 71 -71 71q-93 0 -168 -114l-59 -333h-88z" />
    <glyph glyph-name="napostrophe" unicode="&#x149;" horiz-adv-x="570" 
d="M129 559l7 42q42 0 52 41h-39l15 88h95l-12 -70q-9 -55 -32.5 -78t-85.5 -23zM38 0l91 516h75l-11 -77q79 89 182 89q139 0 139 -135q0 -32 -5 -59l-59 -334h-88l58 329q4 23 4 47q0 71 -71 71q-93 0 -168 -114l-59 -333h-88z" />
    <glyph glyph-name="Eng" unicode="&#x14a;" horiz-adv-x="691" 
d="M347 -182l14 76h25q36 0 51 14.5t23 54.5l7 38l-236 551l-97 -552h-87l120 680h101l225 -528l93 528h87l-126 -719q-14 -77 -49 -110t-102 -33h-49z" />
    <glyph glyph-name="eng" unicode="&#x14b;" horiz-adv-x="570" 
d="M244 -182l14 75h23q35 0 51 15t23 53l65 368q4 23 4 47q0 71 -71 71q-93 0 -168 -114l-59 -333h-88l91 516h75l-11 -77q79 89 182 89q139 0 139 -135q0 -32 -5 -59l-66 -373q-14 -77 -49 -110t-102 -33h-48z" />
    <glyph glyph-name="Omacron" unicode="&#x14c;" horiz-adv-x="654" 
d="M293 780l12 70h254l-12 -70h-254zM284 -12q-227 0 -227 199q0 34 7 75l29 164q47 266 306 266q227 0 227 -199q0 -34 -7 -75l-29 -164q-47 -266 -306 -266zM290 70q178 0 211 187l29 165q6 34 6 62q0 64 -34.5 95t-108.5 31q-178 0 -211 -187l-29 -165q-6 -34 -6 -62
q0 -64 34.5 -95t108.5 -31z" />
    <glyph glyph-name="omacron" unicode="&#x14d;" horiz-adv-x="560" 
d="M218 625l12 70h254l-12 -70h-254zM238 -12q-194 0 -194 171q0 23 6 58l15 85q40 226 257 226q194 0 194 -171q0 -23 -6 -58l-15 -85q-40 -226 -257 -226zM243 65q138 0 165 155l14 80q5 28 5 49q0 102 -110 102q-138 0 -165 -155l-14 -80q-5 -28 -5 -49q0 -102 110 -102z
" />
    <glyph glyph-name="Obreve" unicode="&#x14e;" horiz-adv-x="654" 
d="M419 746q-59 0 -90.5 30t-31.5 81q0 14 1 21h67v-14q0 -49 57 -49q70 0 85 63h69q-13 -63 -53.5 -97.5t-103.5 -34.5zM284 -12q-227 0 -227 199q0 34 7 75l29 164q47 266 306 266q227 0 227 -199q0 -34 -7 -75l-29 -164q-47 -266 -306 -266zM290 70q178 0 211 187l29 165
q6 34 6 62q0 64 -34.5 95t-108.5 31q-178 0 -211 -187l-29 -165q-6 -34 -6 -62q0 -64 34.5 -95t108.5 -31z" />
    <glyph glyph-name="obreve" unicode="&#x14f;" horiz-adv-x="560" 
d="M344 591q-59 0 -90.5 30t-31.5 81q0 14 1 21h67v-14q0 -49 57 -49q70 0 85 63h69q-13 -63 -53.5 -97.5t-103.5 -34.5zM238 -12q-194 0 -194 171q0 23 6 58l15 85q40 226 257 226q194 0 194 -171q0 -23 -6 -58l-15 -85q-40 -226 -257 -226zM243 65q138 0 165 155l14 80
q5 28 5 49q0 102 -110 102q-138 0 -165 -155l-14 -80q-5 -28 -5 -49q0 -102 110 -102z" />
    <glyph glyph-name="Ohungarumlaut" unicode="&#x150;" horiz-adv-x="654" 
d="M263 749l110 132h112l-133 -132h-89zM445 749l110 132h112l-133 -132h-89zM284 -12q-227 0 -227 199q0 34 7 75l29 164q47 266 306 266q227 0 227 -199q0 -34 -7 -75l-29 -164q-47 -266 -306 -266zM290 70q178 0 211 187l29 165q6 34 6 62q0 64 -34.5 95t-108.5 31
q-178 0 -211 -187l-29 -165q-6 -34 -6 -62q0 -64 34.5 -95t108.5 -31z" />
    <glyph glyph-name="ohungarumlaut" unicode="&#x151;" horiz-adv-x="560" 
d="M188 594l110 132h112l-133 -132h-89zM370 594l110 132h112l-133 -132h-89zM238 -12q-194 0 -194 171q0 23 6 58l15 85q40 226 257 226q194 0 194 -171q0 -23 -6 -58l-15 -85q-40 -226 -257 -226zM243 65q138 0 165 155l14 80q5 28 5 49q0 102 -110 102q-138 0 -165 -155
l-14 -80q-5 -28 -5 -49q0 -102 110 -102z" />
    <glyph glyph-name="OE" unicode="&#x152;" horiz-adv-x="909" 
d="M279 0q-223 0 -223 186q0 35 8 81l27 153q24 137 94.5 198.5t204.5 61.5h547l-14 -82h-330l-37 -209h280l-14 -82h-280l-40 -225h340l-14 -82h-549zM297 82h115l91 516h-111q-95 0 -145 -44t-67 -138l-27 -153q-6 -35 -6 -62q0 -63 35.5 -91t114.5 -28z" />
    <glyph glyph-name="oe" unicode="&#x153;" horiz-adv-x="906" 
d="M234 -12q-92 0 -141 43.5t-49 127.5q0 23 6 58l15 85q40 226 253 226q134 0 169 -91q62 91 195 91q183 0 183 -165q0 -27 -5 -55l-13 -74h-348l-5 -29q-5 -28 -5 -44q0 -97 110 -97q60 0 96.5 24.5t48.5 65.5h85q-40 -166 -229 -166q-136 0 -171 91q-64 -91 -195 -91z
M512 307h263q5 32 5 50q0 95 -108 95q-133 0 -160 -145zM243 65q138 0 165 155l14 80q5 28 5 49q0 102 -110 102q-138 0 -165 -155l-14 -80q-5 -28 -5 -49q0 -102 110 -102z" />
    <glyph glyph-name="Racute" unicode="&#x154;" horiz-adv-x="631" 
d="M319 749l134 132h115l-155 -132h-94zM47 0l120 680h257q104 0 148 -37.5t44 -126.5q0 -97 -46 -156.5t-135 -76.5l116 -283h-97l-113 276h-155l-49 -276h-90zM200 358h161q80 0 122.5 39t42.5 112q0 50 -25.5 69.5t-93.5 19.5h-164z" />
    <glyph glyph-name="racute" unicode="&#x155;" horiz-adv-x="358" 
d="M185 594l134 132h115l-155 -132h-94zM38 0l91 516h75l-12 -91q53 101 162 101h38l-15 -87h-24q-123 0 -174 -138l-53 -301h-88z" />
    <glyph glyph-name="Rcommaaccent" unicode="&#x156;" horiz-adv-x="631" 
d="M47 0l120 680h257q104 0 148 -37.5t44 -126.5q0 -97 -46 -156.5t-135 -76.5l116 -283h-97l-113 276h-155l-49 -276h-90zM200 358h161q80 0 122.5 39t42.5 112q0 50 -25.5 69.5t-93.5 19.5h-164zM193 -238l7 42q46 0 54 44h-42l14 78h98l-11 -62q-10 -57 -32.5 -79.5
t-87.5 -22.5z" />
    <glyph glyph-name="rcommaaccent" unicode="&#x157;" horiz-adv-x="358" 
d="M38 0l91 516h75l-12 -91q53 101 162 101h38l-15 -87h-24q-123 0 -174 -138l-53 -301h-88zM-14 -238l7 42q46 0 54 44h-42l14 78h98l-11 -62q-10 -57 -32.5 -79.5t-87.5 -22.5z" />
    <glyph glyph-name="Rcaron" unicode="&#x158;" horiz-adv-x="631" 
d="M349 749l-88 132h84l56 -69l80 69h94l-136 -132h-90zM47 0l120 680h257q104 0 148 -37.5t44 -126.5q0 -97 -46 -156.5t-135 -76.5l116 -283h-97l-113 276h-155l-49 -276h-90zM200 358h161q80 0 122.5 39t42.5 112q0 50 -25.5 69.5t-93.5 19.5h-164z" />
    <glyph glyph-name="rcaron" unicode="&#x159;" horiz-adv-x="358" 
d="M215 594l-88 132h84l56 -69l80 69h94l-136 -132h-90zM38 0l91 516h75l-12 -91q53 101 162 101h38l-15 -87h-24q-123 0 -174 -138l-53 -301h-88z" />
    <glyph glyph-name="Sacute" unicode="&#x15a;" horiz-adv-x="558" 
d="M285 749l134 132h115l-155 -132h-94zM241 -12q-220 0 -220 158q0 24 4 47h90q-3 -18 -3 -32q0 -91 132 -91q84 0 130.5 36t46.5 106q0 36 -32.5 57t-112.5 36q-103 20 -146 54t-43 97q0 113 71 174.5t194 61.5q203 0 203 -152q0 -24 -4 -47h-90q3 18 3 33
q0 45 -28.5 64.5t-87.5 19.5q-79 0 -125.5 -36t-46.5 -101q0 -34 31 -52.5t107 -32.5q106 -19 151.5 -55.5t45.5 -103.5q0 -118 -71 -179.5t-199 -61.5z" />
    <glyph glyph-name="sacute" unicode="&#x15b;" horiz-adv-x="497" 
d="M230 594l134 132h115l-155 -132h-94zM205 -12q-93 0 -141 34t-48 98q0 16 3 32h84q-2 -14 -2 -20q0 -69 110 -69q65 0 103 24t38 68q0 30 -26.5 45t-91.5 23q-89 11 -127.5 41.5t-38.5 87.5q0 81 61 128.5t162 47.5q85 0 130.5 -33.5t45.5 -95.5q0 -20 -2 -30h-86
q2 14 2 20q0 64 -96 64q-59 0 -95 -24.5t-36 -64.5q0 -28 25.5 -41.5t86.5 -20.5q90 -10 131 -42t41 -93q0 -86 -62 -132.5t-171 -46.5z" />
    <glyph glyph-name="Scircumflex" unicode="&#x15c;" horiz-adv-x="558" 
d="M201 749l136 132h90l88 -132h-84l-56 69l-80 -69h-94zM241 -12q-220 0 -220 158q0 24 4 47h90q-3 -18 -3 -32q0 -91 132 -91q84 0 130.5 36t46.5 106q0 36 -32.5 57t-112.5 36q-103 20 -146 54t-43 97q0 113 71 174.5t194 61.5q203 0 203 -152q0 -24 -4 -47h-90
q3 18 3 33q0 45 -28.5 64.5t-87.5 19.5q-79 0 -125.5 -36t-46.5 -101q0 -34 31 -52.5t107 -32.5q106 -19 151.5 -55.5t45.5 -103.5q0 -118 -71 -179.5t-199 -61.5z" />
    <glyph glyph-name="scircumflex" unicode="&#x15d;" horiz-adv-x="497" 
d="M146 594l136 132h90l88 -132h-84l-56 69l-80 -69h-94zM205 -12q-93 0 -141 34t-48 98q0 16 3 32h84q-2 -14 -2 -20q0 -69 110 -69q65 0 103 24t38 68q0 30 -26.5 45t-91.5 23q-89 11 -127.5 41.5t-38.5 87.5q0 81 61 128.5t162 47.5q85 0 130.5 -33.5t45.5 -95.5
q0 -20 -2 -30h-86q2 14 2 20q0 64 -96 64q-59 0 -95 -24.5t-36 -64.5q0 -28 25.5 -41.5t86.5 -20.5q90 -10 131 -42t41 -93q0 -86 -62 -132.5t-171 -46.5z" />
    <glyph glyph-name="Scedilla" unicode="&#x15e;" horiz-adv-x="558" 
d="M551 493h-90q3 18 3 33q0 45 -28.5 64.5t-87.5 19.5q-79 0 -125.5 -36t-46.5 -101q0 -34 31 -52.5t107 -32.5q106 -19 151.5 -55.5t45.5 -103.5q0 -113 -64.5 -174t-183.5 -66l-25 -47q82 -3 82 -63q0 -83 -126 -83q-61 0 -103 21l26 47q25 -17 61 -17q28 0 44 9.5
t16 26.5q0 10 -10 13t-40 3h-30l50 90q-187 12 -187 157q0 24 4 47h90q-3 -18 -3 -32q0 -91 132 -91q84 0 130.5 36t46.5 106q0 36 -32.5 57t-112.5 36q-103 20 -146 54t-43 97q0 113 71 174.5t194 61.5q203 0 203 -152q0 -24 -4 -47z" />
    <glyph glyph-name="scedilla" unicode="&#x15f;" horiz-adv-x="497" 
d="M465 369h-86q2 14 2 20q0 64 -96 64q-59 0 -95 -24.5t-36 -64.5q0 -28 25.5 -41.5t86.5 -20.5q90 -10 131 -42t41 -93q0 -81 -54.5 -127t-152.5 -51l-26 -47q82 -3 82 -63q0 -83 -126 -83q-61 0 -103 21l26 47q26 -17 61 -17q28 0 44 9.5t16 26.5q0 10 -10 13t-40 3h-30
l50 90q-78 5 -118.5 39t-40.5 92q0 16 3 32h84q-2 -14 -2 -20q0 -69 110 -69q65 0 103 24t38 68q0 30 -26.5 45t-91.5 23q-89 11 -127.5 41.5t-38.5 87.5q0 81 61 128.5t162 47.5q85 0 130.5 -33.5t45.5 -95.5q0 -20 -2 -30z" />
    <glyph glyph-name="Scaron" unicode="&#x160;" horiz-adv-x="558" 
d="M315 749l-88 132h84l56 -69l80 69h94l-136 -132h-90zM241 -12q-220 0 -220 158q0 24 4 47h90q-3 -18 -3 -32q0 -91 132 -91q84 0 130.5 36t46.5 106q0 36 -32.5 57t-112.5 36q-103 20 -146 54t-43 97q0 113 71 174.5t194 61.5q203 0 203 -152q0 -24 -4 -47h-90q3 18 3 33
q0 45 -28.5 64.5t-87.5 19.5q-79 0 -125.5 -36t-46.5 -101q0 -34 31 -52.5t107 -32.5q106 -19 151.5 -55.5t45.5 -103.5q0 -118 -71 -179.5t-199 -61.5z" />
    <glyph glyph-name="scaron" unicode="&#x161;" horiz-adv-x="497" 
d="M260 594l-88 132h84l56 -69l80 69h94l-136 -132h-90zM205 -12q-93 0 -141 34t-48 98q0 16 3 32h84q-2 -14 -2 -20q0 -69 110 -69q65 0 103 24t38 68q0 30 -26.5 45t-91.5 23q-89 11 -127.5 41.5t-38.5 87.5q0 81 61 128.5t162 47.5q85 0 130.5 -33.5t45.5 -95.5
q0 -20 -2 -30h-86q2 14 2 20q0 64 -96 64q-59 0 -95 -24.5t-36 -64.5q0 -28 25.5 -41.5t86.5 -20.5q90 -10 131 -42t41 -93q0 -86 -62 -132.5t-171 -46.5z" />
    <glyph glyph-name="uni0162" unicode="&#x162;" horiz-adv-x="507" 
d="M82 680h492l-15 -83h-201l-105 -597h-16l-35 -58q80 -3 80 -63q0 -83 -126 -83q-61 0 -103 21l26 47q25 -17 61 -17q28 0 44 9.5t16 26.5q0 10 -10 13t-40 3h-30l61 101h-18l105 597h-201z" />
    <glyph glyph-name="uni0163" unicode="&#x163;" horiz-adv-x="341" 
d="M222 444l-50 -286q-4 -21 -4 -39q0 -25 13.5 -34t48.5 -9h61l-13 -76h-77q-14 0 -21 1l-32 -59q82 -3 82 -63q0 -83 -126 -83q-61 0 -103 21l26 47q25 -17 61 -17q28 0 44 9.5t16 26.5q0 10 -10 13t-40 3h-30l63 114q-51 25 -51 98q0 25 5 53l49 280h-88l12 72h91l31 136
h79l-24 -136h127l-12 -72h-128z" />
    <glyph glyph-name="Tcaron" unicode="&#x164;" horiz-adv-x="507" 
d="M296 749l-88 132h84l56 -69l80 69h94l-136 -132h-90zM163 0l105 597h-201l15 83h492l-15 -83h-201l-105 -597h-90z" />
    <glyph glyph-name="tcaron" unicode="&#x165;" horiz-adv-x="341" 
d="M279 568l77 207h98l-107 -207h-68zM201 0q-121 0 -121 111q0 25 5 53l49 280h-88l12 72h91l31 136h79l-24 -136h127l-12 -72h-128l-50 -286q-4 -21 -4 -39q0 -25 13.5 -34t48.5 -9h61l-13 -76h-77z" />
    <glyph glyph-name="Tbar" unicode="&#x166;" horiz-adv-x="507" 
d="M559 597h-201l-37 -208h136l-14 -82h-136l-54 -307h-90l54 307h-135l14 82h135l37 208h-201l15 83h492z" />
    <glyph glyph-name="tbar" unicode="&#x167;" horiz-adv-x="341" 
d="M350 444h-128l-17 -97h118l-13 -71h-117l-21 -118q-4 -21 -4 -39q0 -25 13.5 -34t48.5 -9h61l-13 -76h-77q-121 0 -121 111q0 25 5 53l20 112h-83l13 71h82l17 97h-88l12 72h91l31 136h79l-24 -136h127z" />
    <glyph glyph-name="Utilde" unicode="&#x168;" horiz-adv-x="641" 
d="M474 753q-34 0 -69 28q-24 19 -40 19q-30 0 -42 -45h-63q25 117 105 117q34 0 69 -28q24 -19 40 -19q30 0 42 45h63q-25 -117 -105 -117zM280 -12q-114 0 -165.5 41.5t-51.5 126.5q0 32 7 71l80 453h90l-81 -459q-5 -27 -5 -50q0 -56 30.5 -78.5t99.5 -22.5
q87 0 130.5 35.5t58.5 121.5l80 453h87l-81 -459q-22 -123 -87 -178t-192 -55z" />
    <glyph glyph-name="utilde" unicode="&#x169;" horiz-adv-x="574" 
d="M408 598q-34 0 -69 28q-24 19 -40 19q-30 0 -42 -45h-63q25 117 105 117q34 0 69 -28q24 -19 40 -19q30 0 42 45h63q-25 -117 -105 -117zM196 -12q-140 0 -140 138q0 28 5 56l59 334h88l-59 -334q-3 -17 -3 -41q0 -38 17.5 -55t54.5 -17q95 0 171 114l59 333h88l-91 -516
h-75l11 77q-80 -89 -185 -89z" />
    <glyph glyph-name="Umacron" unicode="&#x16a;" horiz-adv-x="641" 
d="M287 780l12 70h254l-12 -70h-254zM280 -12q-114 0 -165.5 41.5t-51.5 126.5q0 32 7 71l80 453h90l-81 -459q-5 -27 -5 -50q0 -56 30.5 -78.5t99.5 -22.5q87 0 130.5 35.5t58.5 121.5l80 453h87l-81 -459q-22 -123 -87 -178t-192 -55z" />
    <glyph glyph-name="umacron" unicode="&#x16b;" horiz-adv-x="574" 
d="M221 625l12 70h254l-12 -70h-254zM196 -12q-140 0 -140 138q0 28 5 56l59 334h88l-59 -334q-3 -17 -3 -41q0 -38 17.5 -55t54.5 -17q95 0 171 114l59 333h88l-91 -516h-75l11 77q-80 -89 -185 -89z" />
    <glyph glyph-name="Ubreve" unicode="&#x16c;" horiz-adv-x="641" 
d="M413 746q-59 0 -90.5 30t-31.5 81q0 14 1 21h67v-14q0 -49 57 -49q70 0 85 63h69q-13 -63 -53.5 -97.5t-103.5 -34.5zM280 -12q-114 0 -165.5 41.5t-51.5 126.5q0 32 7 71l80 453h90l-81 -459q-5 -27 -5 -50q0 -56 30.5 -78.5t99.5 -22.5q87 0 130.5 35.5t58.5 121.5
l80 453h87l-81 -459q-22 -123 -87 -178t-192 -55z" />
    <glyph glyph-name="ubreve" unicode="&#x16d;" horiz-adv-x="574" 
d="M347 591q-59 0 -90.5 30t-31.5 81q0 14 1 21h67v-14q0 -49 57 -49q70 0 85 63h69q-13 -63 -53.5 -97.5t-103.5 -34.5zM196 -12q-140 0 -140 138q0 28 5 56l59 334h88l-59 -334q-3 -17 -3 -41q0 -38 17.5 -55t54.5 -17q95 0 171 114l59 333h88l-91 -516h-75l11 77
q-80 -89 -185 -89z" />
    <glyph glyph-name="Uring" unicode="&#x16e;" horiz-adv-x="641" 
d="M415 732q-44 0 -71 26t-27 69q0 48 33.5 80.5t82.5 32.5q44 0 71 -26t27 -69q0 -48 -33.5 -80.5t-82.5 -32.5zM418 791q21 0 35.5 15.5t14.5 38.5q0 16 -10.5 26t-27.5 10q-21 0 -35.5 -15.5t-14.5 -38.5q0 -16 10.5 -26t27.5 -10zM280 -12q-114 0 -165.5 41.5
t-51.5 126.5q0 32 7 71l80 453h90l-81 -459q-5 -27 -5 -50q0 -56 30.5 -78.5t99.5 -22.5q87 0 130.5 35.5t58.5 121.5l80 453h87l-81 -459q-22 -123 -87 -178t-192 -55z" />
    <glyph glyph-name="uring" unicode="&#x16f;" horiz-adv-x="574" 
d="M349 577q-44 0 -71 26t-27 69q0 48 33.5 80.5t82.5 32.5q44 0 71 -26t27 -69q0 -48 -33.5 -80.5t-82.5 -32.5zM352 636q21 0 35.5 15.5t14.5 38.5q0 16 -10.5 26t-27.5 10q-21 0 -35.5 -15.5t-14.5 -38.5q0 -16 10.5 -26t27.5 -10zM196 -12q-140 0 -140 138q0 28 5 56
l59 334h88l-59 -334q-3 -17 -3 -41q0 -38 17.5 -55t54.5 -17q95 0 171 114l59 333h88l-91 -516h-75l11 77q-80 -89 -185 -89z" />
    <glyph glyph-name="Uhungarumlaut" unicode="&#x170;" horiz-adv-x="641" 
d="M257 749l110 132h112l-133 -132h-89zM439 749l110 132h112l-133 -132h-89zM280 -12q-114 0 -165.5 41.5t-51.5 126.5q0 32 7 71l80 453h90l-81 -459q-5 -27 -5 -50q0 -56 30.5 -78.5t99.5 -22.5q87 0 130.5 35.5t58.5 121.5l80 453h87l-81 -459q-22 -123 -87 -178
t-192 -55z" />
    <glyph glyph-name="uhungarumlaut" unicode="&#x171;" horiz-adv-x="574" 
d="M191 594l110 132h112l-133 -132h-89zM373 594l110 132h112l-133 -132h-89zM196 -12q-140 0 -140 138q0 28 5 56l59 334h88l-59 -334q-3 -17 -3 -41q0 -38 17.5 -55t54.5 -17q95 0 171 114l59 333h88l-91 -516h-75l11 77q-80 -89 -185 -89z" />
    <glyph glyph-name="Uogonek" unicode="&#x172;" horiz-adv-x="641" 
d="M553 680h87l-81 -459q-17 -97 -60 -150.5t-119 -72.5q-52 -20 -81 -47.5t-29 -55.5q0 -29 37 -29q25 0 60 16l-13 -71q-24 -13 -64 -13q-102 0 -102 77q0 63 74 113q-104 4 -151.5 45t-47.5 123q0 32 7 71l80 453h90l-81 -459q-5 -27 -5 -50q0 -56 30.5 -78.5t99.5 -22.5
q87 0 130.5 35.5t58.5 121.5z" />
    <glyph glyph-name="uogonek" unicode="&#x173;" horiz-adv-x="574" 
d="M426 0q-99 -54 -99 -106q0 -28 37 -28q25 0 60 16l-13 -71q-25 -13 -66 -13q-48 0 -74 19.5t-26 56.5q0 81 129 151l7 52q-80 -89 -185 -89q-140 0 -140 138q0 28 5 56l59 334h88l-59 -334q-3 -17 -3 -41q0 -38 17.5 -55t54.5 -17q95 0 171 114l59 333h88l-91 -516h-19z
" />
    <glyph glyph-name="Wcircumflex" unicode="&#x174;" horiz-adv-x="862" 
d="M360 749l136 132h90l88 -132h-84l-56 69l-80 -69h-94zM148 0l-64 680h90l45 -532l240 532h88l53 -534l233 534h93l-302 -680h-92l-54 527l-239 -527h-91z" />
    <glyph glyph-name="wcircumflex" unicode="&#x175;" horiz-adv-x="775" 
d="M289 594l136 132h90l88 -132h-84l-56 69l-80 -69h-94zM127 0l-71 516h90l47 -400l194 400h87l54 -402l188 402h93l-251 -516h-94l-54 389l-189 -389h-94z" />
    <glyph glyph-name="Ycircumflex" unicode="&#x176;" horiz-adv-x="552" 
d="M205 749l136 132h90l88 -132h-84l-56 69l-80 -69h-94zM185 0l51 291l-172 389h99l132 -297l235 297h106l-310 -392l-51 -288h-90z" />
    <glyph glyph-name="ycircumflex" unicode="&#x177;" horiz-adv-x="472" 
d="M137 594l136 132h90l88 -132h-84l-56 69l-80 -69h-94zM-21 -182l14 76h42q30 0 47.5 12t34.5 44l38 74l-99 492h91l70 -381l195 381h94l-305 -581q-36 -68 -71.5 -92.5t-95.5 -24.5h-55z" />
    <glyph glyph-name="Ydieresis" unicode="&#x178;" horiz-adv-x="552" 
d="M228 764l17 98h98l-17 -98h-98zM406 764l17 98h98l-17 -98h-98zM185 0l51 291l-172 389h99l132 -297l235 297h106l-310 -392l-51 -288h-90z" />
    <glyph glyph-name="Zacute" unicode="&#x179;" horiz-adv-x="549" 
d="M292 749l134 132h115l-155 -132h-94zM-13 0l13 74l448 524h-338l14 82h459l-13 -73l-448 -525h364l-14 -82h-485z" />
    <glyph glyph-name="zacute" unicode="&#x17a;" horiz-adv-x="463" 
d="M219 594l134 132h115l-155 -132h-94zM-15 0l11 66l344 375h-257l13 75h375l-11 -66l-344 -375h283l-13 -75h-401z" />
    <glyph glyph-name="Zdotaccent" unicode="&#x17b;" horiz-adv-x="549" 
d="M320 764l17 98h98l-17 -98h-98zM-13 0l13 74l448 524h-338l14 82h459l-13 -73l-448 -525h364l-14 -82h-485z" />
    <glyph glyph-name="zdotaccent" unicode="&#x17c;" horiz-adv-x="463" 
d="M247 609l17 98h98l-17 -98h-98zM-15 0l11 66l344 375h-257l13 75h375l-11 -66l-344 -375h283l-13 -75h-401z" />
    <glyph glyph-name="Zcaron" unicode="&#x17d;" horiz-adv-x="549" 
d="M322 749l-88 132h84l56 -69l80 69h94l-136 -132h-90zM-13 0l13 74l448 524h-338l14 82h459l-13 -73l-448 -525h364l-14 -82h-485z" />
    <glyph glyph-name="zcaron" unicode="&#x17e;" horiz-adv-x="463" 
d="M249 594l-88 132h84l56 -69l80 69h94l-136 -132h-90zM-15 0l11 66l344 375h-257l13 75h375l-11 -66l-344 -375h283l-13 -75h-401z" />
    <glyph glyph-name="florin" unicode="&#x192;" horiz-adv-x="602" 
d="M3 -60l21 75h53q45 0 71.5 23t42.5 76l81 271h-127l14 76h136l24 80q26 86 67.5 122.5t118.5 36.5h97l-21 -75h-63q-45 0 -71.5 -23t-42.5 -76l-19 -65h146l-14 -76h-155l-86 -286q-26 -86 -67.5 -122.5t-118.5 -36.5h-87z" />
    <glyph glyph-name="Aringacute" unicode="&#x1fa;" horiz-adv-x="605" 
d="M353 955l134 132h115l-155 -132h-94zM394 717q-44 0 -71 26t-27 69q0 48 33.5 80.5t82.5 32.5q44 0 71 -26t27 -69q0 -48 -33.5 -80.5t-82.5 -32.5zM397 776q21 0 35.5 15.5t14.5 38.5q0 16 -10.5 26t-27.5 10q-21 0 -35.5 -15.5t-14.5 -38.5q0 -16 10.5 -26t27.5 -10z
M-36 0l367 680h91l129 -680h-93l-32 174h-273l-93 -174h-96zM196 256h216l-54 309z" />
    <glyph glyph-name="aringacute" unicode="&#x1fb;" horiz-adv-x="540" 
d="M286 800l134 132h115l-155 -132h-94zM327 562q-44 0 -71 26t-27 69q0 48 33.5 80.5t82.5 32.5q44 0 71 -26t27 -69q0 -48 -33.5 -80.5t-82.5 -32.5zM330 621q21 0 35.5 15.5t14.5 38.5q0 16 -10.5 26t-27.5 10q-21 0 -35.5 -15.5t-14.5 -38.5q0 -16 10.5 -26t27.5 -10z
M175 -12q-73 0 -113 34.5t-40 102.5q0 88 64 135t175 47h129l5 28q3 18 3 36q0 81 -97 81q-56 0 -92 -24t-46 -69h-86q40 169 231 169q179 0 179 -145q0 -25 -4 -49l-59 -334h-75l9 67q-76 -79 -183 -79zM191 64q108 0 174 102l12 68h-121q-69 0 -107.5 -26.5t-38.5 -77.5
q0 -66 81 -66z" />
    <glyph glyph-name="AEacute" unicode="&#x1fc;" horiz-adv-x="896" 
d="M472 749l134 132h115l-155 -132h-94zM-55 0l523 680h456l-14 -82h-328l-37 -209h278l-14 -82h-279l-40 -225h339l-14 -82h-429l31 174h-234l-134 -174h-104zM244 256h187l58 326z" />
    <glyph glyph-name="aeacute" unicode="&#x1fd;" horiz-adv-x="872" 
d="M415 594l134 132h115l-155 -132h-94zM176 -12q-154 0 -154 136q0 88 64 135t175 47h128l6 32q3 18 3 35q0 41 -23.5 60t-73.5 19q-118 0 -138 -93h-86q40 169 225 169q133 0 159 -89q57 89 185 89q90 0 137.5 -41t47.5 -122q0 -29 -5 -57l-13 -74h-348l-5 -29
q-5 -28 -5 -44q0 -97 111 -97q59 0 95.5 24.5t48.5 65.5h85q-40 -166 -234 -166q-143 0 -180 91q-85 -91 -205 -91zM478 307h263q5 32 5 50q0 95 -108 95q-133 0 -160 -145zM191 64q108 0 177 107q3 31 5 42l4 20h-122q-68 0 -106.5 -26.5t-38.5 -76.5q0 -66 81 -66z" />
    <glyph glyph-name="Oslashacute" unicode="&#x1fe;" horiz-adv-x="654" 
d="M589 881l-155 -132h-94l134 132h115zM659 644l-50 -57q17 -40 17 -94q0 -34 -7 -75l-29 -164q-47 -266 -306 -266q-110 0 -166 46l-40 -46l-54 48l50 57q-17 40 -17 94q0 34 7 75l29 164q47 266 306 266q110 0 166 -46l40 46zM147 196q0 -14 1 -20l356 401
q-36 33 -111 33q-178 0 -211 -187l-29 -165q-6 -34 -6 -62zM536 484q0 14 -1 20l-356 -401q36 -33 111 -33q178 0 211 187l29 165q6 34 6 62z" />
    <glyph glyph-name="oslashacute" unicode="&#x1ff;" horiz-adv-x="560" 
d="M514 726l-155 -132h-94l134 132h115zM542 481l-41 -43q15 -34 15 -81q0 -23 -6 -58l-15 -85q-40 -226 -257 -226q-88 0 -136 36l-35 -36l-49 47l41 43q-15 34 -15 81q0 23 6 58l15 85q40 226 257 226q88 0 136 -36l35 36zM133 167v-12l264 273q-29 23 -80 23
q-138 0 -165 -155l-14 -80q-5 -28 -5 -49zM427 349v12l-264 -273q29 -23 80 -23q138 0 165 155l14 80q5 28 5 49z" />
    <glyph glyph-name="Scommaaccent" unicode="&#x218;" horiz-adv-x="558" 
d="M241 -12q-220 0 -220 158q0 24 4 47h90q-3 -18 -3 -32q0 -91 132 -91q84 0 130.5 36t46.5 106q0 36 -32.5 57t-112.5 36q-103 20 -146 54t-43 97q0 113 71 174.5t194 61.5q203 0 203 -152q0 -24 -4 -47h-90q3 18 3 33q0 45 -28.5 64.5t-87.5 19.5q-79 0 -125.5 -36
t-46.5 -101q0 -34 31 -52.5t107 -32.5q106 -19 151.5 -55.5t45.5 -103.5q0 -118 -71 -179.5t-199 -61.5zM150 -238l7 42q46 0 54 44h-42l14 78h98l-11 -62q-10 -57 -32.5 -79.5t-87.5 -22.5z" />
    <glyph glyph-name="scommaaccent" unicode="&#x219;" horiz-adv-x="497" 
d="M205 -12q-93 0 -141 34t-48 98q0 16 3 32h84q-2 -14 -2 -20q0 -69 110 -69q65 0 103 24t38 68q0 30 -26.5 45t-91.5 23q-89 11 -127.5 41.5t-38.5 87.5q0 81 61 128.5t162 47.5q85 0 130.5 -33.5t45.5 -95.5q0 -20 -2 -30h-86q2 14 2 20q0 64 -96 64q-59 0 -95 -24.5
t-36 -64.5q0 -28 25.5 -41.5t86.5 -20.5q90 -10 131 -42t41 -93q0 -86 -62 -132.5t-171 -46.5zM117 -238l7 42q46 0 54 44h-42l14 78h98l-11 -62q-10 -57 -32.5 -79.5t-87.5 -22.5z" />
    <glyph glyph-name="uni021A" unicode="&#x21a;" horiz-adv-x="507" 
d="M163 0l105 597h-201l15 83h492l-15 -83h-201l-105 -597h-90zM112 -238l7 42q46 0 54 44h-42l14 78h98l-11 -62q-10 -57 -32.5 -79.5t-87.5 -22.5z" />
    <glyph glyph-name="uni021B" unicode="&#x21b;" horiz-adv-x="341" 
d="M201 0q-121 0 -121 111q0 25 5 53l49 280h-88l12 72h91l31 136h79l-24 -136h127l-12 -72h-128l-50 -286q-4 -21 -4 -39q0 -25 13.5 -34t48.5 -9h61l-13 -76h-77zM60 -238l7 42q46 0 54 44h-42l14 78h98l-11 -62q-10 -57 -32.5 -79.5t-87.5 -22.5z" />
    <glyph glyph-name="uni0237" unicode="&#x237;" horiz-adv-x="255" 
d="M-80 -182l14 76h23q36 0 51.5 14.5t22.5 52.5l98 555h88l-98 -555q-14 -77 -49 -110t-102 -33h-48z" />
    <glyph glyph-name="uni02BC" unicode="&#x2bc;" horiz-adv-x="148" 
d="M77 559l7 42q42 0 52 41h-39l15 88h95l-12 -70q-9 -55 -32.5 -78t-85.5 -23z" />
    <glyph glyph-name="circumflex" unicode="&#x2c6;" horiz-adv-x="500" 
d="M151 594l136 132h90l88 -132h-84l-56 69l-80 -69h-94z" />
    <glyph glyph-name="caron" unicode="&#x2c7;" horiz-adv-x="500" 
d="M265 594l-88 132h84l56 -69l80 69h94l-136 -132h-90z" />
    <glyph glyph-name="uni02C9" unicode="&#x2c9;" horiz-adv-x="500" 
d="M188 625l12 70h254l-12 -70h-254z" />
    <glyph glyph-name="breve" unicode="&#x2d8;" horiz-adv-x="500" 
d="M314 591q-59 0 -90.5 30t-31.5 81q0 14 1 21h67v-14q0 -49 57 -49q70 0 85 63h69q-13 -63 -53.5 -97.5t-103.5 -34.5z" />
    <glyph glyph-name="dotaccent" unicode="&#x2d9;" horiz-adv-x="500" 
d="M263 609l17 98h98l-17 -98h-98z" />
    <glyph glyph-name="ring" unicode="&#x2da;" horiz-adv-x="500" 
d="M316 577q-44 0 -71 26t-27 69q0 48 33.5 80.5t82.5 32.5q44 0 71 -26t27 -69q0 -48 -33.5 -80.5t-82.5 -32.5zM319 636q21 0 35.5 15.5t14.5 38.5q0 16 -10.5 26t-27.5 10q-21 0 -35.5 -15.5t-14.5 -38.5q0 -16 10.5 -26t27.5 -10z" />
    <glyph glyph-name="ogonek" unicode="&#x2db;" horiz-adv-x="500" 
d="M194 -202q-48 0 -74 19.5t-26 56.5q0 92 167 171l27 -38q-51 -26 -81.5 -56.5t-30.5 -56.5q0 -28 37 -28q25 0 60 16l-13 -71q-25 -13 -66 -13z" />
    <glyph glyph-name="tilde" unicode="&#x2dc;" horiz-adv-x="500" 
d="M375 598q-34 0 -69 28q-24 19 -40 19q-30 0 -42 -45h-63q25 117 105 117q34 0 69 -28q24 -19 40 -19q30 0 42 45h63q-25 -117 -105 -117z" />
    <glyph glyph-name="hungarumlaut" unicode="&#x2dd;" horiz-adv-x="500" 
d="M158 594l110 132h112l-133 -132h-89zM340 594l110 132h112l-133 -132h-89z" />
    <glyph glyph-name="gravecomb" unicode="&#x300;" horiz-adv-x="0" 
d="M45 594l-107 132h105l86 -132h-84z" />
    <glyph glyph-name="acutecomb" unicode="&#x301;" horiz-adv-x="0" 
d="M-15 594l134 132h115l-155 -132h-94z" />
    <glyph glyph-name="uni0302" unicode="&#x302;" horiz-adv-x="0" 
d="M-99 594l136 132h90l88 -132h-84l-56 69l-80 -69h-94z" />
    <glyph glyph-name="tildecomb" unicode="&#x303;" horiz-adv-x="0" 
d="M125 598q-34 0 -69 28q-24 19 -40 19q-30 0 -42 -45h-63q25 117 105 117q34 0 69 -28q24 -19 40 -19q30 0 42 45h63q-25 -117 -105 -117z" />
    <glyph glyph-name="uni0304" unicode="&#x304;" horiz-adv-x="0" 
d="M-62 625l12 70h254l-12 -70h-254z" />
    <glyph glyph-name="uni0306" unicode="&#x306;" horiz-adv-x="0" 
d="M64 591q-59 0 -90.5 30t-31.5 81q0 14 1 21h67v-14q0 -49 57 -49q70 0 85 63h69q-13 -63 -53.5 -97.5t-103.5 -34.5z" />
    <glyph glyph-name="uni0307" unicode="&#x307;" horiz-adv-x="0" 
d="M13 609l17 98h98l-17 -98h-98z" />
    <glyph glyph-name="uni0308" unicode="&#x308;" horiz-adv-x="0" 
d="M-76 609l17 98h98l-17 -98h-98zM102 609l17 98h98l-17 -98h-98z" />
    <glyph glyph-name="uni030A" unicode="&#x30a;" horiz-adv-x="0" 
d="M66 577q-44 0 -71 26t-27 69q0 48 33.5 80.5t82.5 32.5q44 0 71 -26t27 -69q0 -48 -33.5 -80.5t-82.5 -32.5zM69 636q21 0 35.5 15.5t14.5 38.5q0 16 -10.5 26t-27.5 10q-21 0 -35.5 -15.5t-14.5 -38.5q0 -16 10.5 -26t27.5 -10z" />
    <glyph glyph-name="uni030B" unicode="&#x30b;" horiz-adv-x="0" 
d="M-92 594l110 132h112l-133 -132h-89zM90 594l110 132h112l-133 -132h-89z" />
    <glyph glyph-name="uni030C" unicode="&#x30c;" horiz-adv-x="0" 
d="M15 594l-88 132h84l56 -69l80 69h94l-136 -132h-90z" />
    <glyph glyph-name="uni0312" unicode="&#x312;" horiz-adv-x="0" 
d="M10 590l11 62q10 57 32.5 79.5t87.5 22.5l-7 -42q-46 0 -54 -44h42l-14 -78h-98z" />
    <glyph glyph-name="uni0326" unicode="&#x326;" horiz-adv-x="0" 
d="M-141 -238l7 42q46 0 54 44h-42l14 78h98l-11 -62q-10 -57 -32.5 -79.5t-87.5 -22.5z" />
    <glyph glyph-name="uni0327" unicode="&#x327;" horiz-adv-x="0" 
d="M-97 -204q-61 0 -103 21l26 47q26 -17 61 -17q28 0 44 9.5t16 26.5q0 10 -10 13t-40 3h-30l64 116h56l-40 -73q82 -3 82 -63q0 -83 -126 -83z" />
    <glyph glyph-name="uni0328" unicode="&#x328;" horiz-adv-x="0" 
d="M-56 -202q-48 0 -74 19.5t-26 56.5q0 92 167 171l27 -38q-51 -26 -81.5 -56.5t-30.5 -56.5q0 -28 37 -28q25 0 60 16l-13 -71q-25 -13 -66 -13z" />
    <glyph glyph-name="uni0394" unicode="&#x394;" horiz-adv-x="596" 
d="M-36 0l361 680h94l123 -680h-578zM104 83h330l-83 470z" />
    <glyph glyph-name="uni03A9" unicode="&#x3a9;" horiz-adv-x="654" 
d="M23 0l14 82h83q-58 47 -58 142q0 29 6 62l24 137q47 269 307 269q227 0 227 -198q0 -38 -7 -77l-24 -137q-24 -138 -117 -198h77l-14 -82h-213l13 75q135 38 162 194l27 154q6 33 6 60q0 65 -34.5 96t-108.5 31q-90 0 -142.5 -46.5t-69.5 -144.5l-27 -154q-5 -28 -5 -53
q0 -110 100 -137l-13 -75h-213z" />
    <glyph glyph-name="uni03BC" unicode="&#x3bc;" horiz-adv-x="582" 
d="M5 -182l124 698h88l-59 -333q-4 -21 -4 -43q0 -38 17 -55t54 -17q93 0 173 119l58 329h88l-91 -516h-75l11 78q-80 -90 -181 -90q-50 0 -81 20l-34 -190h-88z" />
    <glyph glyph-name="pi" unicode="&#x3c0;" horiz-adv-x="592" 
d="M62 0l78 440h-95l13 76h561l-13 -76h-94l-52 -295q-3 -16 -3 -32q0 -22 11 -29.5t40 -7.5h34l-13 -76h-60q-52 0 -76.5 22t-24.5 72q0 26 5 54l51 292h-196l-78 -440h-88z" />
    <glyph glyph-name="Wgrave" unicode="&#x1e80;" horiz-adv-x="862" 
d="M504 749l-107 132h105l86 -132h-84zM148 0l-64 680h90l45 -532l240 532h88l53 -534l233 534h93l-302 -680h-92l-54 527l-239 -527h-91z" />
    <glyph glyph-name="wgrave" unicode="&#x1e81;" horiz-adv-x="775" 
d="M433 594l-107 132h105l86 -132h-84zM127 0l-71 516h90l47 -400l194 400h87l54 -402l188 402h93l-251 -516h-94l-54 389l-189 -389h-94z" />
    <glyph glyph-name="Wacute" unicode="&#x1e82;" horiz-adv-x="862" 
d="M444 749l134 132h115l-155 -132h-94zM148 0l-64 680h90l45 -532l240 532h88l53 -534l233 534h93l-302 -680h-92l-54 527l-239 -527h-91z" />
    <glyph glyph-name="wacute" unicode="&#x1e83;" horiz-adv-x="775" 
d="M373 594l134 132h115l-155 -132h-94zM127 0l-71 516h90l47 -400l194 400h87l54 -402l188 402h93l-251 -516h-94l-54 389l-189 -389h-94z" />
    <glyph glyph-name="Wdieresis" unicode="&#x1e84;" horiz-adv-x="862" 
d="M383 764l17 98h98l-17 -98h-98zM561 764l17 98h98l-17 -98h-98zM148 0l-64 680h90l45 -532l240 532h88l53 -534l233 534h93l-302 -680h-92l-54 527l-239 -527h-91z" />
    <glyph glyph-name="wdieresis" unicode="&#x1e85;" horiz-adv-x="775" 
d="M312 609l17 98h98l-17 -98h-98zM490 609l17 98h98l-17 -98h-98zM127 0l-71 516h90l47 -400l194 400h87l54 -402l188 402h93l-251 -516h-94l-54 389l-189 -389h-94z" />
    <glyph glyph-name="uni1E9E" unicode="&#x1e9e;" horiz-adv-x="632" 
d="M32 0l83 471q20 109 82.5 159t180.5 50h247l-13 -74l-198 -217q97 -5 138.5 -42.5t41.5 -118.5q0 -111 -67.5 -169.5t-196.5 -58.5h-120l14 82h108q83 0 127.5 35t44.5 102q0 50 -31.5 69.5t-112.5 19.5h-76l13 71l198 219h-118q-77 0 -119 -32t-54 -101l-82 -465h-90z
" />
    <glyph glyph-name="Ygrave" unicode="&#x1ef2;" horiz-adv-x="552" 
d="M349 749l-107 132h105l86 -132h-84zM185 0l51 291l-172 389h99l132 -297l235 297h106l-310 -392l-51 -288h-90z" />
    <glyph glyph-name="ygrave" unicode="&#x1ef3;" horiz-adv-x="472" 
d="M281 594l-107 132h105l86 -132h-84zM-21 -182l14 76h42q30 0 47.5 12t34.5 44l38 74l-99 492h91l70 -381l195 381h94l-305 -581q-36 -68 -71.5 -92.5t-95.5 -24.5h-55z" />
    <glyph glyph-name="uni2002" unicode="&#x2002;" horiz-adv-x="500" 
 />
    <glyph glyph-name="uni2003" unicode="&#x2003;" horiz-adv-x="900" 
 />
    <glyph glyph-name="uni2007" unicode="&#x2007;" horiz-adv-x="602" 
 />
    <glyph glyph-name="uni2008" unicode="&#x2008;" horiz-adv-x="278" 
 />
    <glyph glyph-name="uni200B" unicode="&#x200b;" horiz-adv-x="0" 
 />
    <glyph glyph-name="figuredash" unicode="&#x2012;" horiz-adv-x="602" 
d="M30 256l13 76h542l-13 -76h-542z" />
    <glyph glyph-name="endash" unicode="&#x2013;" horiz-adv-x="500" 
d="M30 256l13 76h440l-13 -76h-440z" />
    <glyph glyph-name="emdash" unicode="&#x2014;" horiz-adv-x="900" 
d="M30 256l13 76h840l-13 -76h-840z" />
    <glyph glyph-name="quoteleft" unicode="&#x2018;" horiz-adv-x="254" 
d="M109 456l18 102q12 68 45 100t90 34l-10 -56q-20 -1 -38 -18.5t-22 -42.5l-3 -17h41l-18 -102h-103z" />
    <glyph glyph-name="quoteright" unicode="&#x2019;" horiz-adv-x="254" 
d="M102 444l10 56q20 1 38 18.5t22 42.5l3 17h-41l18 102h103l-18 -102q-12 -68 -45 -100t-90 -34z" />
    <glyph glyph-name="quotesinglbase" unicode="&#x201a;" horiz-adv-x="254" 
d="M0 -134l10 56q20 1 38 18.5t22 42.5l3 17h-41l18 102h103l-18 -102q-12 -68 -45 -100t-90 -34z" />
    <glyph glyph-name="quotedblleft" unicode="&#x201c;" horiz-adv-x="445" 
d="M109 456l18 102q12 68 45 100t90 34l-10 -56q-20 -1 -38 -18.5t-22 -42.5l-3 -17h41l-18 -102h-103zM300 456l18 102q12 68 45 100t90 34l-10 -56q-20 -1 -38 -18.5t-22 -42.5l-3 -17h41l-18 -102h-103z" />
    <glyph glyph-name="quotedblright" unicode="&#x201d;" horiz-adv-x="445" 
d="M102 444l10 56q20 1 38 18.5t22 42.5l3 17h-41l18 102h103l-18 -102q-12 -68 -45 -100t-90 -34zM293 444l10 56q20 1 38 18.5t22 42.5l3 17h-41l18 102h103l-18 -102q-12 -68 -45 -100t-90 -34z" />
    <glyph glyph-name="quotedblbase" unicode="&#x201e;" horiz-adv-x="445" 
d="M0 -134l10 56q20 1 38 18.5t22 42.5l3 17h-41l18 102h103l-18 -102q-12 -68 -45 -100t-90 -34zM191 -134l10 56q20 1 38 18.5t22 42.5l3 17h-41l18 102h103l-18 -102q-12 -68 -45 -100t-90 -34z" />
    <glyph glyph-name="dagger" unicode="&#x2020;" horiz-adv-x="594" 
d="M174 -182l95 540l-215 -7l16 91l213 -7l43 245h88l-43 -246l217 8l-16 -91l-215 8l-95 -541h-88z" />
    <glyph glyph-name="daggerdbl" unicode="&#x2021;" horiz-adv-x="594" 
d="M174 -182l40 225l-215 -7l16 91l212 -7l46 258l-215 -7l16 91l212 -7l40 225h88l-40 -226l218 8l-16 -91l-215 8l-46 -260l218 8l-16 -91l-215 8l-40 -226h-88z" />
    <glyph glyph-name="bullet" unicode="&#x2022;" horiz-adv-x="500" 
d="M132 184l39 219h210l-39 -219h-210z" />
    <glyph glyph-name="ellipsis" unicode="&#x2026;" horiz-adv-x="900" 
d="M54 0l17 102h102l-17 -102h-102zM354 0l17 102h102l-17 -102h-102zM654 0l17 102h102l-17 -102h-102z" />
    <glyph glyph-name="perthousand" unicode="&#x2030;" horiz-adv-x="1109" 
d="M202 314q-65 0 -98 28t-33 78q0 16 3 32l19 108q23 132 163 132q65 0 98 -28t33 -78q0 -16 -3 -32l-19 -108q-23 -132 -163 -132zM97 -12l527 704h78l-527 -704h-78zM204 379q76 0 89 74l18 102q2 12 2 25q0 47 -59 47q-76 0 -89 -74l-18 -102q-2 -12 -2 -25
q0 -47 59 -47zM542 -12q-65 0 -98 28t-33 78q0 16 3 32l19 108q23 132 163 132q65 0 98 -28t33 -78q0 -16 -3 -32l-19 -108q-23 -132 -163 -132zM882 -12q-65 0 -98 28t-33 78q0 16 3 32l19 108q23 132 163 132q65 0 98 -28t33 -78q0 -16 -3 -32l-19 -108
q-23 -132 -163 -132zM544 53q76 0 89 74l18 102q2 12 2 25q0 47 -59 47q-76 0 -89 -74l-18 -102q-2 -12 -2 -25q0 -47 59 -47zM884 53q76 0 89 74l18 102q2 12 2 25q0 47 -59 47q-76 0 -89 -74l-18 -102q-2 -12 -2 -25q0 -47 59 -47z" />
    <glyph glyph-name="guilsinglleft" unicode="&#x2039;" horiz-adv-x="273" 
d="M131 82l-110 178l168 175h101l-177 -183l105 -170h-87z" />
    <glyph glyph-name="guilsinglright" unicode="&#x203a;" horiz-adv-x="273" 
d="M-17 81l177 183l-105 170h87l110 -178l-168 -175h-101z" />
    <glyph glyph-name="fraction" unicode="&#x2044;" horiz-adv-x="107" 
d="M-215 -12l489 704h77l-489 -704h-77z" />
    <glyph glyph-name="uni2070" unicode="&#x2070;" 
d="M214 404q-127 0 -127 105q0 17 3 33l26 147q23 133 161 133q127 0 127 -105q0 -17 -3 -33l-26 -147q-23 -133 -161 -133zM217 469q73 0 86 75l25 142q2 12 2 22q0 49 -56 49q-72 0 -86 -75l-25 -142q-2 -12 -2 -22q0 -49 56 -49z" />
    <glyph glyph-name="uni2074" unicode="&#x2074;" 
d="M251 416l15 86h-197l11 67l236 241h77l-43 -244h47l-11 -64h-47l-15 -86h-73zM161 566h116l26 148z" />
    <glyph glyph-name="uni2075" unicode="&#x2075;" 
d="M210 404q-61 0 -94 25.5t-33 70.5q0 12 1 18h70q-1 -4 -1 -9q0 -40 60 -40q45 0 70 23.5t25 61.5q0 50 -56 50q-48 0 -82 -23h-60l52 229h245l-12 -67h-183l-22 -93q35 19 82 19q109 0 109 -107q0 -72 -45.5 -115t-125.5 -43z" />
    <glyph glyph-name="uni2076" unicode="&#x2076;" 
d="M216 404q-61 0 -93.5 27.5t-32.5 77.5q0 15 3 32l26 147q24 134 164 134q62 0 93 -24.5t31 -66.5q0 -9 -2 -23h-70q1 4 1 10q0 39 -53 39q-39 0 -63 -20t-30 -56l-8 -46q37 33 96 33q105 0 105 -107q0 -71 -44 -114t-123 -43zM223 469q41 0 64.5 26t23.5 63q0 46 -51 46
q-61 0 -93 -52l-2 -12q-2 -12 -2 -20q0 -24 15.5 -37.5t44.5 -13.5z" />
    <glyph glyph-name="uni2077" unicode="&#x2077;" 
d="M124 416q43 198 206 326h-211l12 68h297l-13 -71q-174 -133 -215 -323h-76z" />
    <glyph glyph-name="uni2078" unicode="&#x2078;" 
d="M211 404q-137 0 -137 102q0 86 84 115v2q-39 21 -39 74q0 59 43 92t117 33q126 0 126 -100q0 -75 -69 -102v-2q48 -23 48 -85q0 -63 -46.5 -96t-126.5 -33zM247 649q41 0 64 18t23 47q0 43 -57 43q-41 0 -65 -18t-24 -48q0 -42 59 -42zM214 469q47 0 72.5 18t25.5 50
q0 47 -66 47q-45 0 -71.5 -19t-26.5 -52q0 -44 66 -44z" />
    <glyph glyph-name="uni2079" unicode="&#x2079;" 
d="M209 404q-62 0 -93 24.5t-31 66.5q0 9 2 23h70q-1 -4 -1 -10q0 -39 53 -39q39 0 63 20t30 56l8 46q-37 -33 -96 -33q-105 0 -105 107q0 71 44 114t123 43q61 0 93.5 -27.5t32.5 -77.5q0 -15 -3 -32l-26 -147q-24 -134 -164 -134zM232 622q61 0 93 52l2 12q2 12 2 20
q0 24 -15.5 37.5t-44.5 13.5q-41 0 -64.5 -26t-23.5 -63q0 -46 51 -46z" />
    <glyph glyph-name="uni2080" unicode="&#x2080;" 
d="M120 -132q-127 0 -127 105q0 17 3 33l26 147q23 133 161 133q127 0 127 -105q0 -17 -3 -33l-26 -147q-23 -133 -161 -133zM123 -67q73 0 86 75l25 142q2 12 2 22q0 49 -56 49q-72 0 -86 -75l-25 -142q-2 -12 -2 -22q0 -49 56 -49z" />
    <glyph glyph-name="uni2081" unicode="&#x2081;" 
d="M16 -120l11 65h88l43 239q-40 -19 -104 -19l10 59q70 3 113 50h70l-58 -329h87l-11 -65h-249z" />
    <glyph glyph-name="uni2082" unicode="&#x2082;" 
d="M-24 -120l7 41q10 55 46.5 93.5t107.5 68.5q54 23 77.5 45t23.5 50q0 43 -54 43q-34 0 -56 -17.5t-27 -49.5l-1 -6h-70l3 17q21 121 155 121q123 0 123 -102q0 -52 -36 -91.5t-115 -73.5q-48 -21 -69.5 -36.5t-28.5 -35.5h208l-11 -67h-283z" />
    <glyph glyph-name="uni2083" unicode="&#x2083;" 
d="M120 -132q-63 0 -96 24.5t-33 67.5q0 14 2 26l2 12h70l-1 -6q-1 -6 -1 -11q0 -48 60 -48q43 0 66.5 19.5t23.5 52.5q0 23 -14.5 33t-51.5 10h-46l11 64h41q38 0 60 18.5t22 48.5q0 42 -53 42q-72 0 -82 -56l-1 -6h-69l2 11q21 116 154 116q122 0 122 -100q0 -76 -66 -101
v-2q44 -21 44 -79q0 -63 -44.5 -99.5t-121.5 -36.5z" />
    <glyph glyph-name="uni2084" unicode="&#x2084;" 
d="M157 -120l15 86h-197l11 67l236 241h77l-43 -244h47l-11 -64h-47l-15 -86h-73zM67 30h116l26 148z" />
    <glyph glyph-name="uni2085" unicode="&#x2085;" 
d="M116 -132q-61 0 -94 25.5t-33 70.5q0 12 1 18h70q-1 -4 -1 -9q0 -40 60 -40q45 0 70 23.5t25 61.5q0 50 -56 50q-48 0 -82 -23h-60l52 229h245l-12 -67h-183l-22 -93q35 19 82 19q109 0 109 -107q0 -72 -45.5 -115t-125.5 -43z" />
    <glyph glyph-name="uni2086" unicode="&#x2086;" 
d="M121 -132q-61 0 -93.5 27.5t-32.5 77.5q0 15 3 32l26 147q24 134 164 134q62 0 93 -24.5t31 -66.5q0 -9 -2 -23h-70q1 4 1 10q0 39 -53 39q-39 0 -63 -20t-30 -56l-8 -46q37 33 96 33q105 0 105 -107q0 -71 -44 -114t-123 -43zM128 -67q41 0 64.5 26t23.5 63q0 46 -51 46
q-61 0 -93 -52l-2 -12q-2 -12 -2 -20q0 -24 15.5 -37.5t44.5 -13.5z" />
    <glyph glyph-name="uni2087" unicode="&#x2087;" 
d="M30 -120q43 198 206 326h-211l12 68h297l-13 -71q-174 -133 -215 -323h-76z" />
    <glyph glyph-name="uni2088" unicode="&#x2088;" 
d="M117 -132q-137 0 -137 102q0 86 84 115v2q-39 21 -39 74q0 59 43 92t117 33q126 0 126 -100q0 -75 -69 -102v-2q48 -23 48 -85q0 -63 -46.5 -96t-126.5 -33zM153 113q41 0 64 18t23 47q0 43 -57 43q-41 0 -65 -18t-24 -48q0 -42 59 -42zM120 -67q47 0 72.5 18t25.5 50
q0 47 -66 47q-45 0 -71.5 -19t-26.5 -52q0 -44 66 -44z" />
    <glyph glyph-name="uni2089" unicode="&#x2089;" 
d="M114 -132q-62 0 -93 24.5t-31 66.5q0 9 2 23h70q-1 -4 -1 -10q0 -39 53 -39q39 0 63 20t30 56l8 46q-37 -33 -96 -33q-105 0 -105 107q0 71 44 114t123 43q61 0 93.5 -27.5t32.5 -77.5q0 -15 -3 -32l-26 -147q-24 -134 -164 -134zM137 86q61 0 93 52l2 12q2 12 2 20
q0 24 -15.5 37.5t-44.5 13.5q-41 0 -64.5 -26t-23.5 -63q0 -46 51 -46z" />
    <glyph glyph-name="Euro" unicode="&#x20ac;" horiz-adv-x="602" 
d="M286 -12q-98 0 -149.5 45t-51.5 131q0 26 5 55l2 11h-53l12 70h53l14 80h-52l12 70h53l3 18q18 109 86 166.5t179 57.5q193 0 193 -169q0 -25 -2 -38h-84q2 20 2 30q0 97 -114 97q-147 0 -174 -151l-2 -11h211l-24 -70h-199l-14 -80h182l-22 -70h-173l-2 -14
q-4 -34 -4 -42q0 -106 118 -106q133 0 162 127h86q-44 -207 -253 -207z" />
    <glyph glyph-name="uni20B9" unicode="&#x20b9;" horiz-adv-x="602" 
d="M338 0l-260 270l12 66h117q159 0 194 109h-308l27 72h290q-2 51 -33.5 71t-107.5 20h-147l26 72h489l-26 -72h-155q35 -32 38 -91h115l-27 -72h-92q-17 -87 -90.5 -134t-193.5 -47l253 -264h-121z" />
    <glyph glyph-name="uni2113" unicode="&#x2113;" horiz-adv-x="470" 
d="M219 -12q-78 0 -118.5 37t-40.5 106q0 28 5 58l64 363q33 190 202 190q139 0 139 -133q0 -111 -85.5 -213t-228.5 -186l-5 -31q-3 -18 -3 -33q0 -77 87 -77q64 0 130 47l25 -74q-77 -54 -171 -54zM174 310q95 61 152 136t57 153q0 30 -12 46t-47 16q-88 0 -109 -119z" />
    <glyph glyph-name="uni2116" unicode="&#x2116;" horiz-adv-x="1081" 
d="M47 0l120 680h101l225 -529l93 529h87l-119 -680h-87l-236 552l-97 -552h-87zM846 144q-142 0 -142 120q0 21 4 41l11 63q27 157 183 157q142 0 142 -120q0 -21 -4 -41l-11 -63q-27 -157 -183 -157zM848 208q90 0 107 97l11 63q3 16 3 31q0 62 -69 62q-90 0 -107 -97
l-11 -63q-3 -16 -3 -31q0 -62 69 -62zM657 0l11 65h316l-11 -65h-316z" />
    <glyph glyph-name="uni2117" unicode="&#x2117;" horiz-adv-x="772" 
d="M400 -12q-153 0 -252.5 99.5t-99.5 252.5t99.5 252.5t252.5 99.5t252.5 -99.5t99.5 -252.5t-99.5 -252.5t-252.5 -99.5zM400 57q125 0 200.5 77.5t75.5 205.5t-75.5 205.5t-200.5 77.5t-200.5 -77.5t-75.5 -205.5t75.5 -205.5t200.5 -77.5zM277 161v358h151
q70 0 102 -27.5t32 -89.5t-32 -89.5t-102 -27.5h-73v-124h-78zM355 351h65q35 0 49.5 11.5t14.5 39.5t-15 40t-49 12h-65v-103z" />
    <glyph glyph-name="uni2120" unicode="&#x2120;" horiz-adv-x="705" 
d="M155 347q-108 0 -108 78q0 7 2 23h66q-2 -12 -2 -16q0 -32 43 -32q30 0 48.5 13t18.5 34q0 17 -12 26t-47 17q-49 11 -68.5 30t-19.5 54q0 52 34.5 83t96.5 31q49 0 75.5 -20t26.5 -57q0 -8 -2 -22h-66q1 5 1 14q0 32 -37 32q-29 0 -45.5 -12.5t-16.5 -34.5q0 -17 12 -26
t47 -17q49 -11 68.5 -30t19.5 -54q0 -54 -35 -84t-100 -30zM338 355l57 325h95l35 -226l114 226h103l-57 -325h-68l43 244l-125 -244h-51l-39 244l-43 -244h-64z" />
    <glyph glyph-name="trademark" unicode="&#x2122;" horiz-adv-x="683" 
d="M105 355l47 266h-88l10 59h244l-10 -59h-88l-47 -266h-68zM316 355l57 325h95l35 -226l114 226h103l-57 -325h-68l43 244l-125 -244h-51l-39 244l-43 -244h-64z" />
    <glyph glyph-name="uni2126" unicode="&#x2126;" horiz-adv-x="654" 
d="M23 0l14 82h83q-58 47 -58 142q0 29 6 62l24 137q47 269 307 269q227 0 227 -198q0 -38 -7 -77l-24 -137q-24 -138 -117 -198h77l-14 -82h-213l13 75q135 38 162 194l27 154q6 33 6 60q0 65 -34.5 96t-108.5 31q-90 0 -142.5 -46.5t-69.5 -144.5l-27 -154q-5 -28 -5 -53
q0 -110 100 -137l-13 -75h-213z" />
    <glyph glyph-name="estimated" unicode="&#x212e;" horiz-adv-x="798" 
d="M421 -12q-154 0 -262.5 103t-108.5 249t108.5 249t262.5 103t262.5 -103t108.5 -249v-9h-601q-5 0 -5 -5v-191q0 -10 9 -21q89 -105 228 -105q69 0 132 31.5t107 85.5h54q-52 -64 -129.5 -101t-165.5 -37zM191 351h461q6 0 6 6v193q0 12 -10 22q-94 99 -225 99
q-135 0 -228 -103q-9 -11 -9 -22v-190q0 -5 5 -5z" />
    <glyph glyph-name="uni2153" unicode="&#x2153;" horiz-adv-x="839" 
d="M151 -12l489 704h77l-489 -704h-77zM87 286l11 65h88l43 239q-40 -19 -104 -19l10 59q70 3 113 50h70l-58 -329h87l-11 -65h-249zM614 -12q-63 0 -96 24.5t-33 67.5q0 14 2 26l2 12h70l-1 -6q-1 -6 -1 -11q0 -48 60 -48q43 0 66.5 19.5t23.5 52.5q0 23 -14.5 33t-51.5 10
h-46l11 64h41q38 0 60 18.5t22 48.5q0 42 -53 42q-72 0 -82 -56l-1 -6h-69l2 11q21 116 154 116q122 0 122 -100q0 -76 -66 -101v-2q44 -21 44 -79q0 -63 -44.5 -99.5t-121.5 -36.5z" />
    <glyph glyph-name="uni2154" unicode="&#x2154;" horiz-adv-x="839" 
d="M48 286l7 41q10 55 46.5 93.5t107.5 68.5q54 23 77.5 45t23.5 50q0 43 -54 43q-34 0 -56 -17.5t-27 -49.5l-1 -6h-70l3 17q21 121 155 121q123 0 123 -102q0 -52 -36 -91.5t-115 -73.5q-48 -21 -69.5 -36.5t-28.5 -35.5h208l-11 -67h-283zM151 -12l489 704h77l-489 -704
h-77zM614 -12q-63 0 -96 24.5t-33 67.5q0 14 2 26l2 12h70l-1 -6q-1 -6 -1 -11q0 -48 60 -48q43 0 66.5 19.5t23.5 52.5q0 23 -14.5 33t-51.5 10h-46l11 64h41q38 0 60 18.5t22 48.5q0 42 -53 42q-72 0 -82 -56l-1 -6h-69l2 11q21 116 154 116q122 0 122 -100
q0 -76 -66 -101v-2q44 -21 44 -79q0 -63 -44.5 -99.5t-121.5 -36.5z" />
    <glyph glyph-name="uni2155" unicode="&#x2155;" horiz-adv-x="839" 
d="M151 -12l489 704h77l-489 -704h-77zM87 286l11 65h88l43 239q-40 -19 -104 -19l10 59q70 3 113 50h70l-58 -329h87l-11 -65h-249zM610 -12q-61 0 -94 25.5t-33 70.5q0 12 1 18h70q-1 -4 -1 -9q0 -40 60 -40q45 0 70 23.5t25 61.5q0 50 -56 50q-48 0 -82 -23h-60l52 229
h245l-12 -67h-183l-22 -93q35 19 82 19q109 0 109 -107q0 -72 -45.5 -115t-125.5 -43z" />
    <glyph glyph-name="uni2156" unicode="&#x2156;" horiz-adv-x="839" 
d="M48 286l7 41q10 55 46.5 93.5t107.5 68.5q54 23 77.5 45t23.5 50q0 43 -54 43q-34 0 -56 -17.5t-27 -49.5l-1 -6h-70l3 17q21 121 155 121q123 0 123 -102q0 -52 -36 -91.5t-115 -73.5q-48 -21 -69.5 -36.5t-28.5 -35.5h208l-11 -67h-283zM151 -12l489 704h77l-489 -704
h-77zM610 -12q-61 0 -94 25.5t-33 70.5q0 12 1 18h70q-1 -4 -1 -9q0 -40 60 -40q45 0 70 23.5t25 61.5q0 50 -56 50q-48 0 -82 -23h-60l52 229h245l-12 -67h-183l-22 -93q35 19 82 19q109 0 109 -107q0 -72 -45.5 -115t-125.5 -43z" />
    <glyph glyph-name="uni2157" unicode="&#x2157;" horiz-adv-x="839" 
d="M191 274q-63 0 -96 24.5t-33 67.5q0 14 2 26l2 12h70l-1 -6q-1 -6 -1 -11q0 -48 60 -48q43 0 66.5 19.5t23.5 52.5q0 23 -14.5 33t-51.5 10h-46l11 64h41q38 0 60 18.5t22 48.5q0 42 -53 42q-72 0 -82 -56l-1 -6h-69l2 11q21 116 154 116q122 0 122 -100q0 -76 -66 -101
v-2q44 -21 44 -79q0 -63 -44.5 -99.5t-121.5 -36.5zM151 -12l489 704h77l-489 -704h-77zM610 -12q-61 0 -94 25.5t-33 70.5q0 12 1 18h70q-1 -4 -1 -9q0 -40 60 -40q45 0 70 23.5t25 61.5q0 50 -56 50q-48 0 -82 -23h-60l52 229h245l-12 -67h-183l-22 -93q35 19 82 19
q109 0 109 -107q0 -72 -45.5 -115t-125.5 -43z" />
    <glyph glyph-name="uni2158" unicode="&#x2158;" horiz-adv-x="839" 
d="M151 -12l489 704h77l-489 -704h-77zM228 286l15 86h-197l11 67l236 241h77l-43 -244h47l-11 -64h-47l-15 -86h-73zM138 436h116l26 148zM610 -12q-61 0 -94 25.5t-33 70.5q0 12 1 18h70q-1 -4 -1 -9q0 -40 60 -40q45 0 70 23.5t25 61.5q0 50 -56 50q-48 0 -82 -23h-60
l52 229h245l-12 -67h-183l-22 -93q35 19 82 19q109 0 109 -107q0 -72 -45.5 -115t-125.5 -43z" />
    <glyph glyph-name="uni2159" unicode="&#x2159;" horiz-adv-x="839" 
d="M151 -12l489 704h77l-489 -704h-77zM87 286l11 65h88l43 239q-40 -19 -104 -19l10 59q70 3 113 50h70l-58 -329h87l-11 -65h-249zM615 -12q-61 0 -93.5 27.5t-32.5 77.5q0 15 3 32l26 147q24 134 164 134q62 0 93 -24.5t31 -66.5q0 -9 -2 -23h-70q1 4 1 10q0 39 -53 39
q-39 0 -63 -20t-30 -56l-8 -46q37 33 96 33q105 0 105 -107q0 -71 -44 -114t-123 -43zM622 53q41 0 64.5 26t23.5 63q0 46 -51 46q-61 0 -93 -52l-2 -12q-2 -12 -2 -20q0 -24 15.5 -37.5t44.5 -13.5z" />
    <glyph glyph-name="uni215A" unicode="&#x215a;" horiz-adv-x="839" 
d="M151 -12l489 704h77l-489 -704h-77zM188 274q-61 0 -94 25.5t-33 70.5q0 12 1 18h70q-1 -4 -1 -9q0 -40 60 -40q45 0 70 23.5t25 61.5q0 50 -56 50q-48 0 -82 -23h-60l52 229h245l-12 -67h-183l-22 -93q35 19 82 19q109 0 109 -107q0 -72 -45.5 -115t-125.5 -43zM615 -12
q-61 0 -93.5 27.5t-32.5 77.5q0 15 3 32l26 147q24 134 164 134q62 0 93 -24.5t31 -66.5q0 -9 -2 -23h-70q1 4 1 10q0 39 -53 39q-39 0 -63 -20t-30 -56l-8 -46q37 33 96 33q105 0 105 -107q0 -71 -44 -114t-123 -43zM622 53q41 0 64.5 26t23.5 63q0 46 -51 46
q-61 0 -93 -52l-2 -12q-2 -12 -2 -20q0 -24 15.5 -37.5t44.5 -13.5z" />
    <glyph glyph-name="oneeighth" unicode="&#x215b;" horiz-adv-x="839" 
d="M151 -12l489 704h77l-489 -704h-77zM87 286l11 65h88l43 239q-40 -19 -104 -19l10 59q70 3 113 50h70l-58 -329h87l-11 -65h-249zM611 -12q-137 0 -137 102q0 86 84 115v2q-39 21 -39 74q0 59 43 92t117 33q126 0 126 -100q0 -75 -69 -102v-2q48 -23 48 -85
q0 -63 -46.5 -96t-126.5 -33zM647 233q41 0 64 18t23 47q0 43 -57 43q-41 0 -65 -18t-24 -48q0 -42 59 -42zM614 53q47 0 72.5 18t25.5 50q0 47 -66 47q-45 0 -71.5 -19t-26.5 -52q0 -44 66 -44z" />
    <glyph glyph-name="threeeighths" unicode="&#x215c;" horiz-adv-x="839" 
d="M191 274q-63 0 -96 24.5t-33 67.5q0 14 2 26l2 12h70l-1 -6q-1 -6 -1 -11q0 -48 60 -48q43 0 66.5 19.5t23.5 52.5q0 23 -14.5 33t-51.5 10h-46l11 64h41q38 0 60 18.5t22 48.5q0 42 -53 42q-72 0 -82 -56l-1 -6h-69l2 11q21 116 154 116q122 0 122 -100q0 -76 -66 -101
v-2q44 -21 44 -79q0 -63 -44.5 -99.5t-121.5 -36.5zM151 -12l489 704h77l-489 -704h-77zM611 -12q-137 0 -137 102q0 86 84 115v2q-39 21 -39 74q0 59 43 92t117 33q126 0 126 -100q0 -75 -69 -102v-2q48 -23 48 -85q0 -63 -46.5 -96t-126.5 -33zM647 233q41 0 64 18t23 47
q0 43 -57 43q-41 0 -65 -18t-24 -48q0 -42 59 -42zM614 53q47 0 72.5 18t25.5 50q0 47 -66 47q-45 0 -71.5 -19t-26.5 -52q0 -44 66 -44z" />
    <glyph glyph-name="fiveeighths" unicode="&#x215d;" horiz-adv-x="839" 
d="M151 -12l489 704h77l-489 -704h-77zM188 274q-61 0 -94 25.5t-33 70.5q0 12 1 18h70q-1 -4 -1 -9q0 -40 60 -40q45 0 70 23.5t25 61.5q0 50 -56 50q-48 0 -82 -23h-60l52 229h245l-12 -67h-183l-22 -93q35 19 82 19q109 0 109 -107q0 -72 -45.5 -115t-125.5 -43zM611 -12
q-137 0 -137 102q0 86 84 115v2q-39 21 -39 74q0 59 43 92t117 33q126 0 126 -100q0 -75 -69 -102v-2q48 -23 48 -85q0 -63 -46.5 -96t-126.5 -33zM647 233q41 0 64 18t23 47q0 43 -57 43q-41 0 -65 -18t-24 -48q0 -42 59 -42zM614 53q47 0 72.5 18t25.5 50q0 47 -66 47
q-45 0 -71.5 -19t-26.5 -52q0 -44 66 -44z" />
    <glyph glyph-name="seveneighths" unicode="&#x215e;" horiz-adv-x="839" 
d="M124 -12l489 704h77l-489 -704h-77zM101 286q43 198 206 326h-211l12 68h297l-13 -71q-174 -133 -215 -323h-76zM611 -12q-137 0 -137 102q0 86 84 115v2q-39 21 -39 74q0 59 43 92t117 33q126 0 126 -100q0 -75 -69 -102v-2q48 -23 48 -85q0 -63 -46.5 -96t-126.5 -33z
M647 233q41 0 64 18t23 47q0 43 -57 43q-41 0 -65 -18t-24 -48q0 -42 59 -42zM614 53q47 0 72.5 18t25.5 50q0 47 -66 47q-45 0 -71.5 -19t-26.5 -52q0 -44 66 -44z" />
    <glyph glyph-name="arrowleft" unicode="&#x2190;" horiz-adv-x="800" 
d="M381 26l-313 314l313 314l50 -50l-225 -224h554v-80h-554l225 -224z" />
    <glyph glyph-name="arrowup" unicode="&#x2191;" horiz-adv-x="800" 
d="M375 0v553l-227 -230l-50 50l318 319l318 -319l-50 -50l-227 230v-553h-82z" />
    <glyph glyph-name="arrowright" unicode="&#x2192;" horiz-adv-x="800" 
d="M448 28l-50 50l225 224h-554v80h554l-225 224l50 50l313 -314z" />
    <glyph glyph-name="arrowdown" unicode="&#x2193;" horiz-adv-x="800" 
d="M413 -12l-318 319l50 50l227 -230v553h82v-553l227 230l50 -50z" />
    <glyph glyph-name="arrowboth" unicode="&#x2194;" horiz-adv-x="1000" 
d="M361 46l-293 294l293 294l50 -50l-205 -204h616l-205 204l50 50l293 -294l-293 -294l-50 50l205 204h-616l205 -204z" />
    <glyph glyph-name="arrowupdn" unicode="&#x2195;" horiz-adv-x="800" 
d="M414 -84l-294 294l50 50l203 -205v570l-203 -205l-50 50l294 294l294 -294l-50 -50l-203 205v-570l203 205l50 -50z" />
    <glyph glyph-name="uni2196" unicode="&#x2196;" horiz-adv-x="800" 
d="M652 47l-433 433l1 -312h-73v440h438v-69l-314 1l437 -437z" />
    <glyph glyph-name="uni2197" unicode="&#x2197;" horiz-adv-x="800" 
d="M172 47l-56 56l437 437l-314 -1v69h438v-440h-73l1 312z" />
    <glyph glyph-name="uni2198" unicode="&#x2198;" horiz-adv-x="800" 
d="M244 72v69l314 -1l-437 437l56 56l433 -433l-1 312h73v-440h-438z" />
    <glyph glyph-name="uni2199" unicode="&#x2199;" horiz-adv-x="800" 
d="M152 72v439h73l-1 -311l433 433l56 -56l-437 -437l314 1v-69h-438z" />
    <glyph glyph-name="partialdiff" unicode="&#x2202;" horiz-adv-x="604" 
d="M213 -12q-87 0 -134 47t-47 135q0 121 80.5 209.5t203.5 88.5q120 0 164 -90q11 64 11 120q0 86 -31.5 126.5t-113.5 40.5q-83 0 -149 -43l15 83q60 37 154 37q119 0 166 -58t47 -177q0 -93 -24 -184t-68.5 -166.5t-116 -122t-157.5 -46.5zM225 65q76 0 133 56.5
t91 147.5q-6 56 -41 89t-92 33q-84 0 -140.5 -66.5t-56.5 -149.5q0 -110 106 -110z" />
    <glyph glyph-name="emptyset" unicode="&#x2205;" horiz-adv-x="838" 
d="M134 -12l-53 53l75 75q-75 96 -75 224q0 152 100.5 252t251.5 100q128 0 224 -75l75 75l53 -53l-75 -75q75 -96 75 -224q0 -152 -100.5 -252t-251.5 -100q-128 0 -224 75zM211 171l391 391q-69 54 -169 54q-120 0 -197 -77.5t-77 -198.5q0 -97 52 -169zM433 64
q120 0 197 77.5t77 198.5q0 97 -52 169l-391 -391q69 -54 169 -54z" />
    <glyph glyph-name="uni2206" unicode="&#x2206;" horiz-adv-x="596" 
d="M-36 0l361 680h94l123 -680h-578zM104 83h330l-83 470z" />
    <glyph glyph-name="product" unicode="&#x220f;" horiz-adv-x="780" 
d="M19 -183l168 954h586l-168 -954h-86l154 876h-414l-154 -876h-86z" />
    <glyph glyph-name="summation" unicode="&#x2211;" horiz-adv-x="614" 
d="M-54 -183l15 82l384 395l-245 395l14 82h567l-13 -78h-467l250 -406l-379 -392h455l-14 -78h-567z" />
    <glyph glyph-name="minus" unicode="&#x2212;" horiz-adv-x="602" 
d="M58 271l14 76h490l-14 -76h-490z" />
    <glyph glyph-name="uni2215" unicode="&#x2215;" horiz-adv-x="398" 
d="M-52 -12l439 704h92l-439 -704h-92z" />
    <glyph glyph-name="uni2219" unicode="&#x2219;" horiz-adv-x="278" 
d="M88 257l18 102h103l-18 -102h-103z" />
    <glyph glyph-name="radical" unicode="&#x221a;" horiz-adv-x="602" 
d="M167 -183l-47 341h-82l14 76h135l41 -290l392 827h86l-456 -954h-83z" />
    <glyph glyph-name="infinity" unicode="&#x221e;" horiz-adv-x="923" 
d="M233 105q-82 0 -126 46t-44 128q0 104 66.5 178.5t171.5 74.5q73 0 114.5 -36.5t69.5 -102.5q55 73 109 106t119 33q81 0 125 -46t44 -127q0 -104 -67 -179t-172 -75q-73 0 -114.5 37t-68.5 102q-55 -73 -109 -106t-118 -33zM649 181q66 0 110.5 53t44.5 121
q0 49 -27 75.5t-78 26.5q-50 0 -93 -31t-94 -105q13 -34 22.5 -54.5t25.5 -42.5t38 -32.5t51 -10.5zM246 180q50 0 92.5 31t94.5 106q-13 34 -22.5 54t-25.5 42t-38 32.5t-51 10.5q-67 0 -111.5 -53t-44.5 -121q0 -49 27 -75.5t79 -26.5z" />
    <glyph glyph-name="integral" unicode="&#x222b;" horiz-adv-x="305" 
d="M-23 -194q-31 0 -66 11l13 75q21 -11 45 -11q39 0 63 25.5t34 84.5l109 618q16 93 56 134.5t109 41.5q27 0 67 -10l-13 -76q-22 11 -45 11q-79 0 -98 -110l-109 -618q-16 -93 -56 -134.5t-109 -41.5z" />
    <glyph glyph-name="approxequal" unicode="&#x2248;" horiz-adv-x="602" 
d="M426 328q-64 0 -121 53q-44 40 -81 40q-68 0 -88 -83h-69q15 77 57.5 118t107.5 41q64 0 121 -53q44 -40 81 -40q68 0 88 83h69q-15 -77 -57.5 -118t-107.5 -41zM385 100q-64 0 -121 53q-44 40 -81 40q-68 0 -88 -83h-69q15 77 57.5 118t107.5 41q64 0 121 -53
q44 -40 81 -40q68 0 88 83h69q-15 -77 -57.5 -118t-107.5 -41z" />
    <glyph glyph-name="notequal" unicode="&#x2260;" horiz-adv-x="602" 
d="M594 596l-113 -136h101l-14 -76h-150l-124 -150h248l-14 -76h-297l-114 -137h-91l114 137h-102l14 76h151l124 150h-249l14 76h298l113 136h91z" />
    <glyph glyph-name="lessequal" unicode="&#x2264;" horiz-adv-x="602" 
d="M524 130l-458 187l13 74l524 187l-16 -86l-403 -142l353 -142zM10 0l14 76h490l-14 -76h-490z" />
    <glyph glyph-name="greaterequal" unicode="&#x2265;" horiz-adv-x="602" 
d="M33 130l16 86l403 142l-353 142l13 78l458 -187l-13 -74zM10 0l14 76h490l-14 -76h-490z" />
    <glyph glyph-name="lozenge" unicode="&#x25ca;" horiz-adv-x="602" 
d="M252 -32l-206 372l333 372l205 -372zM269 96l224 251l-131 237l-224 -251z" />
    <glyph glyph-name="uniF8FF" unicode="&#xf8ff;" horiz-adv-x="649" 
d="M276 50q-101 0 -163 61t-62 163q0 101 64.5 163t185.5 62h50v116h157v-116h132v-149h-132v-51q0 -116 -63.5 -182.5t-168.5 -66.5zM279 205q72 0 72 92v53h-49q-89 0 -89 -76q0 -32 17.5 -50.5t48.5 -18.5z" />
    <glyph glyph-name="Iacute_J.loclNLD" horiz-adv-x="824" 
d="M150 749l134 132h115l-155 -132h-94zM717 749l134 132h115l-155 -132h-94zM47 0l120 680h90l-120 -680h-90zM475 -12q-101 0 -148 40.5t-47 130.5q0 28 6 63l2 11h87l-3 -17q-5 -28 -5 -51q0 -50 26.5 -72.5t86.5 -22.5q78 0 118.5 38t55.5 124l79 448h90l-81 -459
q-22 -123 -85 -178t-182 -55z" />
    <glyph glyph-name="iacute_j.loclNLD" horiz-adv-x="510" 
d="M112 594l134 132h115l-155 -132h-94zM367 594l134 132h115l-155 -132h-94zM38 0l91 516h88l-91 -516h-88zM175 -182l14 76h23q36 0 51.5 14.5t22.5 52.5l98 555h88l-98 -555q-14 -77 -49 -110t-102 -33h-48z" />
    <glyph glyph-name="i.loclTRK" horiz-adv-x="255" 
d="M141 609l17 98h96l-17 -98h-96zM38 0l91 516h88l-91 -516h-88z" />
    <glyph glyph-name="germandbls.calt" horiz-adv-x="632" 
d="M32 0l83 471q20 109 82.5 159t180.5 50h247l-13 -74l-198 -217q97 -5 138.5 -42.5t41.5 -118.5q0 -111 -67.5 -169.5t-196.5 -58.5h-120l14 82h108q83 0 127.5 35t44.5 102q0 50 -31.5 69.5t-112.5 19.5h-76l13 71l198 219h-118q-77 0 -119 -32t-54 -101l-82 -465h-90z
" />
    <glyph glyph-name="zero.pf" horiz-adv-x="628" 
d="M272 -12q-100 0 -152 44t-52 128q0 32 5 59l44 249q19 111 87.5 167.5t180.5 56.5q100 0 152 -44t52 -128q0 -31 -5 -59l-44 -249q-19 -111 -87.5 -167.5t-180.5 -56.5zM276 68q150 0 178 155l42 238q4 23 4 46q0 105 -119 105q-150 0 -178 -155l-42 -238q-4 -23 -4 -46
q0 -105 119 -105z" />
    <glyph glyph-name="one.pf" horiz-adv-x="428" 
d="M192 0l99 561q-69 -42 -196 -46l14 78q123 4 206 87h85l-120 -680h-88z" />
    <glyph glyph-name="two.pf" horiz-adv-x="571" 
d="M10 0l10 57q16 93 75 153t190 117q107 47 151.5 90.5t44.5 101.5q0 93 -117 93q-151 0 -175 -139l-2 -11h-86l5 28q17 98 85 150t179 52q199 0 199 -165q0 -88 -60 -152.5t-196 -122.5q-99 -42 -143.5 -79.5t-57.5 -89.5h379l-14 -83h-467z" />
    <glyph glyph-name="three.pf" horiz-adv-x="600" 
d="M257 -12q-103 0 -156.5 40t-53.5 114q0 17 4 40l4 23h86l-3 -17q-3 -16 -3 -29q0 -91 129 -91q83 0 132 39t49 106q0 49 -30.5 71.5t-102.5 22.5h-77l14 80h74q74 0 117 36.5t43 96.5q0 92 -115 92q-72 0 -115.5 -33t-53.5 -93l-1 -6h-85l3 17q16 92 83 143.5t178 51.5
q194 0 194 -160q0 -131 -121 -179v-2q82 -32 82 -136q0 -106 -74 -166.5t-201 -60.5z" />
    <glyph glyph-name="four.pf" horiz-adv-x="593" 
d="M344 0l27 156h-350l15 85l415 439h100l-78 -444h80l-14 -80h-80l-27 -156h-88zM140 236h245l57 320z" />
    <glyph glyph-name="five.pf" horiz-adv-x="574" 
d="M243 -12q-99 0 -153.5 42t-54.5 113q0 17 3 33h86q-1 -6 -1 -18q0 -44 32.5 -67t91.5 -23q90 0 142 51t52 130q0 115 -124 115q-80 0 -152 -52h-81l87 368h405l-15 -83h-326l-46 -197q66 44 154 44q187 0 187 -184q0 -121 -77 -196.5t-210 -75.5z" />
    <glyph glyph-name="six.pf" horiz-adv-x="626" 
d="M280 -12q-99 0 -153 44t-54 132q0 30 5 58l43 244q20 113 90.5 169.5t183.5 56.5q96 0 147 -40t51 -113q0 -20 -2 -31h-86q1 5 1 16q0 88 -115 88q-157 0 -185 -160l-16 -89q75 69 183 69q89 0 134.5 -43t45.5 -121q0 -128 -72.5 -204t-200.5 -76zM284 68
q85 0 132.5 51.5t47.5 135.5q0 97 -111 97q-121 0 -184 -113l-4 -20q-4 -23 -4 -43q0 -108 123 -108z" />
    <glyph glyph-name="seven.pf" horiz-adv-x="540" 
d="M91 0q75 353 371 596h-377l15 84h483l-15 -87q-311 -258 -383 -593h-94z" />
    <glyph glyph-name="eight.pf" horiz-adv-x="618" 
d="M261 -12q-219 0 -219 168q0 73 40 124t112 73v2q-76 34 -76 124q0 94 73 153.5t195 59.5q96 0 148.5 -41t52.5 -122q0 -132 -128 -176v-2q91 -34 91 -142q0 -102 -78 -161.5t-211 -59.5zM325 388q80 0 127 36t47 96q0 92 -120 92q-80 0 -127.5 -37.5t-47.5 -96.5
q0 -90 121 -90zM266 68q91 0 144 37.5t53 103.5q0 99 -136 99q-90 0 -143 -37.5t-53 -104.5q0 -50 32.5 -74t102.5 -24z" />
    <glyph glyph-name="nine.pf" horiz-adv-x="626" 
d="M260 -12q-96 0 -147 40t-51 113q0 20 2 31h86q-1 -5 -1 -16q0 -88 115 -88q157 0 185 160l16 89q-75 -69 -183 -69q-89 0 -134.5 43t-45.5 121q0 128 72.5 204t200.5 76q99 0 153 -44t54 -132q0 -30 -5 -58l-43 -244q-20 -113 -90.5 -169.5t-183.5 -56.5zM302 328
q121 0 184 113l4 20q4 23 4 43q0 108 -123 108q-85 0 -132.5 -51.5t-47.5 -135.5q0 -97 111 -97z" />
    <glyph glyph-name="zero.numr" 
d="M191 274q-127 0 -127 105q0 17 3 33l26 147q23 133 161 133q127 0 127 -105q0 -17 -3 -33l-26 -147q-23 -133 -161 -133zM194 339q72 0 86 75l25 142q2 12 2 22q0 49 -56 49q-73 0 -86 -75l-25 -142q-2 -12 -2 -22q0 -49 56 -49z" />
    <glyph glyph-name="one.numr" 
d="M87 286l11 65h88l43 239q-40 -19 -104 -19l10 59q70 3 113 50h70l-58 -329h87l-11 -65h-249z" />
    <glyph glyph-name="two.numr" 
d="M48 286l7 41q10 55 46.5 93.5t107.5 68.5q54 23 77.5 45t23.5 50q0 43 -54 43q-34 0 -56 -17.5t-27 -49.5l-1 -6h-70l3 17q21 121 155 121q123 0 123 -102q0 -52 -36 -91.5t-115 -73.5q-48 -21 -69.5 -36.5t-28.5 -35.5h208l-11 -67h-283z" />
    <glyph glyph-name="three.numr" 
d="M191 274q-63 0 -96 24.5t-33 67.5q0 14 2 26l2 12h70l-1 -6q-1 -6 -1 -11q0 -48 60 -48q43 0 66.5 19.5t23.5 52.5q0 23 -14.5 33t-51.5 10h-46l11 64h41q38 0 60 18.5t22 48.5q0 42 -53 42q-72 0 -82 -56l-1 -6h-69l2 11q21 116 154 116q122 0 122 -100q0 -76 -66 -101
v-2q44 -21 44 -79q0 -63 -44.5 -99.5t-121.5 -36.5z" />
    <glyph glyph-name="four.numr" 
d="M228 286l15 86h-197l11 67l236 241h77l-43 -244h47l-11 -64h-47l-15 -86h-73zM138 436h116l26 148z" />
    <glyph glyph-name="five.numr" 
d="M188 274q-61 0 -94 25.5t-33 70.5q0 12 1 18h70q-1 -4 -1 -9q0 -40 60 -40q45 0 70 23.5t25 61.5q0 50 -56 50q-48 0 -82 -23h-60l52 229h245l-12 -67h-183l-22 -93q35 19 82 19q109 0 109 -107q0 -72 -45.5 -115t-125.5 -43z" />
    <glyph glyph-name="six.numr" 
d="M193 274q-61 0 -93.5 27.5t-32.5 77.5q0 15 3 32l26 147q24 134 164 134q62 0 93 -24.5t31 -66.5q0 -9 -2 -23h-70q1 4 1 10q0 39 -53 39q-39 0 -63 -20t-30 -56l-8 -46q37 33 96 33q105 0 105 -107q0 -71 -44 -114t-123 -43zM200 339q41 0 64.5 26t23.5 63q0 46 -51 46
q-61 0 -93 -52l-2 -12q-2 -12 -2 -20q0 -24 15.5 -37.5t44.5 -13.5z" />
    <glyph glyph-name="seven.numr" 
d="M101 286q43 198 206 326h-211l12 68h297l-13 -71q-174 -133 -215 -323h-76z" />
    <glyph glyph-name="eight.numr" 
d="M189 274q-137 0 -137 102q0 86 84 115v2q-39 21 -39 74q0 59 43 92t117 33q126 0 126 -100q0 -75 -69 -102v-2q48 -23 48 -85q0 -63 -46.5 -96t-126.5 -33zM225 519q41 0 64 18t23 47q0 43 -57 43q-41 0 -65 -18t-24 -48q0 -42 59 -42zM192 339q47 0 72.5 18t25.5 50
q0 47 -66 47q-45 0 -71.5 -19t-26.5 -52q0 -44 66 -44z" />
    <glyph glyph-name="nine.numr" 
d="M186 274q-62 0 -93 24.5t-31 66.5q0 9 2 23h70q-1 -4 -1 -10q0 -39 53 -39q39 0 63 20t30 56l8 46q-37 -33 -96 -33q-105 0 -105 107q0 71 44 114t123 43q61 0 93.5 -27.5t32.5 -77.5q0 -15 -3 -32l-26 -147q-24 -134 -164 -134zM209 492q61 0 93 52l2 12q2 12 2 20
q0 24 -15.5 37.5t-44.5 13.5q-41 0 -64.5 -26t-23.5 -63q0 -46 51 -46z" />
    <glyph glyph-name="zero.dnom" 
d="M141 -12q-127 0 -127 105q0 17 3 33l26 147q23 133 161 133q127 0 127 -105q0 -17 -3 -33l-26 -147q-23 -133 -161 -133zM144 53q73 0 86 75l25 142q2 12 2 22q0 49 -56 49q-73 0 -86 -75l-25 -142q-2 -12 -2 -22q0 -49 56 -49z" />
    <glyph glyph-name="one.dnom" 
d="M37 0l11 65h88l43 239q-40 -19 -104 -19l10 59q70 3 113 50h70l-58 -329h87l-11 -65h-249z" />
    <glyph glyph-name="two.dnom" 
d="M-3 0l7 41q10 55 46.5 93.5t107.5 68.5q54 23 77.5 45t23.5 50q0 43 -54 43q-34 0 -56 -17.5t-27 -49.5l-1 -6h-70l3 17q21 121 155 121q123 0 123 -102q0 -52 -36 -91.5t-115 -73.5q-48 -21 -69.5 -36.5t-28.5 -35.5h208l-11 -67h-283z" />
    <glyph glyph-name="three.dnom" 
d="M141 -12q-63 0 -96 24.5t-33 67.5q0 14 2 26l2 12h70l-1 -6q-1 -6 -1 -11q0 -48 60 -48q43 0 66.5 19.5t23.5 52.5q0 23 -14.5 33t-51.5 10h-46l11 64h41q38 0 60 18.5t22 48.5q0 42 -53 42q-72 0 -82 -56l-1 -6h-69l2 11q21 116 154 116q122 0 122 -100q0 -76 -66 -101
v-2q44 -21 44 -79q0 -63 -44.5 -99.5t-121.5 -36.5z" />
    <glyph glyph-name="four.dnom" 
d="M178 0l15 86h-197l11 67l236 241h77l-43 -244h47l-11 -64h-47l-15 -86h-73zM88 150h116l26 148z" />
    <glyph glyph-name="five.dnom" 
d="M137 -12q-61 0 -94 25.5t-33 70.5q0 12 1 18h70q-1 -4 -1 -9q0 -40 60 -40q45 0 70 23.5t25 61.5q0 50 -56 50q-48 0 -82 -23h-60l52 229h245l-12 -67h-183l-22 -93q35 19 82 19q109 0 109 -107q0 -72 -45.5 -115t-125.5 -43z" />
    <glyph glyph-name="six.dnom" 
d="M142 -12q-61 0 -93.5 27.5t-32.5 77.5q0 15 3 32l26 147q24 134 164 134q62 0 93 -24.5t31 -66.5q0 -9 -2 -23h-70q1 4 1 10q0 39 -53 39q-39 0 -63 -20t-30 -56l-8 -46q37 33 96 33q105 0 105 -107q0 -71 -44 -114t-123 -43zM149 53q41 0 64.5 26t23.5 63q0 46 -51 46
q-61 0 -93 -52l-2 -12q-2 -12 -2 -20q0 -24 15.5 -37.5t44.5 -13.5z" />
    <glyph glyph-name="seven.dnom" 
d="M51 0q43 198 206 326h-211l12 68h297l-13 -71q-174 -133 -215 -323h-76z" />
    <glyph glyph-name="eight.dnom" 
d="M138 -12q-137 0 -137 102q0 86 84 115v2q-39 21 -39 74q0 59 43 92t117 33q126 0 126 -100q0 -75 -69 -102v-2q48 -23 48 -85q0 -63 -46.5 -96t-126.5 -33zM174 233q41 0 64 18t23 47q0 43 -57 43q-41 0 -65 -18t-24 -48q0 -42 59 -42zM141 53q47 0 72.5 18t25.5 50
q0 47 -66 47q-45 0 -71.5 -19t-26.5 -52q0 -44 66 -44z" />
    <glyph glyph-name="nine.dnom" 
d="M135 -12q-62 0 -93 24.5t-31 66.5q0 9 2 23h70q-1 -4 -1 -10q0 -39 53 -39q39 0 63 20t30 56l8 46q-37 -33 -96 -33q-105 0 -105 107q0 71 44 114t123 43q61 0 93.5 -27.5t32.5 -77.5q0 -15 -3 -32l-26 -147q-24 -134 -164 -134zM158 206q61 0 93 52l2 12q2 12 2 20
q0 24 -15.5 37.5t-44.5 13.5q-41 0 -64.5 -26t-23.5 -63q0 -46 51 -46z" />
    <glyph glyph-name="exclamdown.case" horiz-adv-x="292" 
d="M151 578l17 102h102l-17 -102h-102zM54 0l33 180l65 298h64l-41 -298l-29 -180h-92z" />
    <glyph glyph-name="questiondown.case" horiz-adv-x="436" 
d="M242 578l17 102h102l-17 -102h-102zM178 -12q-83 0 -129 37t-46 104q0 65 29 110.5t97 87.5q51 32 74 60t30 68l4 23h76l-6 -34q-10 -58 -37 -95.5t-86 -75.5q-52 -33 -72.5 -63t-20.5 -72q0 -73 91 -73q57 0 93.5 31.5t46.5 89.5h85q-35 -198 -229 -198z" />
    <glyph glyph-name="at.case" horiz-adv-x="758" 
d="M396 -20q-161 0 -254 86t-93 237q0 170 111.5 283.5t287.5 113.5q141 0 228 -76.5t87 -207.5q0 -102 -52.5 -177t-145.5 -75q-82 0 -98 60q-49 -60 -123 -60q-52 0 -80 26.5t-28 71.5q0 15 4 36l14 79q23 132 138 132q77 0 109 -59l13 47h69l-37 -210q-2 -10 -2 -18
q0 -32 34 -32t58.5 30t34.5 69.5t10 81.5q0 97 -62.5 152t-168.5 55q-141 0 -228.5 -92t-87.5 -229q0 -118 68.5 -183.5t190.5 -65.5q114 0 182 52l34 -74q-86 -53 -213 -53zM366 237q54 0 95 59l15 87q-16 53 -68 53q-59 0 -71 -70l-11 -63q-2 -10 -2 -26q0 -40 42 -40z
" />
    <glyph glyph-name="parenleft.case" horiz-adv-x="339" 
d="M256 -96q-183 66 -183 321q0 121 37.5 233.5t115.5 200t183 117.5l-13 -76q-59 -26 -107 -81.5t-77 -124t-44 -142t-15 -142.5q0 -181 114 -238z" />
    <glyph glyph-name="parenright.case" horiz-adv-x="339" 
d="M-41 -96l13 76q59 26 107 81.5t77 124t44 142t15 142.5q0 181 -114 238l11 68q183 -66 183 -321q0 -121 -37.5 -233.5t-115.5 -200t-183 -117.5z" />
    <glyph glyph-name="braceleft.case" horiz-adv-x="339" 
d="M202 -84q-65 0 -95.5 28t-30.5 89q0 25 5 54l26 147q3 16 3 28q0 26 -15.5 35t-54.5 9l12 68q43 0 64.5 17t28.5 59l26 147q16 92 56 129.5t118 37.5h62l-12 -69h-40q-44 0 -67.5 -21.5t-33.5 -78.5l-25 -142q-9 -52 -29 -78.5t-55 -34.5v-2q47 -16 47 -78q0 -16 -4 -39
l-25 -142q-4 -23 -4 -39q0 -30 15 -42.5t52 -12.5h44l-12 -69h-56z" />
    <glyph glyph-name="braceright.case" horiz-adv-x="339" 
d="M-39 -84l12 69h40q44 0 67.5 21.5t33.5 78.5l25 142q9 52 29 78.5t55 34.5v2q-47 16 -47 78q0 16 4 39l25 142q4 23 4 39q0 30 -15 42.5t-52 12.5h-44l12 69h56q65 0 95.5 -28t30.5 -89q0 -25 -5 -54l-26 -147q-3 -16 -3 -28q0 -26 15.5 -35t54.5 -9l-12 -68
q-43 0 -64.5 -17t-28.5 -59l-26 -147q-16 -92 -56 -129.5t-118 -37.5h-62z" />
    <glyph glyph-name="bracketleft.case" horiz-adv-x="339" 
d="M32 -84l149 848h226l-12 -69h-142l-125 -710h142l-12 -69h-226z" />
    <glyph glyph-name="bracketright.case" horiz-adv-x="339" 
d="M-39 -84l12 69h142l125 710h-142l12 69h226l-149 -848h-226z" />
    <glyph glyph-name="bar.case" horiz-adv-x="290" 
d="M32 -160l176 1000h78l-176 -1000h-78z" />
    <glyph glyph-name="brokenbar.case" horiz-adv-x="290" 
d="M138 440l70 400h78l-70 -400h-78zM32 -160l70 400h78l-70 -400h-78z" />
    <glyph glyph-name="periodcentered.case" horiz-adv-x="278" 
d="M93 289l18 102h103l-18 -102h-103z" />
    <glyph glyph-name="bullet.case" horiz-adv-x="500" 
d="M140 230l39 219h210l-39 -219h-210z" />
    <glyph glyph-name="hyphen.case" horiz-adv-x="370" 
d="M41 296l15 87h302l-15 -87h-302z" />
    <glyph glyph-name="uni00AD.case" horiz-adv-x="370" 
d="M41 296l15 87h302l-15 -87h-302z" />
    <glyph glyph-name="figuredash.case" horiz-adv-x="602" 
d="M38 302l13 76h542l-13 -76h-542z" />
    <glyph glyph-name="endash.case" horiz-adv-x="500" 
d="M38 302l13 76h440l-13 -76h-440z" />
    <glyph glyph-name="emdash.case" horiz-adv-x="900" 
d="M38 302l13 76h840l-13 -76h-840z" />
    <glyph glyph-name="guillemotleft.case" horiz-adv-x="482" 
d="M146 163l-110 178l168 175h101l-177 -183l105 -170h-87zM355 163l-110 178l168 175h101l-177 -183l105 -170h-87z" />
    <glyph glyph-name="guillemotright.case" horiz-adv-x="482" 
d="M-4 163l177 183l-105 170h87l110 -178l-168 -175h-101zM205 163l177 183l-105 170h87l110 -178l-168 -175h-101z" />
    <glyph glyph-name="guilsinglleft.case" horiz-adv-x="273" 
d="M146 163l-110 178l168 175h101l-177 -183l105 -170h-87z" />
    <glyph glyph-name="guilsinglright.case" horiz-adv-x="273" 
d="M-4 163l177 183l-105 170h87l110 -178l-168 -175h-101z" />
    <glyph glyph-name="caron.alt" horiz-adv-x="150" 
d="M64 523l77 207h98l-107 -207h-68z" />
    <glyph glyph-name="ringacute" horiz-adv-x="500" 
d="M272 800l134 132h115l-155 -132h-94zM313 562q-44 0 -71 26t-27 69q0 48 33.5 80.5t82.5 32.5q44 0 71 -26t27 -69q0 -48 -33.5 -80.5t-82.5 -32.5zM316 621q21 0 35.5 15.5t14.5 38.5q0 16 -10.5 26t-27.5 10q-21 0 -35.5 -15.5t-14.5 -38.5q0 -16 10.5 -26t27.5 -10z
" />
    <glyph glyph-name="NULL" horiz-adv-x="0" 
 />
    </font>
</defs>
</svg>
