<?xml version="1.0" standalone="no"?>
<!DOCTYPE svg PUBLIC "-//W3C//DTD SVG 1.1//EN" "http://www.w3.org/Graphics/SVG/1.1/DTD/svg11.dtd" >
<svg xmlns="http://www.w3.org/2000/svg" xmlns:xlink="http://www.w3.org/1999/xlink" version="1.1">
<metadata>
Created by FontForge 20170731 at Fri Feb  5 17:51:31 2016
 By Aleksey,,,
Copyright (c) 2014-2015 by Ryoichi Tsunekawa. All rights reserved.
</metadata>
<defs>
<font id="BioSans-Bold" horiz-adv-x="366" >
  <font-face 
    font-family="Bio Sans"
    font-weight="700"
    font-stretch="normal"
    units-per-em="1000"
    panose-1="2 11 7 6 2 2 2 4 2 4"
    ascent="800"
    descent="-200"
    x-height="522"
    cap-height="680"
    bbox="-189 -254 1105 1114"
    underline-thickness="72"
    underline-position="-244"
    unicode-range="U+000D-FB02"
  />
<missing-glyph horiz-adv-x="680" 
d="M73 0v680h534v-680h-534zM341 419l113 178h-227zM162 154l120 186l-120 186v-372zM518 154v372l-120 -186zM227 83h227l-113 178z" />
    <glyph glyph-name="fi" unicode="fi" horiz-adv-x="632" 
d="M88 0v410h-80v112h80v38q0 170 153 170h112v-114h-62q-30 0 -42.5 -14.5t-12.5 -48.5v-31h113v-112h-113v-410h-148zM416 596v126h156v-126h-156zM420 0v522h148v-522h-148z" />
    <glyph glyph-name="fl" unicode="fl" horiz-adv-x="632" 
d="M88 0v410h-80v112h80v38q0 170 153 170h112v-114h-62q-30 0 -42.5 -14.5t-12.5 -48.5v-31h113v-112h-113v-410h-148zM420 0v730h148v-730h-148z" />
    <glyph glyph-name=".notdef" horiz-adv-x="680" 
d="M73 0v680h534v-680h-534zM341 419l113 178h-227zM162 154l120 186l-120 186v-372zM518 154v372l-120 -186zM227 83h227l-113 178z" />
    <glyph glyph-name=".null" horiz-adv-x="0" 
 />
    <glyph glyph-name="nonmarkingreturn" horiz-adv-x="333" 
 />
    <glyph glyph-name="CR" unicode="&#xd;" horiz-adv-x="240" 
 />
    <glyph glyph-name="space" unicode=" " horiz-adv-x="240" 
 />
    <glyph glyph-name="exclam" unicode="!" horiz-adv-x="309" 
d="M101 224l-21 262l-3 194h155l-3 -194l-21 -262h-107zM77 0v155h155v-155h-155z" />
    <glyph glyph-name="quotedbl" unicode="&#x22;" horiz-adv-x="458" 
d="M65 398l-16 282h143l-17 -282h-110zM282 398l-16 282h143l-17 -282h-110z" />
    <glyph glyph-name="numbersign" unicode="#" horiz-adv-x="596" 
d="M81 0l21 164h-64v102h76l20 158h-63v102h76l19 154h124l-19 -154h101l19 154h124l-19 -154h62v-102h-75l-20 -158h62v-102h-74l-21 -164h-124l21 164h-101l-21 -164h-124zM238 266h101l20 158h-101z" />
    <glyph glyph-name="dollar" unicode="$" horiz-adv-x="596" 
d="M55 206h136q0 -79 71 -91v163q-108 19 -154.5 64.5t-46.5 133.5q0 177 184 200v75h112v-75q173 -22 173 -198h-135q0 67 -55 83v-157q110 -18 158 -65.5t48 -137.5q0 -177 -189 -199v-75h-112v74q-98 10 -144 59.5t-46 145.5zM205 493q0 -50 57 -71v140q-57 -14 -57 -69z
M340 259v-143q62 12 62 68q0 53 -62 75z" />
    <glyph glyph-name="percent" unicode="%" horiz-adv-x="785" 
d="M183 310q-152 0 -152 134v114q0 134 152 134t152 -134v-114q0 -134 -152 -134zM136 -12l408 704h105l-407 -704h-106zM183 398q46 0 46 51v105q0 50 -46 50t-46 -50v-105q0 -51 46 -51zM602 -12q-152 0 -152 134v114q0 134 152 134t152 -134v-114q0 -134 -152 -134z
M602 76q46 0 46 51v105q0 50 -46 50t-46 -50v-105q0 -51 46 -51z" />
    <glyph glyph-name="ampersand" unicode="&#x26;" horiz-adv-x="678" 
d="M267 -12q-108 0 -169 51.5t-61 143.5q0 62 29.5 108.5t95.5 87.5q-50 70 -50 138q0 81 51 128t144 47q86 0 133.5 -41.5t47.5 -114.5q0 -57 -30.5 -98t-101.5 -80l98 -114q14 46 19 112h141q-15 -128 -69 -216l121 -140h-190l-31 37q-77 -49 -178 -49zM284 441
q43 23 60.5 43.5t17.5 46.5q0 23 -15 38t-43 15t-44.5 -15.5t-16.5 -44.5q0 -36 41 -83zM293 108q45 0 77 19l-135 163q-49 -38 -49 -91q0 -43 28.5 -67t78.5 -24z" />
    <glyph glyph-name="quotesingle" unicode="'" horiz-adv-x="245" 
d="M66 398l-17 282h147l-17 -282h-113z" />
    <glyph glyph-name="parenleft" unicode="(" horiz-adv-x="343" 
d="M328 -130q-132 29 -204 143t-72 293t72 293t204 143v-109q-137 -67 -137 -327t137 -327v-109z" />
    <glyph glyph-name="parenright" unicode=")" horiz-adv-x="343" 
d="M15 -130v109q137 67 137 327t-137 327v109q132 -29 204 -143t72 -293t-72 -293t-204 -143z" />
    <glyph glyph-name="asterisk" unicode="*" horiz-adv-x="428" 
d="M142 281l-87 63l87 110l-131 33l33 105l125 -51l-9 139h108l-9 -139l125 51l33 -105l-131 -33l87 -110l-87 -63l-72 119z" />
    <glyph glyph-name="plus" unicode="+" horiz-adv-x="596" 
d="M237 54v196h-185v118h185v196h122v-196h185v-118h-185v-196h-122z" />
    <glyph glyph-name="comma" unicode="," horiz-adv-x="293" 
d="M65 -179v80q61 2 61 70v29h-57v155h155v-156q0 -92 -37.5 -134.5t-121.5 -43.5z" />
    <glyph glyph-name="hyphen" unicode="-" horiz-adv-x="383" 
d="M33 233v128h317v-128h-317z" />
    <glyph glyph-name="period" unicode="." horiz-adv-x="293" 
d="M69 0v155h155v-155h-155z" />
    <glyph glyph-name="slash" unicode="/" horiz-adv-x="466" 
d="M1 -140l335 870h129l-335 -870h-129z" />
    <glyph glyph-name="zero" unicode="0" horiz-adv-x="596" 
d="M298 -12q-121 0 -183.5 58.5t-62.5 170.5v246q0 113 62.5 171t183.5 58t183.5 -58t62.5 -171v-246q0 -112 -62.5 -170.5t-183.5 -58.5zM298 113q52 0 75 26t23 84v234q0 58 -23 84t-75 26t-75 -26t-23 -84v-234q0 -58 23 -84t75 -26z" />
    <glyph glyph-name="one" unicode="1" horiz-adv-x="596" 
d="M94 0v127h163v371q-65 -19 -183 -21v115q72 2 116.5 22.5t73.5 65.5h141v-553h162v-127h-473z" />
    <glyph glyph-name="two" unicode="2" horiz-adv-x="596" 
d="M48 0v70q0 97 48 160.5t162 116.5q77 36 106.5 66t29.5 73q0 38 -24 59.5t-71 21.5q-100 0 -100 -103v-19h-140v32q0 105 62 160t179 55q118 0 179.5 -53.5t61.5 -151.5q0 -85 -48 -143.5t-160 -108.5q-70 -31 -99.5 -54.5t-36.5 -53.5h344v-127h-493z" />
    <glyph glyph-name="three" unicode="3" horiz-adv-x="596" 
d="M299 -12q-249 0 -249 196v35h143v-16q0 -90 106 -90q102 0 102 84q0 44 -27 64t-87 20h-65v124h62q53 0 78 19t25 61q0 82 -91 82q-95 0 -95 -88v-13h-141v21q0 101 60.5 153t178.5 52q114 0 174 -48.5t60 -141.5q0 -107 -85 -147v-2q101 -39 101 -163q0 -202 -250 -202z
" />
    <glyph glyph-name="four" unicode="4" horiz-adv-x="596" 
d="M351 0v139h-317v130l307 411h158v-420h70v-121h-70v-139h-148zM176 260h175v243z" />
    <glyph glyph-name="five" unicode="5" horiz-adv-x="596" 
d="M297 -12q-119 0 -181.5 51t-63.5 151h142q2 -37 29 -57t73 -20q107 0 107 108t-101 108q-60 0 -101 -41h-129l25 392h423v-127h-300l-9 -142q51 40 132 40q101 0 154.5 -58t53.5 -168q0 -237 -254 -237z" />
    <glyph glyph-name="six" unicode="6" horiz-adv-x="596" 
d="M304 -12q-122 0 -185 58t-63 172v239q0 116 64 175.5t189 59.5q230 0 236 -198h-142q-3 33 -27 53t-69 20q-103 0 -103 -116v-67q55 55 146 55q97 0 148.5 -56.5t51.5 -162.5q0 -232 -246 -232zM305 113q97 0 97 103q0 98 -89 98q-76 0 -109 -75v-15q0 -111 101 -111z
" />
    <glyph glyph-name="seven" unicode="7" horiz-adv-x="596" 
d="M136 0q15 338 257 550h-347v130h500v-134q-124 -121 -184.5 -250.5t-67.5 -295.5h-158z" />
    <glyph glyph-name="eight" unicode="8" horiz-adv-x="596" 
d="M298 -12q-128 0 -194 51t-66 149q0 123 104 165v2q-87 41 -87 146q0 92 63 141.5t181 49.5q117 0 180 -49.5t63 -140.5q0 -107 -88 -147v-2q104 -42 104 -165q0 -98 -66 -149t-194 -51zM298 406q98 0 98 83q0 80 -98 80t-98 -80q0 -83 98 -83zM297 111q113 0 113 84
q0 88 -113 88q-112 0 -112 -88q0 -84 112 -84z" />
    <glyph glyph-name="nine" unicode="9" horiz-adv-x="596" 
d="M287 -12q-230 0 -236 198h142q3 -33 27 -53t69 -20q103 0 103 116v67q-55 -55 -146 -55q-97 0 -148.5 56.5t-51.5 162.5q0 232 246 232q122 0 185 -58t63 -172v-239q0 -116 -64 -175.5t-189 -59.5zM283 366q76 0 109 75v15q0 111 -101 111q-97 0 -97 -103q0 -98 89 -98z
" />
    <glyph glyph-name="colon" unicode=":" horiz-adv-x="293" 
d="M69 346v155h155v-155h-155zM69 0v155h155v-155h-155z" />
    <glyph glyph-name="semicolon" unicode=";" horiz-adv-x="293" 
d="M69 346v155h155v-155h-155zM65 -179v80q61 2 61 70v29h-57v155h155v-156q0 -92 -37.5 -134.5t-121.5 -43.5z" />
    <glyph glyph-name="less" unicode="&#x3c;" horiz-adv-x="596" 
d="M544 55l-492 195v114l492 196v-128l-320 -124l320 -125v-128z" />
    <glyph glyph-name="equal" unicode="=" horiz-adv-x="596" 
d="M52 364v118h492v-118h-492zM52 136v118h492v-118h-492z" />
    <glyph glyph-name="greater" unicode="&#x3e;" horiz-adv-x="596" 
d="M52 56v128l320 125l-320 124v128l492 -195v-114z" />
    <glyph glyph-name="question" unicode="?" horiz-adv-x="467" 
d="M148 224v21q0 58 21.5 99.5t71.5 76.5q33 23 45.5 41t12.5 43q0 62 -71 62q-77 0 -77 -88h-139q0 213 218 213q104 0 160 -47t56 -135q0 -52 -22 -89.5t-73 -72.5q-41 -28 -57.5 -52.5t-16.5 -56.5v-15h-129zM135 0v155h154v-155h-154z" />
    <glyph glyph-name="at" unicode="@" horiz-adv-x="752" 
d="M408 -68q-174 0 -276.5 97.5t-102.5 261.5t100.5 264t264.5 100q157 0 252 -90.5t95 -235.5q0 -100 -46 -154.5t-128 -54.5q-83 0 -112 56q-39 -56 -110 -56q-58 0 -88 34.5t-30 99.5v71q0 134 118 134q66 0 105 -48l4 36h88v-193q0 -46 33 -46q28 0 43.5 29t15.5 83
q0 111 -64 175.5t-174 64.5q-118 0 -186.5 -72.5t-68.5 -192.5q0 -123 72.5 -195t194.5 -72q103 0 180 50l36 -92q-89 -54 -216 -54zM377 210q36 0 54 37v85q-17 38 -55 38q-39 0 -39 -47v-68q0 -45 40 -45z" />
    <glyph glyph-name="A" unicode="A" horiz-adv-x="615" 
d="M2 0l228 680h155l228 -680h-159l-43 137h-214l-43 -137h-152zM234 262h140l-70 248z" />
    <glyph glyph-name="B" unicode="B" horiz-adv-x="638" 
d="M75 0v680h273q120 0 175 -42.5t55 -134.5q0 -113 -93 -145v-2q61 -17 88 -57t27 -108q0 -99 -56 -145t-175 -46h-294zM225 409h100q59 0 82 16t23 57q0 40 -21 55.5t-76 15.5h-108v-144zM225 127h118q60 0 83.5 16.5t23.5 59.5q0 44 -26 61.5t-93 17.5h-106v-155z" />
    <glyph glyph-name="C" unicode="C" horiz-adv-x="615" 
d="M315 -12q-135 0 -199.5 67t-64.5 209v152q0 142 64.5 209t199.5 67q131 0 194 -62.5t66 -194.5h-143q-2 68 -28.5 98t-86.5 30q-63 0 -89.5 -34.5t-26.5 -115.5v-146q0 -81 26.5 -115.5t89.5 -34.5q60 0 86.5 30t28.5 97h143q-3 -131 -66.5 -193.5t-193.5 -62.5z" />
    <glyph glyph-name="D" unicode="D" horiz-adv-x="642" 
d="M75 0v680h253q137 0 200.5 -65t63.5 -203v-144q0 -139 -63.5 -203.5t-200.5 -64.5h-253zM225 128h82q76 0 105.5 31.5t29.5 111.5v138q0 80 -29.5 111.5t-105.5 31.5h-82v-424z" />
    <glyph glyph-name="E" unicode="E" horiz-adv-x="587" 
d="M75 0v680h466v-129h-316v-141h266v-128h-266v-153h326v-129h-476z" />
    <glyph glyph-name="F" unicode="F" horiz-adv-x="554" 
d="M75 0v680h458v-129h-308v-147h258v-129h-258v-275h-150z" />
    <glyph glyph-name="G" unicode="G" horiz-adv-x="635" 
d="M322 -12q-137 0 -204 67t-67 204v162q0 271 266 271q124 0 191.5 -56.5t71.5 -166.5h-143q-7 94 -116 94q-65 0 -92.5 -34.5t-27.5 -115.5v-146q0 -80 28.5 -115t95.5 -35q63 0 90.5 32t27.5 107h-112v129h255v-129q0 -136 -65 -202t-199 -66z" />
    <glyph glyph-name="H" unicode="H" horiz-adv-x="684" 
d="M75 0v680h150v-269h234v269h150v-680h-150v281h-234v-281h-150z" />
    <glyph glyph-name="I" unicode="I" horiz-adv-x="300" 
d="M75 0v680h150v-680h-150z" />
    <glyph glyph-name="J" unicode="J" horiz-adv-x="553" 
d="M252 -12q-124 0 -180.5 57t-56.5 182v19h144v-19q0 -58 21.5 -84t69.5 -26q49 0 70.5 27.5t21.5 88.5v447h150v-453q0 -125 -57.5 -182t-182.5 -57z" />
    <glyph glyph-name="K" unicode="K" horiz-adv-x="622" 
d="M75 0v680h150v-297l231 297h172l-219 -279l222 -401h-171l-155 282l-80 -102v-180h-150z" />
    <glyph glyph-name="L" unicode="L" horiz-adv-x="518" 
d="M75 0v680h150v-549h287v-131h-437z" />
    <glyph glyph-name="M" unicode="M" horiz-adv-x="881" 
d="M75 0v680h220l145 -444l144 444h222v-680h-150v513l-169 -513h-101l-169 513v-513h-142z" />
    <glyph glyph-name="N" unicode="N" horiz-adv-x="682" 
d="M75 0v680h159l231 -429v429h142v-680h-143l-247 458v-458h-142z" />
    <glyph glyph-name="O" unicode="O" horiz-adv-x="652" 
d="M326 -12q-141 0 -208 67.5t-67 209.5v150q0 142 67 209.5t208 67.5t208 -67.5t67 -209.5v-150q0 -142 -67 -209.5t-208 -67.5zM326 117q67 0 96 35t29 115v146q0 80 -29 115t-96 35t-96 -35t-29 -115v-146q0 -80 29 -115t96 -35z" />
    <glyph glyph-name="P" unicode="P" horiz-adv-x="612" 
d="M75 0v680h269q129 0 187 -52.5t58 -169.5q0 -116 -58 -168t-187 -52h-119v-238h-150zM225 366h106q57 0 82.5 22t25.5 71t-25.5 71t-82.5 22h-106v-186z" />
    <glyph glyph-name="Q" unicode="Q" horiz-adv-x="652" 
d="M545 -86l-92 92q-53 -18 -127 -18q-141 0 -208 67.5t-67 209.5v150q0 142 67 209.5t208 67.5t208 -67.5t67 -209.5v-150q0 -107 -37 -171l80 -81zM326 117q10 0 28 2l-90 90l90 90l92 -93q5 30 5 61v146q0 80 -29 115t-96 35t-96 -35t-29 -115v-146q0 -80 29 -115t96 -35
z" />
    <glyph glyph-name="R" unicode="R" horiz-adv-x="633" 
d="M75 0v680h278q125 0 179 -50.5t54 -164.5q0 -84 -29 -132.5t-92 -67.5l147 -265h-171l-135 251h-81v-251h-150zM225 379h112q54 0 76.5 20t22.5 66q0 47 -22.5 67t-76.5 20h-112v-173z" />
    <glyph glyph-name="S" unicode="S" horiz-adv-x="563" 
d="M280 -12q-130 0 -191 52.5t-61 164.5h146q0 -95 110 -95q99 0 99 73q0 42 -30.5 63t-106.5 33q-113 18 -160.5 64.5t-47.5 139.5q0 209 247 209q239 0 239 -211h-146q0 88 -96 88q-94 0 -94 -71q0 -38 29.5 -57.5t101.5 -30.5q118 -17 166 -66t48 -146q0 -210 -253 -210z
" />
    <glyph glyph-name="T" unicode="T" horiz-adv-x="526" 
d="M188 0v549h-182v131h514v-131h-182v-549h-150z" />
    <glyph glyph-name="U" unicode="U" horiz-adv-x="631" 
d="M316 -12q-134 0 -194.5 57t-60.5 183v452h150v-447q0 -64 24 -90t83 -26t83 26t24 90v447h145v-452q0 -126 -60.5 -183t-193.5 -57z" />
    <glyph glyph-name="V" unicode="V" horiz-adv-x="592" 
d="M218 0l-216 680h158l140 -484l139 484h151l-216 -680h-156z" />
    <glyph glyph-name="W" unicode="W" horiz-adv-x="878" 
d="M172 0l-168 680h155l101 -461l116 461h133l116 -461l101 461h148l-168 -680h-155l-110 439l-111 -439h-158z" />
    <glyph glyph-name="X" unicode="X" horiz-adv-x="579" 
d="M0 0l194 355l-187 325h173l121 -216l111 216h160l-188 -343l195 -337h-173l-129 232l-117 -232h-160z" />
    <glyph glyph-name="Y" unicode="Y" horiz-adv-x="541" 
d="M196 0v283l-222 397h171l132 -246l132 246h158l-221 -394v-286h-150z" />
    <glyph glyph-name="Z" unicode="Z" horiz-adv-x="559" 
d="M27 0v117l311 434h-293v129h479v-116l-311 -435h319v-129h-505z" />
    <glyph glyph-name="bracketleft" unicode="[" horiz-adv-x="343" 
d="M72 -118v848h256v-107h-118v-634h118v-107h-256z" />
    <glyph glyph-name="backslash" unicode="\" horiz-adv-x="466" 
d="M336 -140l-335 870h130l334 -870h-129z" />
    <glyph glyph-name="bracketright" unicode="]" horiz-adv-x="343" 
d="M15 -118v107h118v634h-118v107h256v-848h-256z" />
    <glyph glyph-name="asciicircum" unicode="^" horiz-adv-x="596" 
d="M25 333l215 347h116l215 -347h-139l-134 218l-134 -218h-139z" />
    <glyph glyph-name="underscore" unicode="_" horiz-adv-x="500" 
d="M0 -143v104h500v-104h-500z" />
    <glyph glyph-name="grave" unicode="`" horiz-adv-x="500" 
d="M217 590l-143 140h160l113 -140h-130z" />
    <glyph glyph-name="a" unicode="a" horiz-adv-x="542" 
d="M198 -12q-78 0 -121.5 42.5t-43.5 119.5q0 83 52.5 127t155.5 44h96v17q0 41 -17.5 60.5t-56.5 19.5q-70 0 -73 -59h-143q12 175 222 175q111 0 163.5 -48t52.5 -150v-336h-125l-5 65q-54 -77 -157 -77zM243 104q62 0 94 59v60h-69q-89 0 -89 -61q0 -58 64 -58z" />
    <glyph glyph-name="b" unicode="b" horiz-adv-x="579" 
d="M347 -12q-97 0 -153 75l-4 -63h-126v730h148v-250q51 54 135 54q90 0 138 -55t48 -160v-117q0 -105 -48 -159.5t-138 -54.5zM312 108q73 0 73 95v116q0 95 -72 95q-69 0 -101 -80v-147q32 -79 100 -79z" />
    <glyph glyph-name="c" unicode="c" horiz-adv-x="526" 
d="M273 -12q-228 0 -228 222v102q0 222 228 222q220 0 223 -211h-141q-2 46 -20.5 68.5t-59.5 22.5q-42 0 -62 -24.5t-20 -78.5v-101q0 -53 20 -77.5t62 -24.5q41 0 59.5 22.5t20.5 68.5h141q-3 -211 -223 -211z" />
    <glyph glyph-name="d" unicode="d" horiz-adv-x="579" 
d="M232 -12q-90 0 -138 54.5t-48 159.5v117q0 105 48 160t138 55q84 0 135 -54v250h148v-730h-126l-4 63q-56 -75 -153 -75zM267 108q68 0 100 79v147q-32 80 -101 80q-72 0 -72 -95v-116q0 -95 73 -95z" />
    <glyph glyph-name="e" unicode="e" horiz-adv-x="553" 
d="M283 -12q-238 0 -238 222v102q0 109 59 165.5t173 56.5t173.5 -57.5t59.5 -166.5v-95h-317v-10q0 -52 22 -76.5t69 -24.5q77 0 82 56h141q-4 -85 -61 -128.5t-163 -43.5zM193 319h177q0 52 -20.5 75.5t-67.5 23.5t-68 -23t-21 -76z" />
    <glyph glyph-name="f" unicode="f" horiz-adv-x="356" 
d="M88 0v410h-80v112h80v38q0 170 153 170h112v-114h-62q-30 0 -42.5 -14.5t-12.5 -48.5v-31h113v-112h-113v-410h-148z" />
    <glyph glyph-name="g" unicode="g" horiz-adv-x="579" 
d="M277 -194q-107 0 -162.5 41t-59.5 131h139q3 -30 22.5 -43t58.5 -13q49 0 70.5 21t21.5 71v60q-51 -54 -135 -54q-90 0 -138 55t-48 160v85q0 105 48 159.5t138 54.5q97 0 153 -75l4 63h126v-508q0 -107 -58.5 -157.5t-179.5 -50.5zM266 140q69 0 101 80v115
q-32 79 -100 79q-73 0 -73 -95v-84q0 -95 72 -95z" />
    <glyph glyph-name="h" unicode="h" horiz-adv-x="570" 
d="M64 0v730h148v-250q53 54 134 54q164 0 164 -188v-346h-148v333q0 73 -58 73q-59 0 -92 -69v-337h-148z" />
    <glyph glyph-name="i" unicode="i" horiz-adv-x="276" 
d="M60 596v126h156v-126h-156zM64 0v522h148v-522h-148z" />
    <glyph glyph-name="j" unicode="j" horiz-adv-x="276" 
d="M60 596v126h156v-126h-156zM-3 -182v116h30q20 0 28.5 9.5t8.5 33.5v545h148v-548q0 -82 -33 -119t-106 -37h-76z" />
    <glyph glyph-name="k" unicode="k" horiz-adv-x="549" 
d="M64 0v730h148v-412l172 204h173l-183 -213l186 -309h-172l-119 202l-57 -67v-135h-148z" />
    <glyph glyph-name="l" unicode="l" horiz-adv-x="276" 
d="M64 0v730h148v-730h-148z" />
    <glyph glyph-name="m" unicode="m" horiz-adv-x="856" 
d="M64 0v522h126l4 -64q54 76 148 76q101 0 140 -74q56 74 149 74q80 0 122.5 -46t42.5 -133v-355h-148v339q0 67 -56 67q-54 0 -88 -71v-335h-148v339q0 67 -57 67q-54 0 -87 -71v-335h-148z" />
    <glyph glyph-name="n" unicode="n" horiz-adv-x="570" 
d="M64 0v522h126l4 -63q58 75 152 75q164 0 164 -188v-346h-148v333q0 73 -58 73q-59 0 -92 -69v-337h-148z" />
    <glyph glyph-name="o" unicode="o" horiz-adv-x="564" 
d="M282 -12q-237 0 -237 225v96q0 225 237 225t237 -225v-96q0 -225 -237 -225zM282 108q47 0 68 25.5t21 82.5v90q0 57 -21 82.5t-68 25.5t-68 -25.5t-21 -82.5v-90q0 -57 21 -82.5t68 -25.5z" />
    <glyph glyph-name="p" unicode="p" horiz-adv-x="579" 
d="M64 -182v704h126l4 -63q56 75 153 75q90 0 138 -54.5t48 -159.5v-117q0 -105 -48 -160t-138 -55q-84 0 -135 54v-224h-148zM313 108q72 0 72 95v116q0 95 -73 95q-68 0 -100 -79v-147q32 -80 101 -80z" />
    <glyph glyph-name="q" unicode="q" horiz-adv-x="579" 
d="M367 -182v224q-51 -54 -135 -54q-90 0 -138 55t-48 160v117q0 105 48 159.5t138 54.5q97 0 153 -75l4 63h126v-704h-148zM266 108q69 0 101 80v147q-32 79 -100 79q-73 0 -73 -95v-116q0 -95 72 -95z" />
    <glyph glyph-name="r" unicode="r" horiz-adv-x="377" 
d="M64 0v522h126l6 -97q15 56 47 81.5t86 25.5h39v-138h-28q-58 0 -88 -23.5t-40 -78.5v-292h-148z" />
    <glyph glyph-name="s" unicode="s" horiz-adv-x="504" 
d="M252 -12q-113 0 -167 42.5t-54 129.5h141q0 -34 19 -49.5t62 -15.5q73 0 73 47q0 28 -23.5 41.5t-82.5 20.5q-97 11 -138.5 47.5t-41.5 110.5q0 84 55 128t158 44q208 0 208 -166h-141q0 31 -16 45t-52 14q-66 0 -66 -47q0 -25 23 -38t80 -20q98 -11 140.5 -50t42.5 -115
q0 -169 -220 -169z" />
    <glyph glyph-name="t" unicode="t" horiz-adv-x="361" 
d="M236 0q-80 0 -116 40t-36 130v240h-76v112h79l8 130h137v-130h108v-112h-108v-231q0 -37 11.5 -50t43.5 -13h58v-116h-109z" />
    <glyph glyph-name="u" unicode="u" horiz-adv-x="574" 
d="M226 -12q-166 0 -166 188v346h148v-333q0 -73 61 -73q62 0 93 70v336h148v-522h-126l-4 64q-59 -76 -154 -76z" />
    <glyph glyph-name="v" unicode="v" horiz-adv-x="504" 
d="M173 0l-170 522h156l96 -356l97 356h149l-170 -522h-158z" />
    <glyph glyph-name="w" unicode="w" horiz-adv-x="800" 
d="M156 0l-150 522h155l81 -340l96 340h130l96 -340l81 340h149l-150 -522h-150l-93 326l-93 -326h-152z" />
    <glyph glyph-name="x" unicode="x" horiz-adv-x="499" 
d="M-11 0l166 272l-159 250h173l93 -151l82 151h159l-159 -261l166 -261h-173l-100 163l-89 -163h-159z" />
    <glyph glyph-name="y" unicode="y" horiz-adv-x="498" 
d="M62 -182v116h58q21 0 32 8t18 31l11 33l-178 516h157l97 -326l89 326h149l-185 -567q-26 -81 -61.5 -109t-111.5 -28h-75z" />
    <glyph glyph-name="z" unicode="z" horiz-adv-x="477" 
d="M24 0v102l236 305h-215v115h403v-102l-236 -305h241v-115h-429z" />
    <glyph glyph-name="braceleft" unicode="{" horiz-adv-x="343" 
d="M248 -118q-86 0 -124 42t-38 141v116q0 42 -14.5 57t-52.5 15v106q38 0 52.5 15t14.5 57v116q0 99 38 141t124 42h80v-107h-43q-38 0 -50 -16t-12 -65v-106q0 -109 -76 -129v-2q76 -20 76 -129v-106q0 -49 12 -65t50 -16h43v-107h-80z" />
    <glyph glyph-name="bar" unicode="|" horiz-adv-x="290" 
d="M86 -226v1000h118v-1000h-118z" />
    <glyph glyph-name="braceright" unicode="}" horiz-adv-x="343" 
d="M15 -118v107h43q38 0 50 16t12 65v106q0 109 76 129v2q-76 20 -76 129v106q0 49 -12 65t-50 16h-43v107h80q86 0 124 -42t38 -141v-116q0 -42 14.5 -57t52.5 -15v-106q-38 0 -52.5 -15t-14.5 -57v-116q0 -99 -38 -141t-124 -42h-80z" />
    <glyph glyph-name="asciitilde" unicode="~" horiz-adv-x="596" 
d="M398 207q-63 0 -129 51q-43 33 -71 33q-52 0 -54 -71h-104q1 91 42 140.5t116 49.5q63 0 129 -51q43 -33 71 -33q52 0 54 71h104q-1 -91 -42 -140.5t-116 -49.5z" />
    <glyph glyph-name="uni00A0" unicode="&#xa0;" horiz-adv-x="240" 
 />
    <glyph glyph-name="exclamdown" unicode="&#xa1;" horiz-adv-x="309" 
d="M77 367v155h155v-155h-155zM77 -158l3 194l21 262h107l21 -262l3 -194h-155z" />
    <glyph glyph-name="cent" unicode="&#xa2;" horiz-adv-x="596" 
d="M255 -72v75q-180 23 -180 209v98q0 186 180 209v75h108v-75q170 -22 173 -201h-143q-1 63 -45 78v-271q44 16 45 79h143q-3 -179 -173 -201v-75h-108zM270 125v272q-47 -14 -47 -88v-97q0 -71 47 -87z" />
    <glyph glyph-name="sterling" unicode="&#xa3;" horiz-adv-x="596" 
d="M70 0v113q41 22 60.5 53t19.5 83v12h-101v117h69q-27 66 -27 118q0 96 60 146t174 50q113 0 168 -52t55 -159h-138q0 86 -87 86q-44 0 -64 -22t-20 -67q0 -36 20 -100h227v-117h-205q0 -87 -49 -134h309v-127h-471z" />
    <glyph glyph-name="currency" unicode="&#xa4;" horiz-adv-x="596" 
d="M103 72l-76 76l107 108q-20 38 -20 84t20 84l-107 108l76 76l106 -108q41 22 90 22t90 -22l106 108l76 -76l-107 -108q20 -38 20 -84t-20 -84l107 -108l-76 -76l-106 108q-41 -22 -90 -22t-90 22zM299 265q33 0 54 21.5t21 53.5t-21 53.5t-54 21.5t-54 -21.5t-21 -53.5
t21 -53.5t54 -21.5z" />
    <glyph glyph-name="yen" unicode="&#xa5;" horiz-adv-x="596" 
d="M224 0v103h-154v89h154v51h-154v89h140l-201 348h170l123 -231l123 231h162l-202 -348h141v-89h-154v-51h154v-89h-154v-103h-148z" />
    <glyph glyph-name="brokenbar" unicode="&#xa6;" horiz-adv-x="290" 
d="M86 374v400h118v-400h-118zM86 -226v400h118v-400h-118z" />
    <glyph glyph-name="section" unicode="&#xa7;" horiz-adv-x="610" 
d="M301 -196q-243 0 -243 190h141q0 -80 104 -80q97 0 97 57q0 30 -30 48.5t-105 34.5q-116 25 -166.5 67.5t-50.5 115.5q0 93 80 141v2q-61 45 -61 130q0 89 60.5 135.5t172.5 46.5t171.5 -46.5t59.5 -135.5h-141q0 73 -89 73q-42 0 -65.5 -16t-23.5 -43q0 -30 29.5 -48
t103.5 -33q116 -24 166.5 -66t50.5 -115q0 -92 -79 -140v-2q63 -46 63 -134q0 -182 -245 -182zM374 168q44 20 44 63q0 34 -30.5 53.5t-106.5 35.5q-39 9 -49 12q-40 -23 -40 -64q0 -35 30.5 -55t107.5 -35q26 -5 44 -10z" />
    <glyph glyph-name="dieresis" unicode="&#xa8;" horiz-adv-x="500" 
d="M79 596v126h136v-126h-136zM285 596v126h136v-126h-136z" />
    <glyph glyph-name="copyright" unicode="&#xa9;" horiz-adv-x="760" 
d="M380 -12q-153 0 -252.5 99.5t-99.5 252.5t99.5 252.5t252.5 99.5t252.5 -99.5t99.5 -252.5t-99.5 -252.5t-252.5 -99.5zM380 75q115 0 185 73t70 192t-70 192t-185 73t-185 -73t-70 -192t70 -192t185 -73zM380 152q-76 0 -110.5 36t-34.5 113v78q0 77 34.5 113t110.5 36
q74 0 109 -34.5t36 -108.5h-94q-1 33 -12 46.5t-36 13.5q-27 0 -37.5 -15.5t-10.5 -53.5v-72q0 -38 10.5 -53.5t37.5 -15.5q25 0 36 13.5t12 46.5h94q-1 -74 -36 -108.5t-109 -34.5z" />
    <glyph glyph-name="ordfeminine" unicode="&#xaa;" horiz-adv-x="414" 
d="M145 307q-57 0 -89 30t-32 84q0 58 37.5 88.5t107.5 30.5h81v15q0 50 -53 50q-48 0 -56 -38h-105q15 125 166 125q160 0 160 -139v-234h-96l-3 44q-40 -56 -118 -56zM180 394q49 0 70 37v41h-64q-55 0 -55 -39t49 -39zM34 150v89h328v-89h-328z" />
    <glyph glyph-name="guillemotleft" unicode="&#xab;" horiz-adv-x="557" 
d="M147 82l-132 180l132 180h149l-132 -180l132 -180h-149zM393 82l-132 180l132 180h149l-132 -180l132 -180h-149z" />
    <glyph glyph-name="logicalnot" unicode="&#xac;" horiz-adv-x="596" 
d="M422 124v196h-370v118h492v-314h-122z" />
    <glyph glyph-name="uni00AD" unicode="&#xad;" horiz-adv-x="383" 
d="M33 233v128h317v-128h-317z" />
    <glyph glyph-name="registered" unicode="&#xae;" horiz-adv-x="760" 
d="M380 -12q-153 0 -252.5 99.5t-99.5 252.5t99.5 252.5t252.5 99.5t252.5 -99.5t99.5 -252.5t-99.5 -252.5t-252.5 -99.5zM380 75q115 0 185 73t70 192t-70 192t-185 73t-185 -73t-70 -192t70 -192t185 -73zM235 162v356h160q72 0 105 -28t33 -89q0 -81 -62 -105l82 -134
h-112l-68 123h-38v-123h-100zM335 360h48q28 0 39 8.5t11 29.5q0 22 -11 31t-39 9h-48v-78z" />
    <glyph glyph-name="macron" unicode="&#xaf;" horiz-adv-x="500" 
d="M102 609h296v99h-296v-99z" />
    <glyph glyph-name="degree" unicode="&#xb0;" horiz-adv-x="410" 
d="M205 364q-77 0 -127.5 49.5t-50.5 125.5t50.5 125.5t127.5 49.5t127.5 -49.5t50.5 -125.5t-50.5 -125.5t-127.5 -49.5zM205 464q31 0 50 21t19 54t-19 54t-50 21t-50 -21t-19 -54t19 -54t50 -21z" />
    <glyph glyph-name="plusminus" unicode="&#xb1;" horiz-adv-x="596" 
d="M237 161v150h-185v118h185v165h122v-165h185v-118h-185v-150h-122zM52 0v118h492v-118h-492z" />
    <glyph glyph-name="uni00B2" unicode="&#xb2;" 
d="M30 416v48q0 59 29 97.5t96 68.5q38 17 54 32.5t16 35.5q0 36 -43 36q-46 0 -46 -49v-8h-99v18q0 62 38 94.5t110 32.5q70 0 108 -31.5t38 -89.5q0 -49 -29.5 -84.5t-95.5 -64.5q-35 -15 -50 -25t-19 -22h194v-89h-301z" />
    <glyph glyph-name="uni00B3" unicode="&#xb3;" 
d="M184 404q-152 0 -152 116v19h100v-7q0 -40 51 -40q48 0 48 40t-56 40h-44v83h40q52 0 52 40q0 39 -43 39t-43 -38v-6h-99v11q0 121 146 121q144 0 144 -115q0 -63 -50 -85v-2q59 -22 59 -94q0 -122 -153 -122z" />
    <glyph glyph-name="acute" unicode="&#xb4;" horiz-adv-x="500" 
d="M153 590l113 140h160l-143 -140h-130z" />
    <glyph glyph-name="uni00B5" unicode="&#xb5;" horiz-adv-x="578" 
d="M64 -182v704h148v-331q0 -75 60 -75q62 0 94 70v336h148v-522h-126l-4 63q-55 -75 -145 -75q-9 0 -27 2v-172h-148z" />
    <glyph glyph-name="paragraph" unicode="&#xb6;" horiz-adv-x="610" 
d="M207 -183v449q-97 6 -140.5 55.5t-43.5 151.5q0 109 51 158t164 49h291v-863h-119v755h-84v-755h-119z" />
    <glyph glyph-name="periodcentered" unicode="&#xb7;" horiz-adv-x="293" 
d="M69 220v155h155v-155h-155z" />
    <glyph glyph-name="cedilla" unicode="&#xb8;" horiz-adv-x="500" 
d="M112 -187l23 56q34 -16 65 -16q44 0 44 24q0 13 -11.5 18t-44.5 5h-17l45 115h66l-26 -69q108 0 108 -75q0 -39 -31 -60t-108 -21q-68 0 -113 23z" />
    <glyph glyph-name="uni00B9" unicode="&#xb9;" 
d="M61 416v87h91v186q-40 -8 -103 -8v78q82 1 111 51h98v-307h91v-87h-288z" />
    <glyph glyph-name="ordmasculine" unicode="&#xba;" horiz-adv-x="408" 
d="M204 307q-167 0 -167 160v64q0 161 167 161t167 -161v-64q0 -160 -167 -160zM204 396q30 0 43 16t13 54v67q0 37 -13.5 53.5t-42.5 16.5t-42.5 -16.5t-13.5 -53.5v-67q0 -38 13 -54t43 -16zM40 150v89h328v-89h-328z" />
    <glyph glyph-name="guillemotright" unicode="&#xbb;" horiz-adv-x="557" 
d="M15 80l132 180l-132 180h149l132 -180l-132 -180h-149zM261 80l132 180l-132 180h149l132 -180l-132 -180h-149z" />
    <glyph glyph-name="onequarter" unicode="&#xbc;" horiz-adv-x="846" 
d="M221 -12l367 704h103l-367 -704h-103zM61 286v87h91v186q-40 -8 -103 -8v78q82 1 111 51h98v-307h91v-87h-288zM683 0v80h-180v89l175 225h111v-232h40v-82h-40v-80h-106zM595 162h88v118z" />
    <glyph glyph-name="onehalf" unicode="&#xbd;" horiz-adv-x="846" 
d="M555 692h103l-367 -704h-103l155 298h-282v87h91v186q-40 -8 -103 -8v78q82 1 111 51h98v-307h91v-76zM686 136q-35 -15 -50 -25t-19 -22h194v-89h-301v48q0 59 29 97.5t96 68.5q38 17 54 32.5t16 35.5q0 36 -43 36q-46 0 -46 -49v-8h-99v18q0 62 38 94.5t110 32.5
q70 0 108 -31.5t38 -89.5q0 -49 -29.5 -84.5t-95.5 -64.5z" />
    <glyph glyph-name="threequarters" unicode="&#xbe;" horiz-adv-x="846" 
d="M184 274q-152 0 -152 116v19h100v-7q0 -40 51 -40q48 0 48 40t-56 40h-44v83h40q52 0 52 40q0 39 -43 39t-43 -38v-6h-99v11q0 121 146 121q144 0 144 -115q0 -63 -50 -85v-2q59 -22 59 -94q0 -122 -153 -122zM221 -12l367 704h103l-367 -704h-103zM683 0v80h-180v89
l175 225h111v-232h40v-82h-40v-80h-106zM595 162h88v118z" />
    <glyph glyph-name="questiondown" unicode="&#xbf;" horiz-adv-x="467" 
d="M178 367v155h154v-155h-154zM237 -170q-104 0 -160 47t-56 135q0 52 22 89.5t73 72.5q41 28 57.5 52.5t16.5 56.5v15h129v-21q0 -58 -21.5 -99.5t-71.5 -76.5q-33 -23 -45.5 -41t-12.5 -43q0 -62 71 -62q77 0 77 88h139q0 -213 -218 -213z" />
    <glyph glyph-name="Agrave" unicode="&#xc0;" horiz-adv-x="615" 
d="M274 742l-143 140h160l113 -140h-130zM2 0l228 680h155l228 -680h-159l-43 137h-214l-43 -137h-152zM234 262h140l-70 248z" />
    <glyph glyph-name="Aacute" unicode="&#xc1;" horiz-adv-x="615" 
d="M210 742l113 140h160l-143 -140h-130zM2 0l228 680h155l228 -680h-159l-43 137h-214l-43 -137h-152zM234 262h140l-70 248z" />
    <glyph glyph-name="Acircumflex" unicode="&#xc2;" horiz-adv-x="615" 
d="M118 742l122 140h134l122 -140h-129l-60 58l-60 -58h-129zM2 0l228 680h155l228 -680h-159l-43 137h-214l-43 -137h-152zM234 262h140l-70 248z" />
    <glyph glyph-name="Atilde" unicode="&#xc3;" horiz-adv-x="615" 
d="M366 737q-37 0 -76 27q-24 16 -36 16q-27 0 -31 -39h-84q4 140 109 140q37 0 76 -27q24 -16 36 -16q27 0 31 39h84q-4 -140 -109 -140zM2 0l228 680h155l228 -680h-159l-43 137h-214l-43 -137h-152zM234 262h140l-70 248z" />
    <glyph glyph-name="Adieresis" unicode="&#xc4;" horiz-adv-x="615" 
d="M136 748v126h136v-126h-136zM342 748v126h136v-126h-136zM2 0l228 680h155l228 -680h-159l-43 137h-214l-43 -137h-152zM234 262h140l-70 248z" />
    <glyph glyph-name="Aring" unicode="&#xc5;" horiz-adv-x="615" 
d="M307 723q-53 0 -88 32.5t-35 83.5q0 50 35 83.5t88 33.5t88 -33.5t35 -83.5q0 -51 -35 -83.5t-88 -32.5zM307 797q17 0 27.5 11.5t10.5 30.5t-10.5 30t-27.5 11t-27.5 -11t-10.5 -30t10.5 -30.5t27.5 -11.5zM2 0l228 680h155l228 -680h-159l-43 137h-214l-43 -137h-152z
M234 262h140l-70 248z" />
    <glyph glyph-name="AE" unicode="&#xc6;" horiz-adv-x="901" 
d="M-26 0l379 680h502v-129h-290v-143h240v-128h-240v-151h300v-129h-450v137h-204l-75 -137h-162zM277 262h138v274z" />
    <glyph glyph-name="Ccedilla" unicode="&#xc7;" horiz-adv-x="615" 
d="M317 117q60 0 86.5 30t28.5 97h143q-3 -122 -57 -184t-166 -71l-16 -43q108 0 108 -75q0 -39 -31 -60t-108 -21q-68 0 -113 23l23 56q34 -16 65 -16q44 0 44 24q0 13 -11.5 18t-44.5 5h-17l35 89q-120 7 -177.5 74t-57.5 201v152q0 142 64.5 209t199.5 67
q131 0 194 -62.5t66 -194.5h-143q-2 68 -28.5 98t-86.5 30q-63 0 -89.5 -34.5t-26.5 -115.5v-146q0 -81 26.5 -115.5t89.5 -34.5z" />
    <glyph glyph-name="Egrave" unicode="&#xc8;" horiz-adv-x="587" 
d="M275 742l-143 140h160l113 -140h-130zM75 0v680h466v-129h-316v-141h266v-128h-266v-153h326v-129h-476z" />
    <glyph glyph-name="Eacute" unicode="&#xc9;" horiz-adv-x="587" 
d="M211 742l113 140h160l-143 -140h-130zM75 0v680h466v-129h-316v-141h266v-128h-266v-153h326v-129h-476z" />
    <glyph glyph-name="Ecircumflex" unicode="&#xca;" horiz-adv-x="587" 
d="M119 742l122 140h134l122 -140h-129l-60 58l-60 -58h-129zM75 0v680h466v-129h-316v-141h266v-128h-266v-153h326v-129h-476z" />
    <glyph glyph-name="Edieresis" unicode="&#xcb;" horiz-adv-x="587" 
d="M137 748v126h136v-126h-136zM343 748v126h136v-126h-136zM75 0v680h466v-129h-316v-141h266v-128h-266v-153h326v-129h-476z" />
    <glyph glyph-name="Igrave" unicode="&#xcc;" horiz-adv-x="300" 
d="M117 742l-143 140h160l113 -140h-130zM75 0v680h150v-680h-150z" />
    <glyph glyph-name="Iacute" unicode="&#xcd;" horiz-adv-x="300" 
d="M53 742l113 140h160l-143 -140h-130zM75 0v680h150v-680h-150z" />
    <glyph glyph-name="Icircumflex" unicode="&#xce;" horiz-adv-x="300" 
d="M-30 742l112 140h136l112 -140h-124l-56 59l-55 -59h-125zM75 0v680h150v-680h-150z" />
    <glyph glyph-name="Idieresis" unicode="&#xcf;" horiz-adv-x="300" 
d="M-9 748v126h132v-126h-132zM177 748v126h132v-126h-132zM75 0v680h150v-680h-150z" />
    <glyph glyph-name="Eth" unicode="&#xd0;" horiz-adv-x="652" 
d="M338 680q137 0 200.5 -65t63.5 -203v-144q0 -139 -63.5 -203.5t-200.5 -64.5h-253v282h-63v128h63v270h253zM452 271v138q0 80 -29.5 111.5t-105.5 31.5h-82v-142h113v-128h-113v-154h82q76 0 105.5 31.5t29.5 111.5z" />
    <glyph glyph-name="Ntilde" unicode="&#xd1;" horiz-adv-x="682" 
d="M400 737q-37 0 -76 27q-24 16 -36 16q-27 0 -31 -39h-84q4 140 109 140q37 0 76 -27q24 -16 36 -16q27 0 31 39h84q-4 -140 -109 -140zM75 0v680h159l231 -429v429h142v-680h-143l-247 458v-458h-142z" />
    <glyph glyph-name="Ograve" unicode="&#xd2;" horiz-adv-x="652" 
d="M293 742l-143 140h160l113 -140h-130zM326 -12q-141 0 -208 67.5t-67 209.5v150q0 142 67 209.5t208 67.5t208 -67.5t67 -209.5v-150q0 -142 -67 -209.5t-208 -67.5zM326 117q67 0 96 35t29 115v146q0 80 -29 115t-96 35t-96 -35t-29 -115v-146q0 -80 29 -115t96 -35z
" />
    <glyph glyph-name="Oacute" unicode="&#xd3;" horiz-adv-x="652" 
d="M229 742l113 140h160l-143 -140h-130zM326 -12q-141 0 -208 67.5t-67 209.5v150q0 142 67 209.5t208 67.5t208 -67.5t67 -209.5v-150q0 -142 -67 -209.5t-208 -67.5zM326 117q67 0 96 35t29 115v146q0 80 -29 115t-96 35t-96 -35t-29 -115v-146q0 -80 29 -115t96 -35z
" />
    <glyph glyph-name="Ocircumflex" unicode="&#xd4;" horiz-adv-x="652" 
d="M137 742l122 140h134l122 -140h-129l-60 58l-60 -58h-129zM326 -12q-141 0 -208 67.5t-67 209.5v150q0 142 67 209.5t208 67.5t208 -67.5t67 -209.5v-150q0 -142 -67 -209.5t-208 -67.5zM326 117q67 0 96 35t29 115v146q0 80 -29 115t-96 35t-96 -35t-29 -115v-146
q0 -80 29 -115t96 -35z" />
    <glyph glyph-name="Otilde" unicode="&#xd5;" horiz-adv-x="652" 
d="M385 737q-37 0 -76 27q-24 16 -36 16q-27 0 -31 -39h-84q4 140 109 140q37 0 76 -27q24 -16 36 -16q27 0 31 39h84q-4 -140 -109 -140zM326 -12q-141 0 -208 67.5t-67 209.5v150q0 142 67 209.5t208 67.5t208 -67.5t67 -209.5v-150q0 -142 -67 -209.5t-208 -67.5z
M326 117q67 0 96 35t29 115v146q0 80 -29 115t-96 35t-96 -35t-29 -115v-146q0 -80 29 -115t96 -35z" />
    <glyph glyph-name="Odieresis" unicode="&#xd6;" horiz-adv-x="652" 
d="M155 748v126h136v-126h-136zM361 748v126h136v-126h-136zM326 -12q-141 0 -208 67.5t-67 209.5v150q0 142 67 209.5t208 67.5t208 -67.5t67 -209.5v-150q0 -142 -67 -209.5t-208 -67.5zM326 117q67 0 96 35t29 115v146q0 80 -29 115t-96 35t-96 -35t-29 -115v-146
q0 -80 29 -115t96 -35z" />
    <glyph glyph-name="multiply" unicode="&#xd7;" horiz-adv-x="596" 
d="M132 55l-86 86l166 168l-166 168l86 86l166 -168l166 168l86 -86l-166 -168l166 -168l-86 -86l-166 168z" />
    <glyph glyph-name="Oslash" unicode="&#xd8;" horiz-adv-x="652" 
d="M601 624l-33 -46q33 -63 33 -163v-150q0 -142 -67 -209.5t-208 -67.5q-99 0 -159 32l-23 -32l-93 68l33 46q-33 63 -33 163v150q0 142 67 209.5t208 67.5q99 0 159 -32l23 32zM201 265l202 280q-29 18 -77 18q-67 0 -96 -35t-29 -115v-148zM451 415l-202 -280
q29 -18 77 -18q67 0 96 35t29 115v148z" />
    <glyph glyph-name="Ugrave" unicode="&#xd9;" horiz-adv-x="631" 
d="M282 742l-143 140h160l113 -140h-130zM316 -12q-134 0 -194.5 57t-60.5 183v452h150v-447q0 -64 24 -90t83 -26t83 26t24 90v447h145v-452q0 -126 -60.5 -183t-193.5 -57z" />
    <glyph glyph-name="Uacute" unicode="&#xda;" horiz-adv-x="631" 
d="M218 742l113 140h160l-143 -140h-130zM316 -12q-134 0 -194.5 57t-60.5 183v452h150v-447q0 -64 24 -90t83 -26t83 26t24 90v447h145v-452q0 -126 -60.5 -183t-193.5 -57z" />
    <glyph glyph-name="Ucircumflex" unicode="&#xdb;" horiz-adv-x="631" 
d="M126 742l122 140h134l122 -140h-129l-60 58l-60 -58h-129zM316 -12q-134 0 -194.5 57t-60.5 183v452h150v-447q0 -64 24 -90t83 -26t83 26t24 90v447h145v-452q0 -126 -60.5 -183t-193.5 -57z" />
    <glyph glyph-name="Udieresis" unicode="&#xdc;" horiz-adv-x="631" 
d="M144 748v126h136v-126h-136zM350 748v126h136v-126h-136zM316 -12q-134 0 -194.5 57t-60.5 183v452h150v-447q0 -64 24 -90t83 -26t83 26t24 90v447h145v-452q0 -126 -60.5 -183t-193.5 -57z" />
    <glyph glyph-name="Yacute" unicode="&#xdd;" horiz-adv-x="541" 
d="M173 742l113 140h160l-143 -140h-130zM196 0v283l-222 397h171l132 -246l132 246h158l-221 -394v-286h-150z" />
    <glyph glyph-name="Thorn" unicode="&#xde;" horiz-adv-x="612" 
d="M75 0v680h150v-92h119q129 0 187 -52.5t58 -169.5q0 -116 -58 -168t-187 -52h-119v-146h-150zM225 274h106q57 0 82.5 22t25.5 71t-25.5 71t-82.5 22h-106v-186z" />
    <glyph glyph-name="germandbls" unicode="&#xdf;" horiz-adv-x="604" 
d="M88 0v410h-80v112h80v28q0 192 213 192q103 0 157 -43t54 -122q0 -68 -55 -131q-32 -36 -32 -61q0 -18 12 -30.5t44 -27.5q55 -25 78 -59.5t23 -90.5q0 -177 -220 -177h-65v116h65q72 0 72 50q0 20 -12 33.5t-47 31.5q-51 27 -72.5 57t-21.5 78q0 67 51 130q35 43 35 74
q0 26 -16.5 42t-47.5 16q-67 0 -67 -78v-550h-148z" />
    <glyph glyph-name="agrave" unicode="&#xe0;" horiz-adv-x="542" 
d="M232 590l-143 140h160l113 -140h-130zM198 -12q-78 0 -121.5 42.5t-43.5 119.5q0 83 52.5 127t155.5 44h96v17q0 41 -17.5 60.5t-56.5 19.5q-70 0 -73 -59h-143q12 175 222 175q111 0 163.5 -48t52.5 -150v-336h-125l-5 65q-54 -77 -157 -77zM243 104q62 0 94 59v60h-69
q-89 0 -89 -61q0 -58 64 -58z" />
    <glyph glyph-name="aacute" unicode="&#xe1;" horiz-adv-x="542" 
d="M168 590l113 140h160l-143 -140h-130zM198 -12q-78 0 -121.5 42.5t-43.5 119.5q0 83 52.5 127t155.5 44h96v17q0 41 -17.5 60.5t-56.5 19.5q-70 0 -73 -59h-143q12 175 222 175q111 0 163.5 -48t52.5 -150v-336h-125l-5 65q-54 -77 -157 -77zM243 104q62 0 94 59v60h-69
q-89 0 -89 -61q0 -58 64 -58z" />
    <glyph glyph-name="acircumflex" unicode="&#xe2;" horiz-adv-x="542" 
d="M76 590l122 140h134l122 -140h-129l-60 58l-60 -58h-129zM198 -12q-78 0 -121.5 42.5t-43.5 119.5q0 83 52.5 127t155.5 44h96v17q0 41 -17.5 60.5t-56.5 19.5q-70 0 -73 -59h-143q12 175 222 175q111 0 163.5 -48t52.5 -150v-336h-125l-5 65q-54 -77 -157 -77zM243 104
q62 0 94 59v60h-69q-89 0 -89 -61q0 -58 64 -58z" />
    <glyph glyph-name="atilde" unicode="&#xe3;" horiz-adv-x="542" 
d="M324 585q-37 0 -76 27q-24 16 -36 16q-27 0 -31 -39h-84q4 140 109 140q37 0 76 -27q24 -16 36 -16q27 0 31 39h84q-4 -140 -109 -140zM198 -12q-78 0 -121.5 42.5t-43.5 119.5q0 83 52.5 127t155.5 44h96v17q0 41 -17.5 60.5t-56.5 19.5q-70 0 -73 -59h-143
q12 175 222 175q111 0 163.5 -48t52.5 -150v-336h-125l-5 65q-54 -77 -157 -77zM243 104q62 0 94 59v60h-69q-89 0 -89 -61q0 -58 64 -58z" />
    <glyph glyph-name="adieresis" unicode="&#xe4;" horiz-adv-x="542" 
d="M94 596v126h136v-126h-136zM300 596v126h136v-126h-136zM198 -12q-78 0 -121.5 42.5t-43.5 119.5q0 83 52.5 127t155.5 44h96v17q0 41 -17.5 60.5t-56.5 19.5q-70 0 -73 -59h-143q12 175 222 175q111 0 163.5 -48t52.5 -150v-336h-125l-5 65q-54 -77 -157 -77zM243 104
q62 0 94 59v60h-69q-89 0 -89 -61q0 -58 64 -58z" />
    <glyph glyph-name="aring" unicode="&#xe5;" horiz-adv-x="542" 
d="M265 571q-53 0 -88 32.5t-35 83.5q0 50 35 83.5t88 33.5t88 -33.5t35 -83.5q0 -51 -35 -83.5t-88 -32.5zM265 645q17 0 27.5 11.5t10.5 30.5t-10.5 30t-27.5 11t-27.5 -11t-10.5 -30t10.5 -30.5t27.5 -11.5zM198 -12q-78 0 -121.5 42.5t-43.5 119.5q0 83 52.5 127
t155.5 44h96v17q0 41 -17.5 60.5t-56.5 19.5q-70 0 -73 -59h-143q12 175 222 175q111 0 163.5 -48t52.5 -150v-336h-125l-5 65q-54 -77 -157 -77zM243 104q62 0 94 59v60h-69q-89 0 -89 -61q0 -58 64 -58z" />
    <glyph glyph-name="ae" unicode="&#xe6;" horiz-adv-x="845" 
d="M209 -12q-84 0 -130 42t-46 120q0 83 52.5 127t155.5 44h96v18q0 40 -17.5 59.5t-56.5 19.5q-70 0 -73 -59h-143q12 175 207 175q120 0 165 -70q48 70 164 70q108 0 163.5 -56.5t55.5 -167.5v-95h-317v-10q0 -101 92 -101q76 0 81 56h141q-4 -85 -61 -128.5t-163 -43.5
q-140 0 -197 77q-61 -77 -169 -77zM485 319h177q0 52 -20.5 75.5t-67.5 23.5t-68 -23t-21 -76zM243 104q66 0 96 64q-2 26 -2 42v13h-68q-90 0 -90 -61q0 -58 64 -58z" />
    <glyph glyph-name="ccedilla" unicode="&#xe7;" horiz-adv-x="526" 
d="M275 108q41 0 59.5 22.5t20.5 68.5h141q-3 -195 -190 -210l-16 -43q108 0 108 -75q0 -39 -31 -60t-108 -21q-68 0 -113 23l23 56q34 -16 65 -16q44 0 44 24q0 13 -11.5 18t-44.5 5h-17l35 89q-195 17 -195 221v102q0 222 228 222q220 0 223 -211h-141q-2 46 -20.5 68.5
t-59.5 22.5q-42 0 -62 -24.5t-20 -78.5v-101q0 -53 20 -77.5t62 -24.5z" />
    <glyph glyph-name="egrave" unicode="&#xe8;" horiz-adv-x="553" 
d="M242 590l-143 140h160l113 -140h-130zM283 -12q-238 0 -238 222v102q0 109 59 165.5t173 56.5t173.5 -57.5t59.5 -166.5v-95h-317v-10q0 -52 22 -76.5t69 -24.5q77 0 82 56h141q-4 -85 -61 -128.5t-163 -43.5zM193 319h177q0 52 -20.5 75.5t-67.5 23.5t-68 -23t-21 -76z
" />
    <glyph glyph-name="eacute" unicode="&#xe9;" horiz-adv-x="553" 
d="M178 590l113 140h160l-143 -140h-130zM283 -12q-238 0 -238 222v102q0 109 59 165.5t173 56.5t173.5 -57.5t59.5 -166.5v-95h-317v-10q0 -52 22 -76.5t69 -24.5q77 0 82 56h141q-4 -85 -61 -128.5t-163 -43.5zM193 319h177q0 52 -20.5 75.5t-67.5 23.5t-68 -23t-21 -76z
" />
    <glyph glyph-name="ecircumflex" unicode="&#xea;" horiz-adv-x="553" 
d="M86 590l122 140h134l122 -140h-129l-60 58l-60 -58h-129zM283 -12q-238 0 -238 222v102q0 109 59 165.5t173 56.5t173.5 -57.5t59.5 -166.5v-95h-317v-10q0 -52 22 -76.5t69 -24.5q77 0 82 56h141q-4 -85 -61 -128.5t-163 -43.5zM193 319h177q0 52 -20.5 75.5t-67.5 23.5
t-68 -23t-21 -76z" />
    <glyph glyph-name="edieresis" unicode="&#xeb;" horiz-adv-x="553" 
d="M104 596v126h136v-126h-136zM310 596v126h136v-126h-136zM283 -12q-238 0 -238 222v102q0 109 59 165.5t173 56.5t173.5 -57.5t59.5 -166.5v-95h-317v-10q0 -52 22 -76.5t69 -24.5q77 0 82 56h141q-4 -85 -61 -128.5t-163 -43.5zM193 319h177q0 52 -20.5 75.5t-67.5 23.5
t-68 -23t-21 -76z" />
    <glyph glyph-name="igrave" unicode="&#xec;" horiz-adv-x="276" 
d="M105 590l-143 140h160l113 -140h-130zM64 0v522h148v-522h-148z" />
    <glyph glyph-name="iacute" unicode="&#xed;" horiz-adv-x="276" 
d="M41 590l113 140h160l-143 -140h-130zM64 0v522h148v-522h-148z" />
    <glyph glyph-name="icircumflex" unicode="&#xee;" horiz-adv-x="276" 
d="M-42 590l112 140h136l112 -140h-124l-56 59l-55 -59h-125zM64 0v522h148v-522h-148z" />
    <glyph glyph-name="idieresis" unicode="&#xef;" horiz-adv-x="276" 
d="M-21 596v126h132v-126h-132zM165 596v126h132v-126h-132zM64 0v522h148v-522h-148z" />
    <glyph glyph-name="eth" unicode="&#xf0;" horiz-adv-x="561" 
d="M280 -12q-237 0 -237 225v63q0 105 47 160.5t132 55.5q78 0 125 -56q-25 66 -70 124l-129 -49l-32 85l97 37q-56 54 -120 97h193q29 -21 58 -48l94 35l32 -85l-61 -23q108 -142 108 -316v-80q0 -225 -237 -225zM280 108q47 0 68 25.5t21 82.5v76q-8 37 -33.5 58.5
t-63.5 21.5q-81 0 -81 -98v-58q0 -57 21 -82.5t68 -25.5z" />
    <glyph glyph-name="ntilde" unicode="&#xf1;" horiz-adv-x="570" 
d="M344 585q-37 0 -76 27q-24 16 -36 16q-27 0 -31 -39h-84q4 140 109 140q37 0 76 -27q24 -16 36 -16q27 0 31 39h84q-4 -140 -109 -140zM64 0v522h126l4 -63q58 75 152 75q164 0 164 -188v-346h-148v333q0 73 -58 73q-59 0 -92 -69v-337h-148z" />
    <glyph glyph-name="ograve" unicode="&#xf2;" horiz-adv-x="564" 
d="M249 590l-143 140h160l113 -140h-130zM282 -12q-237 0 -237 225v96q0 225 237 225t237 -225v-96q0 -225 -237 -225zM282 108q47 0 68 25.5t21 82.5v90q0 57 -21 82.5t-68 25.5t-68 -25.5t-21 -82.5v-90q0 -57 21 -82.5t68 -25.5z" />
    <glyph glyph-name="oacute" unicode="&#xf3;" horiz-adv-x="564" 
d="M185 590l113 140h160l-143 -140h-130zM282 -12q-237 0 -237 225v96q0 225 237 225t237 -225v-96q0 -225 -237 -225zM282 108q47 0 68 25.5t21 82.5v90q0 57 -21 82.5t-68 25.5t-68 -25.5t-21 -82.5v-90q0 -57 21 -82.5t68 -25.5z" />
    <glyph glyph-name="ocircumflex" unicode="&#xf4;" horiz-adv-x="564" 
d="M93 590l122 140h134l122 -140h-129l-60 58l-60 -58h-129zM282 -12q-237 0 -237 225v96q0 225 237 225t237 -225v-96q0 -225 -237 -225zM282 108q47 0 68 25.5t21 82.5v90q0 57 -21 82.5t-68 25.5t-68 -25.5t-21 -82.5v-90q0 -57 21 -82.5t68 -25.5z" />
    <glyph glyph-name="otilde" unicode="&#xf5;" horiz-adv-x="564" 
d="M341 585q-37 0 -76 27q-24 16 -36 16q-27 0 -31 -39h-84q4 140 109 140q37 0 76 -27q24 -16 36 -16q27 0 31 39h84q-4 -140 -109 -140zM282 -12q-237 0 -237 225v96q0 225 237 225t237 -225v-96q0 -225 -237 -225zM282 108q47 0 68 25.5t21 82.5v90q0 57 -21 82.5
t-68 25.5t-68 -25.5t-21 -82.5v-90q0 -57 21 -82.5t68 -25.5z" />
    <glyph glyph-name="odieresis" unicode="&#xf6;" horiz-adv-x="564" 
d="M111 596v126h136v-126h-136zM317 596v126h136v-126h-136zM282 -12q-237 0 -237 225v96q0 225 237 225t237 -225v-96q0 -225 -237 -225zM282 108q47 0 68 25.5t21 82.5v90q0 57 -21 82.5t-68 25.5t-68 -25.5t-21 -82.5v-90q0 -57 21 -82.5t68 -25.5z" />
    <glyph glyph-name="divide" unicode="&#xf7;" horiz-adv-x="596" 
d="M220 456v132h156v-132h-156zM52 250v118h492v-118h-492zM220 30v132h156v-132h-156z" />
    <glyph glyph-name="oslash" unicode="&#xf8;" horiz-adv-x="564" 
d="M519 467l-27 -32q27 -51 27 -126v-96q0 -225 -237 -225q-84 0 -137 28l-23 -28l-77 67l27 32q-27 51 -27 126v96q0 225 237 225q84 0 137 -28l23 28zM193 306v-72l140 169q-20 11 -51 11q-47 0 -68 -25.5t-21 -82.5zM371 216v72l-140 -169q20 -11 51 -11q47 0 68 25.5
t21 82.5z" />
    <glyph glyph-name="ugrave" unicode="&#xf9;" horiz-adv-x="574" 
d="M252 590l-143 140h160l113 -140h-130zM226 -12q-166 0 -166 188v346h148v-333q0 -73 61 -73q62 0 93 70v336h148v-522h-126l-4 64q-59 -76 -154 -76z" />
    <glyph glyph-name="uacute" unicode="&#xfa;" horiz-adv-x="574" 
d="M188 590l113 140h160l-143 -140h-130zM226 -12q-166 0 -166 188v346h148v-333q0 -73 61 -73q62 0 93 70v336h148v-522h-126l-4 64q-59 -76 -154 -76z" />
    <glyph glyph-name="ucircumflex" unicode="&#xfb;" horiz-adv-x="574" 
d="M96 590l122 140h134l122 -140h-129l-60 58l-60 -58h-129zM226 -12q-166 0 -166 188v346h148v-333q0 -73 61 -73q62 0 93 70v336h148v-522h-126l-4 64q-59 -76 -154 -76z" />
    <glyph glyph-name="udieresis" unicode="&#xfc;" horiz-adv-x="574" 
d="M114 596v126h136v-126h-136zM320 596v126h136v-126h-136zM226 -12q-166 0 -166 188v346h148v-333q0 -73 61 -73q62 0 93 70v336h148v-522h-126l-4 64q-59 -76 -154 -76z" />
    <glyph glyph-name="yacute" unicode="&#xfd;" horiz-adv-x="498" 
d="M152 590l113 140h160l-143 -140h-130zM62 -182v116h58q21 0 32 8t18 31l11 33l-178 516h157l97 -326l89 326h149l-185 -567q-26 -81 -61.5 -109t-111.5 -28h-75z" />
    <glyph glyph-name="thorn" unicode="&#xfe;" horiz-adv-x="579" 
d="M64 -182v912h148v-250q51 54 135 54q90 0 138 -54.5t48 -159.5v-117q0 -105 -48 -160t-138 -55q-84 0 -135 54v-224h-148zM313 108q72 0 72 95v116q0 95 -73 95q-68 0 -100 -78v-149q31 -79 101 -79z" />
    <glyph glyph-name="ydieresis" unicode="&#xff;" horiz-adv-x="498" 
d="M78 596v126h136v-126h-136zM284 596v126h136v-126h-136zM62 -182v116h58q21 0 32 8t18 31l11 33l-178 516h157l97 -326l89 326h149l-185 -567q-26 -81 -61.5 -109t-111.5 -28h-75z" />
    <glyph glyph-name="Amacron" unicode="&#x100;" horiz-adv-x="615" 
d="M159 761h296v99h-296v-99zM2 0l228 680h155l228 -680h-159l-43 137h-214l-43 -137h-152zM234 262h140l-70 248z" />
    <glyph glyph-name="amacron" unicode="&#x101;" horiz-adv-x="542" 
d="M117 609h296v99h-296v-99zM198 -12q-78 0 -121.5 42.5t-43.5 119.5q0 83 52.5 127t155.5 44h96v17q0 41 -17.5 60.5t-56.5 19.5q-70 0 -73 -59h-143q12 175 222 175q111 0 163.5 -48t52.5 -150v-336h-125l-5 65q-54 -77 -157 -77zM243 104q62 0 94 59v60h-69
q-89 0 -89 -61q0 -58 64 -58z" />
    <glyph glyph-name="Abreve" unicode="&#x102;" horiz-adv-x="615" 
d="M307 733q-71 0 -115 40t-47 106h98q5 -54 64 -54t64 54h98q-3 -66 -47 -106t-115 -40zM2 0l228 680h155l228 -680h-159l-43 137h-214l-43 -137h-152zM234 262h140l-70 248z" />
    <glyph glyph-name="abreve" unicode="&#x103;" horiz-adv-x="542" 
d="M265 581q-71 0 -115 40t-47 106h98q5 -54 64 -54t64 54h98q-3 -66 -47 -106t-115 -40zM198 -12q-78 0 -121.5 42.5t-43.5 119.5q0 83 52.5 127t155.5 44h96v17q0 41 -17.5 60.5t-56.5 19.5q-70 0 -73 -59h-143q12 175 222 175q111 0 163.5 -48t52.5 -150v-336h-125l-5 65
q-54 -77 -157 -77zM243 104q62 0 94 59v60h-69q-89 0 -89 -61q0 -58 64 -58z" />
    <glyph glyph-name="Aogonek" unicode="&#x104;" horiz-adv-x="615" 
d="M565 -116q25 0 49 12v-89q-37 -13 -80 -13q-60 0 -92.5 23.5t-32.5 68.5q0 64 69 114h-24l-43 137h-214l-43 -137h-152l228 680h155l228 -680h-33q-60 -39 -60 -80q0 -36 45 -36zM234 262h140l-70 248z" />
    <glyph glyph-name="aogonek" unicode="&#x105;" horiz-adv-x="542" 
d="M437 -116q25 0 49 12v-89q-37 -13 -80 -13q-60 0 -92.5 23.5t-32.5 68.5q0 68 78 121l-4 58q-54 -77 -157 -77q-78 0 -121.5 42.5t-43.5 119.5q0 83 52.5 127t155.5 44h96v17q0 41 -17.5 60.5t-56.5 19.5q-70 0 -73 -59h-143q12 175 222 175q111 0 163.5 -48t52.5 -150
v-336h-33q-60 -39 -60 -80q0 -36 45 -36zM337 163v60h-69q-89 0 -89 -61q0 -58 64 -58q62 0 94 59z" />
    <glyph glyph-name="Cacute" unicode="&#x106;" horiz-adv-x="615" 
d="M217 742l113 140h160l-143 -140h-130zM315 -12q-135 0 -199.5 67t-64.5 209v152q0 142 64.5 209t199.5 67q131 0 194 -62.5t66 -194.5h-143q-2 68 -28.5 98t-86.5 30q-63 0 -89.5 -34.5t-26.5 -115.5v-146q0 -81 26.5 -115.5t89.5 -34.5q60 0 86.5 30t28.5 97h143
q-3 -131 -66.5 -193.5t-193.5 -62.5z" />
    <glyph glyph-name="cacute" unicode="&#x107;" horiz-adv-x="526" 
d="M174 590l113 140h160l-143 -140h-130zM273 -12q-228 0 -228 222v102q0 222 228 222q220 0 223 -211h-141q-2 46 -20.5 68.5t-59.5 22.5q-42 0 -62 -24.5t-20 -78.5v-101q0 -53 20 -77.5t62 -24.5q41 0 59.5 22.5t20.5 68.5h141q-3 -211 -223 -211z" />
    <glyph glyph-name="Ccircumflex" unicode="&#x108;" horiz-adv-x="615" 
d="M125 742l122 140h134l122 -140h-129l-60 58l-60 -58h-129zM315 -12q-135 0 -199.5 67t-64.5 209v152q0 142 64.5 209t199.5 67q131 0 194 -62.5t66 -194.5h-143q-2 68 -28.5 98t-86.5 30q-63 0 -89.5 -34.5t-26.5 -115.5v-146q0 -81 26.5 -115.5t89.5 -34.5q60 0 86.5 30
t28.5 97h143q-3 -131 -66.5 -193.5t-193.5 -62.5z" />
    <glyph glyph-name="ccircumflex" unicode="&#x109;" horiz-adv-x="526" 
d="M82 590l122 140h134l122 -140h-129l-60 58l-60 -58h-129zM273 -12q-228 0 -228 222v102q0 222 228 222q220 0 223 -211h-141q-2 46 -20.5 68.5t-59.5 22.5q-42 0 -62 -24.5t-20 -78.5v-101q0 -53 20 -77.5t62 -24.5q41 0 59.5 22.5t20.5 68.5h141q-3 -211 -223 -211z" />
    <glyph glyph-name="Cdotaccent" unicode="&#x10a;" horiz-adv-x="615" 
d="M242 748v126h144v-126h-144zM315 -12q-135 0 -199.5 67t-64.5 209v152q0 142 64.5 209t199.5 67q131 0 194 -62.5t66 -194.5h-143q-2 68 -28.5 98t-86.5 30q-63 0 -89.5 -34.5t-26.5 -115.5v-146q0 -81 26.5 -115.5t89.5 -34.5q60 0 86.5 30t28.5 97h143
q-3 -131 -66.5 -193.5t-193.5 -62.5z" />
    <glyph glyph-name="cdotaccent" unicode="&#x10b;" horiz-adv-x="526" 
d="M199 596v126h144v-126h-144zM273 -12q-228 0 -228 222v102q0 222 228 222q220 0 223 -211h-141q-2 46 -20.5 68.5t-59.5 22.5q-42 0 -62 -24.5t-20 -78.5v-101q0 -53 20 -77.5t62 -24.5q41 0 59.5 22.5t20.5 68.5h141q-3 -211 -223 -211z" />
    <glyph glyph-name="Ccaron" unicode="&#x10c;" horiz-adv-x="615" 
d="M247 742l-122 140h129l60 -58l60 58h129l-122 -140h-134zM315 -12q-135 0 -199.5 67t-64.5 209v152q0 142 64.5 209t199.5 67q131 0 194 -62.5t66 -194.5h-143q-2 68 -28.5 98t-86.5 30q-63 0 -89.5 -34.5t-26.5 -115.5v-146q0 -81 26.5 -115.5t89.5 -34.5q60 0 86.5 30
t28.5 97h143q-3 -131 -66.5 -193.5t-193.5 -62.5z" />
    <glyph glyph-name="ccaron" unicode="&#x10d;" horiz-adv-x="526" 
d="M204 590l-122 140h129l60 -58l60 58h129l-122 -140h-134zM273 -12q-228 0 -228 222v102q0 222 228 222q220 0 223 -211h-141q-2 46 -20.5 68.5t-59.5 22.5q-42 0 -62 -24.5t-20 -78.5v-101q0 -53 20 -77.5t62 -24.5q41 0 59.5 22.5t20.5 68.5h141q-3 -211 -223 -211z" />
    <glyph glyph-name="Dcaron" unicode="&#x10e;" horiz-adv-x="642" 
d="M242 742l-122 140h129l60 -58l60 58h129l-122 -140h-134zM75 0v680h253q137 0 200.5 -65t63.5 -203v-144q0 -139 -63.5 -203.5t-200.5 -64.5h-253zM225 128h82q76 0 105.5 31.5t29.5 111.5v138q0 80 -29.5 111.5t-105.5 31.5h-82v-424z" />
    <glyph glyph-name="dcaron" unicode="&#x10f;" horiz-adv-x="630" 
d="M232 -12q-90 0 -138 54.5t-48 159.5v117q0 105 48 160t138 55q84 0 135 -54v250h148v-730h-126l-4 63q-56 -75 -153 -75zM539 508l38 222h138l-81 -222h-95zM267 108q68 0 100 79v147q-32 80 -101 80q-72 0 -72 -95v-116q0 -95 73 -95z" />
    <glyph glyph-name="Dcroat" unicode="&#x110;" horiz-adv-x="652" 
d="M338 680q137 0 200.5 -65t63.5 -203v-144q0 -139 -63.5 -203.5t-200.5 -64.5h-253v282h-63v128h63v270h253zM452 271v138q0 80 -29.5 111.5t-105.5 31.5h-82v-142h113v-128h-113v-154h82q76 0 105.5 31.5t29.5 111.5z" />
    <glyph glyph-name="dcroat" unicode="&#x111;" horiz-adv-x="587" 
d="M584 674v-97h-69v-577h-126l-4 63q-56 -75 -153 -75q-90 0 -138 54.5t-48 159.5v117q0 105 48 160t138 55q84 0 135 -54v97h-124v97h124v56h148v-56h69zM367 187v147q-32 80 -101 80q-72 0 -72 -95v-116q0 -95 73 -95q68 0 100 79z" />
    <glyph glyph-name="Emacron" unicode="&#x112;" horiz-adv-x="587" 
d="M160 761h296v99h-296v-99zM75 0v680h466v-129h-316v-141h266v-128h-266v-153h326v-129h-476z" />
    <glyph glyph-name="emacron" unicode="&#x113;" horiz-adv-x="553" 
d="M127 609h296v99h-296v-99zM283 -12q-238 0 -238 222v102q0 109 59 165.5t173 56.5t173.5 -57.5t59.5 -166.5v-95h-317v-10q0 -52 22 -76.5t69 -24.5q77 0 82 56h141q-4 -85 -61 -128.5t-163 -43.5zM193 319h177q0 52 -20.5 75.5t-67.5 23.5t-68 -23t-21 -76z" />
    <glyph glyph-name="Ebreve" unicode="&#x114;" horiz-adv-x="587" 
d="M308 733q-71 0 -115 40t-47 106h98q5 -54 64 -54t64 54h98q-3 -66 -47 -106t-115 -40zM75 0v680h466v-129h-316v-141h266v-128h-266v-153h326v-129h-476z" />
    <glyph glyph-name="ebreve" unicode="&#x115;" horiz-adv-x="553" 
d="M275 581q-71 0 -115 40t-47 106h98q5 -54 64 -54t64 54h98q-3 -66 -47 -106t-115 -40zM283 -12q-238 0 -238 222v102q0 109 59 165.5t173 56.5t173.5 -57.5t59.5 -166.5v-95h-317v-10q0 -52 22 -76.5t69 -24.5q77 0 82 56h141q-4 -85 -61 -128.5t-163 -43.5zM193 319h177
q0 52 -20.5 75.5t-67.5 23.5t-68 -23t-21 -76z" />
    <glyph glyph-name="Edotaccent" unicode="&#x116;" horiz-adv-x="587" 
d="M236 748v126h144v-126h-144zM75 0v680h466v-129h-316v-141h266v-128h-266v-153h326v-129h-476z" />
    <glyph glyph-name="edotaccent" unicode="&#x117;" horiz-adv-x="553" 
d="M203 596v126h144v-126h-144zM283 -12q-238 0 -238 222v102q0 109 59 165.5t173 56.5t173.5 -57.5t59.5 -166.5v-95h-317v-10q0 -52 22 -76.5t69 -24.5q77 0 82 56h141q-4 -85 -61 -128.5t-163 -43.5zM193 319h177q0 52 -20.5 75.5t-67.5 23.5t-68 -23t-21 -76z" />
    <glyph glyph-name="Eogonek" unicode="&#x118;" horiz-adv-x="587" 
d="M503 -116q25 0 49 12v-89q-37 -13 -80 -13q-60 0 -92.5 23.5t-32.5 68.5q0 64 69 114h-341v680h466v-129h-316v-141h266v-128h-266v-153h326v-129h-33q-60 -39 -60 -80q0 -36 45 -36z" />
    <glyph glyph-name="eogonek" unicode="&#x119;" horiz-adv-x="553" 
d="M510 215h-317v-10q0 -52 22 -76.5t69 -24.5q77 0 82 56h141q-5 -93 -73 -136q-60 -51 -60 -102q0 -38 45 -38q25 0 49 12v-89q-32 -13 -79 -13q-126 0 -126 94q0 52 43 101q-7 -1 -23 -1q-238 0 -238 222v102q0 109 59 165.5t173 56.5t173.5 -57.5t59.5 -166.5v-95z
M282 418q-47 0 -68 -23t-21 -76h177q0 52 -20.5 75.5t-67.5 23.5z" />
    <glyph glyph-name="Ecaron" unicode="&#x11a;" horiz-adv-x="587" 
d="M241 742l-122 140h129l60 -58l60 58h129l-122 -140h-134zM75 0v680h466v-129h-316v-141h266v-128h-266v-153h326v-129h-476z" />
    <glyph glyph-name="ecaron" unicode="&#x11b;" horiz-adv-x="553" 
d="M208 590l-122 140h129l60 -58l60 58h129l-122 -140h-134zM283 -12q-238 0 -238 222v102q0 109 59 165.5t173 56.5t173.5 -57.5t59.5 -166.5v-95h-317v-10q0 -52 22 -76.5t69 -24.5q77 0 82 56h141q-4 -85 -61 -128.5t-163 -43.5zM193 319h177q0 52 -20.5 75.5t-67.5 23.5
t-68 -23t-21 -76z" />
    <glyph glyph-name="Gcircumflex" unicode="&#x11c;" horiz-adv-x="635" 
d="M127 742l122 140h134l122 -140h-129l-60 58l-60 -58h-129zM322 -12q-137 0 -204 67t-67 204v162q0 271 266 271q124 0 191.5 -56.5t71.5 -166.5h-143q-7 94 -116 94q-65 0 -92.5 -34.5t-27.5 -115.5v-146q0 -80 28.5 -115t95.5 -35q63 0 90.5 32t27.5 107h-112v129h255
v-129q0 -136 -65 -202t-199 -66z" />
    <glyph glyph-name="gcircumflex" unicode="&#x11d;" horiz-adv-x="579" 
d="M94 590l122 140h134l122 -140h-129l-60 58l-60 -58h-129zM277 -194q-107 0 -162.5 41t-59.5 131h139q3 -30 22.5 -43t58.5 -13q49 0 70.5 21t21.5 71v60q-51 -54 -135 -54q-90 0 -138 55t-48 160v85q0 105 48 159.5t138 54.5q97 0 153 -75l4 63h126v-508
q0 -107 -58.5 -157.5t-179.5 -50.5zM266 140q69 0 101 80v115q-32 79 -100 79q-73 0 -73 -95v-84q0 -95 72 -95z" />
    <glyph glyph-name="Gbreve" unicode="&#x11e;" horiz-adv-x="635" 
d="M316 733q-71 0 -115 40t-47 106h98q5 -54 64 -54t64 54h98q-3 -66 -47 -106t-115 -40zM322 -12q-137 0 -204 67t-67 204v162q0 271 266 271q124 0 191.5 -56.5t71.5 -166.5h-143q-7 94 -116 94q-65 0 -92.5 -34.5t-27.5 -115.5v-146q0 -80 28.5 -115t95.5 -35
q63 0 90.5 32t27.5 107h-112v129h255v-129q0 -136 -65 -202t-199 -66z" />
    <glyph glyph-name="gbreve" unicode="&#x11f;" horiz-adv-x="579" 
d="M283 581q-71 0 -115 40t-47 106h98q5 -54 64 -54t64 54h98q-3 -66 -47 -106t-115 -40zM277 -194q-107 0 -162.5 41t-59.5 131h139q3 -30 22.5 -43t58.5 -13q49 0 70.5 21t21.5 71v60q-51 -54 -135 -54q-90 0 -138 55t-48 160v85q0 105 48 159.5t138 54.5q97 0 153 -75
l4 63h126v-508q0 -107 -58.5 -157.5t-179.5 -50.5zM266 140q69 0 101 80v115q-32 79 -100 79q-73 0 -73 -95v-84q0 -95 72 -95z" />
    <glyph glyph-name="Gdotaccent" unicode="&#x120;" horiz-adv-x="635" 
d="M244 748v126h144v-126h-144zM322 -12q-137 0 -204 67t-67 204v162q0 271 266 271q124 0 191.5 -56.5t71.5 -166.5h-143q-7 94 -116 94q-65 0 -92.5 -34.5t-27.5 -115.5v-146q0 -80 28.5 -115t95.5 -35q63 0 90.5 32t27.5 107h-112v129h255v-129q0 -136 -65 -202t-199 -66
z" />
    <glyph glyph-name="gdotaccent" unicode="&#x121;" horiz-adv-x="579" 
d="M211 596v126h144v-126h-144zM277 -194q-107 0 -162.5 41t-59.5 131h139q3 -30 22.5 -43t58.5 -13q49 0 70.5 21t21.5 71v60q-51 -54 -135 -54q-90 0 -138 55t-48 160v85q0 105 48 159.5t138 54.5q97 0 153 -75l4 63h126v-508q0 -107 -58.5 -157.5t-179.5 -50.5zM266 140
q69 0 101 80v115q-32 79 -100 79q-73 0 -73 -95v-84q0 -95 72 -95z" />
    <glyph glyph-name="Gcommaaccent" unicode="&#x122;" horiz-adv-x="635" 
d="M322 -12q-137 0 -204 67t-67 204v162q0 271 266 271q124 0 191.5 -56.5t71.5 -166.5h-143q-7 94 -116 94q-65 0 -92.5 -34.5t-27.5 -115.5v-146q0 -80 28.5 -115t95.5 -35q63 0 90.5 32t27.5 107h-112v129h255v-129q0 -136 -65 -202t-199 -66zM251 -254v55q33 0 47.5 10
t14.5 32h-60v98h143v-65q0 -74 -29.5 -102t-115.5 -28z" />
    <glyph glyph-name="gcommaaccent" unicode="&#x123;" horiz-adv-x="579" 
d="M356 776v-55q-33 0 -47.5 -10t-14.5 -32h60v-98h-143v65q0 74 29.5 102t115.5 28zM277 -194q-107 0 -162.5 41t-59.5 131h139q3 -30 22.5 -43t58.5 -13q49 0 70.5 21t21.5 71v60q-51 -54 -135 -54q-90 0 -138 55t-48 160v85q0 105 48 159.5t138 54.5q97 0 153 -75l4 63
h126v-508q0 -107 -58.5 -157.5t-179.5 -50.5zM266 140q69 0 101 80v115q-32 79 -100 79q-73 0 -73 -95v-84q0 -95 72 -95z" />
    <glyph glyph-name="Hcircumflex" unicode="&#x124;" horiz-adv-x="684" 
d="M153 742l122 140h134l122 -140h-129l-60 58l-60 -58h-129zM75 0v680h150v-269h234v269h150v-680h-150v281h-234v-281h-150z" />
    <glyph glyph-name="hcircumflex" unicode="&#x125;" horiz-adv-x="570" 
d="M-51 792l122 140h134l122 -140h-129l-60 58l-60 -58h-129zM64 0v730h148v-250q53 54 134 54q164 0 164 -188v-346h-148v333q0 73 -58 73q-59 0 -92 -69v-337h-148z" />
    <glyph glyph-name="Hbar" unicode="&#x126;" horiz-adv-x="704" 
d="M682 591v-104h-63v-487h-150v281h-234v-281h-150v487h-63v104h63v89h150v-89h234v89h150v-89h63zM469 411v76h-234v-76h234z" />
    <glyph glyph-name="hbar" unicode="&#x127;" horiz-adv-x="578" 
d="M354 534q164 0 164 -188v-346h-148v333q0 73 -58 73q-59 0 -92 -69v-337h-148v577h-69v97h69v56h148v-56h124v-97h-124v-97q53 54 134 54z" />
    <glyph glyph-name="Itilde" unicode="&#x128;" horiz-adv-x="300" 
d="M202 737q-24 0 -67 28q-23 15 -35 15q-25 0 -28 -39h-82q2 70 26.5 105t80.5 35q24 0 67 -28q23 -15 35 -15q25 0 28 39h82q-2 -70 -26.5 -105t-80.5 -35zM75 0v680h150v-680h-150z" />
    <glyph glyph-name="itilde" unicode="&#x129;" horiz-adv-x="276" 
d="M190 585q-24 0 -67 28q-23 15 -35 15q-25 0 -28 -39h-82q2 70 26.5 105t80.5 35q24 0 67 -28q23 -15 35 -15q25 0 28 39h82q-2 -70 -26.5 -105t-80.5 -35zM64 0v522h148v-522h-148z" />
    <glyph glyph-name="Imacron" unicode="&#x12a;" horiz-adv-x="300" 
d="M13 761v99h274v-99h-274zM75 0v680h150v-680h-150z" />
    <glyph glyph-name="imacron" unicode="&#x12b;" horiz-adv-x="276" 
d="M1 609v99h274v-99h-274zM64 0v522h148v-522h-148z" />
    <glyph glyph-name="Ibreve" unicode="&#x12c;" horiz-adv-x="300" 
d="M150 733q-68 0 -110.5 40.5t-44.5 105.5h97q2 -26 17 -40t41 -14t41 14t17 40h97q-2 -65 -44.5 -105.5t-110.5 -40.5zM75 0v680h150v-680h-150z" />
    <glyph glyph-name="ibreve" unicode="&#x12d;" horiz-adv-x="276" 
d="M138 581q-68 0 -110.5 40.5t-44.5 105.5h97q2 -26 17 -40t41 -14t41 14t17 40h97q-2 -65 -44.5 -105.5t-110.5 -40.5zM64 0v522h148v-522h-148z" />
    <glyph glyph-name="Iogonek" unicode="&#x12e;" horiz-adv-x="300" 
d="M191 -116q26 0 52 12v-89q-38 -13 -83 -13q-61 0 -94 23.5t-33 67.5q0 63 73 115h-31v680h150v-680h-24q-57 -35 -57 -80q0 -36 47 -36z" />
    <glyph glyph-name="iogonek" unicode="&#x12f;" horiz-adv-x="276" 
d="M216 722v-126h-156v126h156zM178 -116q26 0 52 12v-89q-38 -13 -83 -13q-61 0 -94 23.5t-33 67.5q0 63 73 115h-29v522h148v-522h-24q-57 -35 -57 -80q0 -36 47 -36z" />
    <glyph glyph-name="Idotaccent" unicode="&#x130;" horiz-adv-x="300" 
d="M78 748v126h144v-126h-144zM75 0v680h150v-680h-150z" />
    <glyph glyph-name="dotlessi" unicode="&#x131;" horiz-adv-x="276" 
d="M64 0v522h148v-522h-148z" />
    <glyph glyph-name="IJ" unicode="&#x132;" horiz-adv-x="853" 
d="M75 0v680h150v-680h-150zM552 -12q-124 0 -180.5 57t-56.5 182v19h144v-19q0 -58 21 -84t70 -26t70.5 27.5t21.5 88.5v447h150v-453q0 -125 -57.5 -182t-182.5 -57z" />
    <glyph glyph-name="ij" unicode="&#x133;" horiz-adv-x="552" 
d="M60 596v126h156v-126h-156zM336 596v126h156v-126h-156zM64 0v522h148v-522h-148zM273 -182v116h30q20 0 28.5 9.5t8.5 33.5v545h148v-548q0 -82 -33 -119t-106 -37h-76z" />
    <glyph glyph-name="Jcircumflex" unicode="&#x134;" horiz-adv-x="553" 
d="M237 742l112 140h136l112 -140h-124l-56 59l-55 -59h-125zM252 -12q-124 0 -180.5 57t-56.5 182v19h144v-19q0 -58 21.5 -84t69.5 -26q49 0 70.5 27.5t21.5 88.5v447h150v-453q0 -125 -57.5 -182t-182.5 -57z" />
    <glyph glyph-name="jcircumflex" unicode="&#x135;" horiz-adv-x="276" 
d="M-42 590l112 140h136l112 -140h-124l-56 59l-55 -59h-125zM-3 -182v116h30q20 0 28.5 9.5t8.5 33.5v545h148v-548q0 -82 -33 -119t-106 -37h-76z" />
    <glyph glyph-name="Kcommaaccent" unicode="&#x136;" horiz-adv-x="622" 
d="M75 0v680h150v-297l231 297h172l-219 -279l222 -401h-171l-155 282l-80 -102v-180h-150zM266 -254v55q33 0 47.5 10t14.5 32h-60v98h143v-65q0 -74 -29.5 -102t-115.5 -28z" />
    <glyph glyph-name="kcommaaccent" unicode="&#x137;" horiz-adv-x="549" 
d="M64 0v730h148v-412l172 204h173l-183 -213l186 -309h-172l-119 202l-57 -67v-135h-148zM223 -254v55q33 0 47.5 10t14.5 32h-60v98h143v-65q0 -74 -29.5 -102t-115.5 -28z" />
    <glyph glyph-name="kgreenlandic" unicode="&#x138;" horiz-adv-x="549" 
d="M64 0v522h148v-204l172 204h173l-183 -213l186 -309h-172l-119 202l-57 -67v-135h-148z" />
    <glyph glyph-name="Lacute" unicode="&#x139;" horiz-adv-x="518" 
d="M53 742l113 140h160l-143 -140h-130zM75 0v680h150v-549h287v-131h-437z" />
    <glyph glyph-name="lacute" unicode="&#x13a;" horiz-adv-x="276" 
d="M41 792l113 140h160l-143 -140h-130zM64 0v730h148v-730h-148z" />
    <glyph glyph-name="Lcommaaccent" unicode="&#x13b;" horiz-adv-x="518" 
d="M75 0v680h150v-549h287v-131h-437zM220 -254v55q33 0 47.5 10t14.5 32h-60v98h143v-65q0 -74 -29.5 -102t-115.5 -28z" />
    <glyph glyph-name="lcommaaccent" unicode="&#x13c;" horiz-adv-x="276" 
d="M64 0v730h148v-730h-148zM65 -254v55q33 0 47.5 10t14.5 32h-60v98h143v-65q0 -74 -29.5 -102t-115.5 -28z" />
    <glyph glyph-name="Lcaron" unicode="&#x13d;" horiz-adv-x="518" 
d="M75 0v680h150v-549h287v-131h-437zM268 458l38 222h138l-81 -222h-95z" />
    <glyph glyph-name="lcaron" unicode="&#x13e;" horiz-adv-x="327" 
d="M64 0v730h148v-730h-148zM236 508l38 222h138l-81 -222h-95z" />
    <glyph glyph-name="Ldot" unicode="&#x13f;" horiz-adv-x="518" 
d="M75 0v680h150v-549h287v-131h-437zM339 315v140h140v-140h-140z" />
    <glyph glyph-name="ldot" unicode="&#x140;" horiz-adv-x="376" 
d="M64 0v730h148v-730h-148zM256 294v134h139v-134h-139z" />
    <glyph glyph-name="Lslash" unicode="&#x141;" horiz-adv-x="528" 
d="M235 131h287v-131h-437v165l-63 -42v145l63 42v370h150v-271l177 117v-144l-177 -118v-133z" />
    <glyph glyph-name="lslash" unicode="&#x142;" horiz-adv-x="306" 
d="M303 539v-132l-76 -50v-357h-148v258l-76 -50v132l76 50v340h148v-241z" />
    <glyph glyph-name="Nacute" unicode="&#x143;" horiz-adv-x="682" 
d="M244 742l113 140h160l-143 -140h-130zM75 0v680h159l231 -429v429h142v-680h-143l-247 458v-458h-142z" />
    <glyph glyph-name="nacute" unicode="&#x144;" horiz-adv-x="570" 
d="M188 590l113 140h160l-143 -140h-130zM64 0v522h126l4 -63q58 75 152 75q164 0 164 -188v-346h-148v333q0 73 -58 73q-59 0 -92 -69v-337h-148z" />
    <glyph glyph-name="Ncommaaccent" unicode="&#x145;" horiz-adv-x="682" 
d="M75 0v680h159l231 -429v429h142v-680h-143l-247 458v-458h-142zM267 -254v55q33 0 47.5 10t14.5 32h-60v98h143v-65q0 -74 -29.5 -102t-115.5 -28z" />
    <glyph glyph-name="ncommaaccent" unicode="&#x146;" horiz-adv-x="570" 
d="M64 0v522h126l4 -63q58 75 152 75q164 0 164 -188v-346h-148v333q0 73 -58 73q-59 0 -92 -69v-337h-148zM214 -254v55q33 0 47.5 10t14.5 32h-60v98h143v-65q0 -74 -29.5 -102t-115.5 -28z" />
    <glyph glyph-name="Ncaron" unicode="&#x147;" horiz-adv-x="682" 
d="M274 742l-122 140h129l60 -58l60 58h129l-122 -140h-134zM75 0v680h159l231 -429v429h142v-680h-143l-247 458v-458h-142z" />
    <glyph glyph-name="ncaron" unicode="&#x148;" horiz-adv-x="570" 
d="M218 590l-122 140h129l60 -58l60 58h129l-122 -140h-134zM64 0v522h126l4 -63q58 75 152 75q164 0 164 -188v-346h-148v333q0 73 -58 73q-59 0 -92 -69v-337h-148z" />
    <glyph glyph-name="napostrophe" unicode="&#x149;" horiz-adv-x="651" 
d="M-1 494v66q33 0 46.5 11.5t13.5 37.5v1h-58v120h142v-98q0 -72 -32.5 -105t-111.5 -33zM145 0v522h126l4 -63q58 75 152 75q164 0 164 -188v-346h-148v333q0 73 -58 73q-59 0 -92 -69v-337h-148z" />
    <glyph glyph-name="Eng" unicode="&#x14a;" horiz-adv-x="682" 
d="M391 -182v116h37q20 0 28.5 9.5t8.5 33.5v22l-248 459v-458h-142v680h159l231 -429v429h142v-706q0 -82 -33 -119t-106 -37h-77z" />
    <glyph glyph-name="eng" unicode="&#x14b;" horiz-adv-x="570" 
d="M346 534q164 0 164 -188v-373q0 -81 -33 -118t-106 -37h-76v113h30q20 0 28.5 9.5t8.5 33.5v359q0 73 -58 73q-59 0 -92 -69v-337h-148v522h126l4 -63q58 75 152 75z" />
    <glyph glyph-name="Omacron" unicode="&#x14c;" horiz-adv-x="652" 
d="M178 761h296v99h-296v-99zM326 -12q-141 0 -208 67.5t-67 209.5v150q0 142 67 209.5t208 67.5t208 -67.5t67 -209.5v-150q0 -142 -67 -209.5t-208 -67.5zM326 117q67 0 96 35t29 115v146q0 80 -29 115t-96 35t-96 -35t-29 -115v-146q0 -80 29 -115t96 -35z" />
    <glyph glyph-name="omacron" unicode="&#x14d;" horiz-adv-x="564" 
d="M134 609h296v99h-296v-99zM282 -12q-237 0 -237 225v96q0 225 237 225t237 -225v-96q0 -225 -237 -225zM282 108q47 0 68 25.5t21 82.5v90q0 57 -21 82.5t-68 25.5t-68 -25.5t-21 -82.5v-90q0 -57 21 -82.5t68 -25.5z" />
    <glyph glyph-name="Obreve" unicode="&#x14e;" horiz-adv-x="652" 
d="M326 733q-71 0 -115 40t-47 106h98q5 -54 64 -54t64 54h98q-3 -66 -47 -106t-115 -40zM326 -12q-141 0 -208 67.5t-67 209.5v150q0 142 67 209.5t208 67.5t208 -67.5t67 -209.5v-150q0 -142 -67 -209.5t-208 -67.5zM326 117q67 0 96 35t29 115v146q0 80 -29 115t-96 35
t-96 -35t-29 -115v-146q0 -80 29 -115t96 -35z" />
    <glyph glyph-name="obreve" unicode="&#x14f;" horiz-adv-x="564" 
d="M282 581q-71 0 -115 40t-47 106h98q5 -54 64 -54t64 54h98q-3 -66 -47 -106t-115 -40zM282 -12q-237 0 -237 225v96q0 225 237 225t237 -225v-96q0 -225 -237 -225zM282 108q47 0 68 25.5t21 82.5v90q0 57 -21 82.5t-68 25.5t-68 -25.5t-21 -82.5v-90q0 -57 21 -82.5
t68 -25.5z" />
    <glyph glyph-name="Ohungarumlaut" unicode="&#x150;" horiz-adv-x="652" 
d="M145 742l88 140h148l-119 -140h-117zM350 742l88 140h148l-119 -140h-117zM326 -12q-141 0 -208 67.5t-67 209.5v150q0 142 67 209.5t208 67.5t208 -67.5t67 -209.5v-150q0 -142 -67 -209.5t-208 -67.5zM326 117q67 0 96 35t29 115v146q0 80 -29 115t-96 35t-96 -35
t-29 -115v-146q0 -80 29 -115t96 -35z" />
    <glyph glyph-name="ohungarumlaut" unicode="&#x151;" horiz-adv-x="564" 
d="M101 590l88 140h148l-119 -140h-117zM306 590l88 140h148l-119 -140h-117zM282 -12q-237 0 -237 225v96q0 225 237 225t237 -225v-96q0 -225 -237 -225zM282 108q47 0 68 25.5t21 82.5v90q0 57 -21 82.5t-68 25.5t-68 -25.5t-21 -82.5v-90q0 -57 21 -82.5t68 -25.5z" />
    <glyph glyph-name="OE" unicode="&#x152;" horiz-adv-x="891" 
d="M315 0q-138 0 -201.5 64.5t-63.5 203.5v144q0 138 63.5 203t201.5 65h530v-129h-291v-141h241v-128h-241v-153h301v-129h-540zM335 128h69v424h-69q-75 0 -105 -32t-30 -111v-138q0 -79 30 -111t105 -32z" />
    <glyph glyph-name="oe" unicode="&#x153;" horiz-adv-x="879" 
d="M270 -12q-111 0 -168 57t-57 168v96q0 111 57 168t168 57q125 0 175 -75q49 75 170 75q108 0 164.5 -56.5t56.5 -165.5v-97h-317v-10q0 -52 22 -76.5t69 -24.5q77 0 82 56h141q-4 -84 -59 -128t-153 -44q-126 0 -176 75q-50 -75 -175 -75zM519 319h177q0 52 -20.5 75.5
t-67.5 23.5t-68 -23t-21 -76zM282 108q47 0 68 25.5t21 82.5v90q0 57 -21 82.5t-68 25.5t-68 -25.5t-21 -82.5v-90q0 -57 21 -82.5t68 -25.5z" />
    <glyph glyph-name="Racute" unicode="&#x154;" horiz-adv-x="633" 
d="M209 742l113 140h160l-143 -140h-130zM75 0v680h278q125 0 179 -50.5t54 -164.5q0 -84 -29 -132.5t-92 -67.5l147 -265h-171l-135 251h-81v-251h-150zM225 379h112q54 0 76.5 20t22.5 66q0 47 -22.5 67t-76.5 20h-112v-173z" />
    <glyph glyph-name="racute" unicode="&#x155;" horiz-adv-x="377" 
d="M110 590l113 140h160l-143 -140h-130zM64 0v522h126l6 -97q15 56 47 81.5t86 25.5h39v-138h-28q-58 0 -88 -23.5t-40 -78.5v-292h-148z" />
    <glyph glyph-name="Rcommaaccent" unicode="&#x156;" horiz-adv-x="633" 
d="M75 0v680h278q125 0 179 -50.5t54 -164.5q0 -84 -29 -132.5t-92 -67.5l147 -265h-171l-135 251h-81v-251h-150zM225 379h112q54 0 76.5 20t22.5 66q0 47 -22.5 67t-76.5 20h-112v-173zM258 -254v55q33 0 47.5 10t14.5 32h-60v98h143v-65q0 -74 -29.5 -102t-115.5 -28z
" />
    <glyph glyph-name="rcommaaccent" unicode="&#x157;" horiz-adv-x="377" 
d="M64 0v522h126l6 -97q15 56 47 81.5t86 25.5h39v-138h-28q-58 0 -88 -23.5t-40 -78.5v-292h-148zM65 -254v55q33 0 47.5 10t14.5 32h-60v98h143v-65q0 -74 -29.5 -102t-115.5 -28z" />
    <glyph glyph-name="Rcaron" unicode="&#x158;" horiz-adv-x="633" 
d="M239 742l-122 140h129l60 -58l60 58h129l-122 -140h-134zM75 0v680h278q125 0 179 -50.5t54 -164.5q0 -84 -29 -132.5t-92 -67.5l147 -265h-171l-135 251h-81v-251h-150zM225 379h112q54 0 76.5 20t22.5 66q0 47 -22.5 67t-76.5 20h-112v-173z" />
    <glyph glyph-name="rcaron" unicode="&#x159;" horiz-adv-x="377" 
d="M140 590l-122 140h129l60 -58l60 58h129l-122 -140h-134zM64 0v522h126l6 -97q15 56 47 81.5t86 25.5h39v-138h-28q-58 0 -88 -23.5t-40 -78.5v-292h-148z" />
    <glyph glyph-name="Sacute" unicode="&#x15a;" horiz-adv-x="563" 
d="M177 742l113 140h160l-143 -140h-130zM280 -12q-130 0 -191 52.5t-61 164.5h146q0 -95 110 -95q99 0 99 73q0 42 -30.5 63t-106.5 33q-113 18 -160.5 64.5t-47.5 139.5q0 209 247 209q239 0 239 -211h-146q0 88 -96 88q-94 0 -94 -71q0 -38 29.5 -57.5t101.5 -30.5
q118 -17 166 -66t48 -146q0 -210 -253 -210z" />
    <glyph glyph-name="sacute" unicode="&#x15b;" horiz-adv-x="504" 
d="M152 590l113 140h160l-143 -140h-130zM252 -12q-113 0 -167 42.5t-54 129.5h141q0 -34 19 -49.5t62 -15.5q73 0 73 47q0 28 -23.5 41.5t-82.5 20.5q-97 11 -138.5 47.5t-41.5 110.5q0 84 55 128t158 44q208 0 208 -166h-141q0 31 -16 45t-52 14q-66 0 -66 -47
q0 -25 23 -38t80 -20q98 -11 140.5 -50t42.5 -115q0 -169 -220 -169z" />
    <glyph glyph-name="Scircumflex" unicode="&#x15c;" horiz-adv-x="563" 
d="M85 742l122 140h134l122 -140h-129l-60 58l-60 -58h-129zM280 -12q-130 0 -191 52.5t-61 164.5h146q0 -95 110 -95q99 0 99 73q0 42 -30.5 63t-106.5 33q-113 18 -160.5 64.5t-47.5 139.5q0 209 247 209q239 0 239 -211h-146q0 88 -96 88q-94 0 -94 -71q0 -38 29.5 -57.5
t101.5 -30.5q118 -17 166 -66t48 -146q0 -210 -253 -210z" />
    <glyph glyph-name="scircumflex" unicode="&#x15d;" horiz-adv-x="504" 
d="M60 590l122 140h134l122 -140h-129l-60 58l-60 -58h-129zM252 -12q-113 0 -167 42.5t-54 129.5h141q0 -34 19 -49.5t62 -15.5q73 0 73 47q0 28 -23.5 41.5t-82.5 20.5q-97 11 -138.5 47.5t-41.5 110.5q0 84 55 128t158 44q208 0 208 -166h-141q0 31 -16 45t-52 14
q-66 0 -66 -47q0 -25 23 -38t80 -20q98 -11 140.5 -50t42.5 -115q0 -169 -220 -169z" />
    <glyph glyph-name="Scedilla" unicode="&#x15e;" horiz-adv-x="563" 
d="M533 198q0 -196 -219 -209l-16 -43q108 0 108 -75q0 -39 -31 -60t-108 -21q-68 0 -113 23l23 56q34 -16 65 -16q44 0 44 24q0 13 -11.5 18t-44.5 5h-17l35 89q-113 6 -166.5 59t-53.5 157h146q0 -95 110 -95q99 0 99 73q0 42 -30.5 63t-106.5 33q-113 18 -160.5 64.5
t-47.5 139.5q0 209 247 209q239 0 239 -211h-146q0 88 -96 88q-94 0 -94 -71q0 -38 29.5 -57.5t101.5 -30.5q118 -17 166 -66t48 -146z" />
    <glyph glyph-name="scedilla" unicode="&#x15f;" horiz-adv-x="504" 
d="M472 157q0 -156 -188 -168l-16 -43q108 0 108 -75q0 -39 -31 -60t-108 -21q-68 0 -113 23l23 56q34 -16 65 -16q44 0 44 24q0 13 -11.5 18t-44.5 5h-17l35 89q-96 6 -141.5 48t-45.5 123h141q0 -34 19 -49.5t62 -15.5q73 0 73 47q0 28 -23.5 41.5t-82.5 20.5
q-97 11 -138.5 47.5t-41.5 110.5q0 84 55 128t158 44q208 0 208 -166h-141q0 31 -16 45t-52 14q-66 0 -66 -47q0 -25 23 -38t80 -20q98 -11 140.5 -50t42.5 -115z" />
    <glyph glyph-name="Scaron" unicode="&#x160;" horiz-adv-x="563" 
d="M207 742l-122 140h129l60 -58l60 58h129l-122 -140h-134zM280 -12q-130 0 -191 52.5t-61 164.5h146q0 -95 110 -95q99 0 99 73q0 42 -30.5 63t-106.5 33q-113 18 -160.5 64.5t-47.5 139.5q0 209 247 209q239 0 239 -211h-146q0 88 -96 88q-94 0 -94 -71q0 -38 29.5 -57.5
t101.5 -30.5q118 -17 166 -66t48 -146q0 -210 -253 -210z" />
    <glyph glyph-name="scaron" unicode="&#x161;" horiz-adv-x="504" 
d="M182 590l-122 140h129l60 -58l60 58h129l-122 -140h-134zM252 -12q-113 0 -167 42.5t-54 129.5h141q0 -34 19 -49.5t62 -15.5q73 0 73 47q0 28 -23.5 41.5t-82.5 20.5q-97 11 -138.5 47.5t-41.5 110.5q0 84 55 128t158 44q208 0 208 -166h-141q0 31 -16 45t-52 14
q-66 0 -66 -47q0 -25 23 -38t80 -20q98 -11 140.5 -50t42.5 -115q0 -169 -220 -169z" />
    <glyph glyph-name="uni0162" unicode="&#x162;" horiz-adv-x="526" 
d="M338 0h-41l-25 -54q105 -1 105 -75q0 -39 -31 -60t-108 -21q-68 0 -113 23l23 56q34 -16 65 -16q44 0 44 24q0 13 -11.5 18t-44.5 5h-17l47 100h-43v549h-182v131h514v-131h-182v-549z" />
    <glyph glyph-name="uni0163" unicode="&#x163;" horiz-adv-x="361" 
d="M231 0l-20 -54q108 0 108 -75q0 -39 -31 -60t-108 -21q-68 0 -113 23l23 56q34 -16 65 -16q44 0 44 24q0 13 -11.5 18t-44.5 5h-17l43 109q-85 27 -85 161v240h-76v112h79l8 130h137v-130h108v-112h-108v-231q0 -37 11.5 -50t43.5 -13h58v-116h-114z" />
    <glyph glyph-name="Tcaron" unicode="&#x164;" horiz-adv-x="526" 
d="M196 742l-122 140h129l60 -58l60 58h129l-122 -140h-134zM188 0v549h-182v131h514v-131h-182v-549h-150z" />
    <glyph glyph-name="tcaron" unicode="&#x165;" horiz-adv-x="361" 
d="M258 559l38 222h138l-81 -222h-95zM236 0q-80 0 -116 40t-36 130v240h-76v112h79l8 130h137v-130h108v-112h-108v-231q0 -37 11.5 -50t43.5 -13h58v-116h-109z" />
    <glyph glyph-name="Tbar" unicode="&#x166;" horiz-adv-x="526" 
d="M520 549h-182v-149h121v-128h-121v-272h-150v272h-121v128h121v149h-182v131h514v-131z" />
    <glyph glyph-name="tbar" unicode="&#x167;" horiz-adv-x="361" 
d="M287 116h58v-116h-109q-80 0 -116 40t-36 130v69h-69v100h69v71h-76v112h79l8 130h137v-130h108v-112h-108v-71h99v-100h-99v-60q0 -37 11.5 -50t43.5 -13z" />
    <glyph glyph-name="Utilde" unicode="&#x168;" horiz-adv-x="631" 
d="M374 737q-37 0 -76 27q-24 16 -36 16q-27 0 -31 -39h-84q4 140 109 140q37 0 76 -27q24 -16 36 -16q27 0 31 39h84q-4 -140 -109 -140zM316 -12q-134 0 -194.5 57t-60.5 183v452h150v-447q0 -64 24 -90t83 -26t83 26t24 90v447h145v-452q0 -126 -60.5 -183t-193.5 -57z
" />
    <glyph glyph-name="utilde" unicode="&#x169;" horiz-adv-x="574" 
d="M344 585q-37 0 -76 27q-24 16 -36 16q-27 0 -31 -39h-84q4 140 109 140q37 0 76 -27q24 -16 36 -16q27 0 31 39h84q-4 -140 -109 -140zM226 -12q-166 0 -166 188v346h148v-333q0 -73 61 -73q62 0 93 70v336h148v-522h-126l-4 64q-59 -76 -154 -76z" />
    <glyph glyph-name="Umacron" unicode="&#x16a;" horiz-adv-x="631" 
d="M167 761h296v99h-296v-99zM316 -12q-134 0 -194.5 57t-60.5 183v452h150v-447q0 -64 24 -90t83 -26t83 26t24 90v447h145v-452q0 -126 -60.5 -183t-193.5 -57z" />
    <glyph glyph-name="umacron" unicode="&#x16b;" horiz-adv-x="574" 
d="M137 609h296v99h-296v-99zM226 -12q-166 0 -166 188v346h148v-333q0 -73 61 -73q62 0 93 70v336h148v-522h-126l-4 64q-59 -76 -154 -76z" />
    <glyph glyph-name="Ubreve" unicode="&#x16c;" horiz-adv-x="631" 
d="M315 733q-71 0 -115 40t-47 106h98q5 -54 64 -54t64 54h98q-3 -66 -47 -106t-115 -40zM316 -12q-134 0 -194.5 57t-60.5 183v452h150v-447q0 -64 24 -90t83 -26t83 26t24 90v447h145v-452q0 -126 -60.5 -183t-193.5 -57z" />
    <glyph glyph-name="ubreve" unicode="&#x16d;" horiz-adv-x="574" 
d="M285 581q-71 0 -115 40t-47 106h98q5 -54 64 -54t64 54h98q-3 -66 -47 -106t-115 -40zM226 -12q-166 0 -166 188v346h148v-333q0 -73 61 -73q62 0 93 70v336h148v-522h-126l-4 64q-59 -76 -154 -76z" />
    <glyph glyph-name="Uring" unicode="&#x16e;" horiz-adv-x="631" 
d="M315 723q-53 0 -88 32.5t-35 83.5q0 50 35 83.5t88 33.5t88 -33.5t35 -83.5q0 -51 -35 -83.5t-88 -32.5zM315 797q17 0 27.5 11.5t10.5 30.5t-10.5 30t-27.5 11t-27.5 -11t-10.5 -30t10.5 -30.5t27.5 -11.5zM316 -12q-134 0 -194.5 57t-60.5 183v452h150v-447
q0 -64 24 -90t83 -26t83 26t24 90v447h145v-452q0 -126 -60.5 -183t-193.5 -57z" />
    <glyph glyph-name="uring" unicode="&#x16f;" horiz-adv-x="574" 
d="M285 571q-53 0 -88 32.5t-35 83.5q0 50 35 83.5t88 33.5t88 -33.5t35 -83.5q0 -51 -35 -83.5t-88 -32.5zM285 645q17 0 27.5 11.5t10.5 30.5t-10.5 30t-27.5 11t-27.5 -11t-10.5 -30t10.5 -30.5t27.5 -11.5zM226 -12q-166 0 -166 188v346h148v-333q0 -73 61 -73
q62 0 93 70v336h148v-522h-126l-4 64q-59 -76 -154 -76z" />
    <glyph glyph-name="Uhungarumlaut" unicode="&#x170;" horiz-adv-x="631" 
d="M134 742l88 140h148l-119 -140h-117zM339 742l88 140h148l-119 -140h-117zM316 -12q-134 0 -194.5 57t-60.5 183v452h150v-447q0 -64 24 -90t83 -26t83 26t24 90v447h145v-452q0 -126 -60.5 -183t-193.5 -57z" />
    <glyph glyph-name="uhungarumlaut" unicode="&#x171;" horiz-adv-x="574" 
d="M104 590l88 140h148l-119 -140h-117zM309 590l88 140h148l-119 -140h-117zM226 -12q-166 0 -166 188v346h148v-333q0 -73 61 -73q62 0 93 70v336h148v-522h-126l-4 64q-59 -76 -154 -76z" />
    <glyph glyph-name="Uogonek" unicode="&#x172;" horiz-adv-x="631" 
d="M425 680h145v-452q0 -97 -35.5 -153t-111.5 -75q-73 -30 -73 -80q0 -36 45 -36q25 0 49 12v-89q-32 -13 -78 -13q-61 0 -94 24t-33 68q0 60 59 102q-124 4 -180.5 61t-56.5 179v452h150v-447q0 -64 24 -90t83 -26t83 26t24 90v447z" />
    <glyph glyph-name="uogonek" unicode="&#x173;" horiz-adv-x="574" 
d="M462 -116q25 0 49 12v-89q-37 -13 -80 -13q-60 0 -92.5 23.5t-32.5 68.5q0 67 78 120l-4 58q-59 -76 -154 -76q-166 0 -166 188v346h148v-333q0 -73 61 -73q62 0 93 70v336h148v-522h-33q-60 -39 -60 -80q0 -36 45 -36z" />
    <glyph glyph-name="Wcircumflex" unicode="&#x174;" horiz-adv-x="878" 
d="M250 742l122 140h134l122 -140h-129l-60 58l-60 -58h-129zM172 0l-168 680h155l101 -461l116 461h133l116 -461l101 461h148l-168 -680h-155l-110 439l-111 -439h-158z" />
    <glyph glyph-name="wcircumflex" unicode="&#x175;" horiz-adv-x="800" 
d="M211 590l122 140h134l122 -140h-129l-60 58l-60 -58h-129zM156 0l-150 522h155l81 -340l96 340h130l96 -340l81 340h149l-150 -522h-150l-93 326l-93 -326h-152z" />
    <glyph glyph-name="Ycircumflex" unicode="&#x176;" horiz-adv-x="541" 
d="M81 742l122 140h134l122 -140h-129l-60 58l-60 -58h-129zM196 0v283l-222 397h171l132 -246l132 246h158l-221 -394v-286h-150z" />
    <glyph glyph-name="ycircumflex" unicode="&#x177;" horiz-adv-x="498" 
d="M60 590l122 140h134l122 -140h-129l-60 58l-60 -58h-129zM62 -182v116h58q21 0 32 8t18 31l11 33l-178 516h157l97 -326l89 326h149l-185 -567q-26 -81 -61.5 -109t-111.5 -28h-75z" />
    <glyph glyph-name="Ydieresis" unicode="&#x178;" horiz-adv-x="541" 
d="M99 748v126h136v-126h-136zM305 748v126h136v-126h-136zM196 0v283l-222 397h171l132 -246l132 246h158l-221 -394v-286h-150z" />
    <glyph glyph-name="Zacute" unicode="&#x179;" horiz-adv-x="559" 
d="M187 742l113 140h160l-143 -140h-130zM27 0v117l311 434h-293v129h479v-116l-311 -435h319v-129h-505z" />
    <glyph glyph-name="zacute" unicode="&#x17a;" horiz-adv-x="477" 
d="M145 590l113 140h160l-143 -140h-130zM24 0v102l236 305h-215v115h403v-102l-236 -305h241v-115h-429z" />
    <glyph glyph-name="Zdotaccent" unicode="&#x17b;" horiz-adv-x="559" 
d="M212 748v126h144v-126h-144zM27 0v117l311 434h-293v129h479v-116l-311 -435h319v-129h-505z" />
    <glyph glyph-name="zdotaccent" unicode="&#x17c;" horiz-adv-x="477" 
d="M170 596v126h144v-126h-144zM24 0v102l236 305h-215v115h403v-102l-236 -305h241v-115h-429z" />
    <glyph glyph-name="Zcaron" unicode="&#x17d;" horiz-adv-x="559" 
d="M217 742l-122 140h129l60 -58l60 58h129l-122 -140h-134zM27 0v117l311 434h-293v129h479v-116l-311 -435h319v-129h-505z" />
    <glyph glyph-name="zcaron" unicode="&#x17e;" horiz-adv-x="477" 
d="M175 590l-122 140h129l60 -58l60 58h129l-122 -140h-134zM24 0v102l236 305h-215v115h403v-102l-236 -305h241v-115h-429z" />
    <glyph glyph-name="florin" unicode="&#x192;" horiz-adv-x="596" 
d="M49 -60l14 112h53q34 0 50.5 16.5t21.5 57.5l28 228h-111v113h125l7 61q11 94 51 133t125 39h119l-13 -112h-65q-34 0 -50 -16.5t-21 -57.5l-6 -47h125v-113h-139l-29 -242q-11 -93 -51.5 -132.5t-124.5 -39.5h-109z" />
    <glyph glyph-name="Aringacute" unicode="&#x1fa;" horiz-adv-x="615" 
d="M210 974l113 140h160l-143 -140h-130zM307 715q-53 0 -88 32.5t-35 83.5q0 50 35 83.5t88 33.5t88 -33.5t35 -83.5q0 -51 -35 -83.5t-88 -32.5zM307 789q17 0 27.5 11.5t10.5 30.5t-10.5 30t-27.5 11t-27.5 -11t-10.5 -30t10.5 -30.5t27.5 -11.5zM2 0l228 680h155
l228 -680h-159l-43 137h-214l-43 -137h-152zM234 262h140l-70 248z" />
    <glyph glyph-name="aringacute" unicode="&#x1fb;" horiz-adv-x="542" 
d="M168 822l113 140h160l-143 -140h-130zM265 563q-53 0 -88 32.5t-35 83.5q0 50 35 83.5t88 33.5t88 -33.5t35 -83.5q0 -51 -35 -83.5t-88 -32.5zM265 637q17 0 27.5 11.5t10.5 30.5t-10.5 30t-27.5 11t-27.5 -11t-10.5 -30t10.5 -30.5t27.5 -11.5zM198 -12
q-78 0 -121.5 42.5t-43.5 119.5q0 83 52.5 127t155.5 44h96v17q0 41 -17.5 60.5t-56.5 19.5q-70 0 -73 -59h-143q12 175 222 175q111 0 163.5 -48t52.5 -150v-336h-125l-5 65q-54 -77 -157 -77zM243 104q62 0 94 59v60h-69q-89 0 -89 -61q0 -58 64 -58z" />
    <glyph glyph-name="AEacute" unicode="&#x1fc;" horiz-adv-x="901" 
d="M362 742l113 140h160l-143 -140h-130zM-26 0l379 680h502v-129h-290v-143h240v-128h-240v-151h300v-129h-450v137h-204l-75 -137h-162zM277 262h138v274z" />
    <glyph glyph-name="aeacute" unicode="&#x1fd;" horiz-adv-x="845" 
d="M320 590l113 140h160l-143 -140h-130zM209 -12q-84 0 -130 42t-46 120q0 83 52.5 127t155.5 44h96v18q0 40 -17.5 59.5t-56.5 19.5q-70 0 -73 -59h-143q12 175 207 175q120 0 165 -70q48 70 164 70q108 0 163.5 -56.5t55.5 -167.5v-95h-317v-10q0 -101 92 -101
q76 0 81 56h141q-4 -85 -61 -128.5t-163 -43.5q-140 0 -197 77q-61 -77 -169 -77zM485 319h177q0 52 -20.5 75.5t-67.5 23.5t-68 -23t-21 -76zM243 104q66 0 96 64q-2 26 -2 42v13h-68q-90 0 -90 -61q0 -58 64 -58z" />
    <glyph glyph-name="Oslashacute" unicode="&#x1fe;" horiz-adv-x="652" 
d="M502 882l-143 -140h-130l113 140h160zM601 624l-33 -46q33 -63 33 -163v-150q0 -142 -67 -209.5t-208 -67.5q-99 0 -159 32l-23 -32l-93 68l33 46q-33 63 -33 163v150q0 142 67 209.5t208 67.5q99 0 159 -32l23 32zM201 265l202 280q-29 18 -77 18q-67 0 -96 -35
t-29 -115v-148zM451 415l-202 -280q29 -18 77 -18q67 0 96 35t29 115v148z" />
    <glyph glyph-name="oslashacute" unicode="&#x1ff;" horiz-adv-x="564" 
d="M458 730l-143 -140h-130l113 140h160zM519 467l-27 -32q27 -51 27 -126v-96q0 -225 -237 -225q-84 0 -137 28l-23 -28l-77 67l27 32q-27 51 -27 126v96q0 225 237 225q84 0 137 -28l23 28zM193 306v-72l140 169q-20 11 -51 11q-47 0 -68 -25.5t-21 -82.5zM371 216v72
l-140 -169q20 -11 51 -11q47 0 68 25.5t21 82.5z" />
    <glyph glyph-name="Scommaaccent" unicode="&#x218;" horiz-adv-x="563" 
d="M280 -12q-130 0 -191 52.5t-61 164.5h146q0 -95 110 -95q99 0 99 73q0 42 -30.5 63t-106.5 33q-113 18 -160.5 64.5t-47.5 139.5q0 209 247 209q239 0 239 -211h-146q0 88 -96 88q-94 0 -94 -71q0 -38 29.5 -57.5t101.5 -30.5q118 -17 166 -66t48 -146q0 -210 -253 -210z
M219 -254v55q33 0 47.5 10t14.5 32h-60v98h143v-65q0 -74 -29.5 -102t-115.5 -28z" />
    <glyph glyph-name="scommaaccent" unicode="&#x219;" horiz-adv-x="504" 
d="M252 -12q-113 0 -167 42.5t-54 129.5h141q0 -34 19 -49.5t62 -15.5q73 0 73 47q0 28 -23.5 41.5t-82.5 20.5q-97 11 -138.5 47.5t-41.5 110.5q0 84 55 128t158 44q208 0 208 -166h-141q0 31 -16 45t-52 14q-66 0 -66 -47q0 -25 23 -38t80 -20q98 -11 140.5 -50t42.5 -115
q0 -169 -220 -169zM189 -254v55q33 0 47.5 10t14.5 32h-60v98h143v-65q0 -74 -29.5 -102t-115.5 -28z" />
    <glyph glyph-name="uni021A" unicode="&#x21a;" horiz-adv-x="526" 
d="M188 0v549h-182v131h514v-131h-182v-549h-150zM190 -254v55q33 0 47.5 10t14.5 32h-60v98h143v-65q0 -74 -29.5 -102t-115.5 -28z" />
    <glyph glyph-name="uni021B" unicode="&#x21b;" horiz-adv-x="361" 
d="M236 0q-80 0 -116 40t-36 130v240h-76v112h79l8 130h137v-130h108v-112h-108v-231q0 -37 11.5 -50t43.5 -13h58v-116h-109zM132 -254v55q33 0 47.5 10t14.5 32h-60v98h143v-65q0 -74 -29.5 -102t-115.5 -28z" />
    <glyph glyph-name="uni0237" unicode="&#x237;" horiz-adv-x="276" 
d="M-3 -182v116h30q20 0 28.5 9.5t8.5 33.5v545h148v-548q0 -82 -33 -119t-106 -37h-76z" />
    <glyph glyph-name="uni02BC" unicode="&#x2bc;" horiz-adv-x="185" 
d="M20 494v66q33 0 46.5 11.5t13.5 37.5v1h-58v120h142v-98q0 -72 -32.5 -105t-111.5 -33z" />
    <glyph glyph-name="circumflex" unicode="&#x2c6;" horiz-adv-x="500" 
d="M61 590l122 140h134l122 -140h-129l-60 58l-60 -58h-129z" />
    <glyph glyph-name="caron" unicode="&#x2c7;" horiz-adv-x="500" 
d="M183 590l-122 140h129l60 -58l60 58h129l-122 -140h-134z" />
    <glyph glyph-name="uni02C9" unicode="&#x2c9;" horiz-adv-x="500" 
d="M102 609h296v99h-296v-99z" />
    <glyph glyph-name="breve" unicode="&#x2d8;" horiz-adv-x="500" 
d="M250 581q-71 0 -115 40t-47 106h98q5 -54 64 -54t64 54h98q-3 -66 -47 -106t-115 -40z" />
    <glyph glyph-name="dotaccent" unicode="&#x2d9;" horiz-adv-x="500" 
d="M178 596v126h144v-126h-144z" />
    <glyph glyph-name="ring" unicode="&#x2da;" horiz-adv-x="500" 
d="M250 571q-53 0 -88 32.5t-35 83.5q0 50 35 83.5t88 33.5t88 -33.5t35 -83.5q0 -51 -35 -83.5t-88 -32.5zM250 645q17 0 27.5 11.5t10.5 30.5t-10.5 30t-27.5 11t-27.5 -11t-10.5 -30t10.5 -30.5t27.5 -11.5z" />
    <glyph glyph-name="ogonek" unicode="&#x2db;" horiz-adv-x="500" 
d="M273 -206q-60 0 -92.5 23.5t-32.5 68.5q0 94 156 162l41 -33q-86 -45 -86 -95q0 -36 45 -36q25 0 49 12v-89q-37 -13 -80 -13z" />
    <glyph glyph-name="tilde" unicode="&#x2dc;" horiz-adv-x="500" 
d="M309 585q-37 0 -76 27q-24 16 -36 16q-27 0 -31 -39h-84q4 140 109 140q37 0 76 -27q24 -16 36 -16q27 0 31 39h84q-4 -140 -109 -140z" />
    <glyph glyph-name="hungarumlaut" unicode="&#x2dd;" horiz-adv-x="500" 
d="M69 590l88 140h148l-119 -140h-117zM274 590l88 140h148l-119 -140h-117z" />
    <glyph glyph-name="gravecomb" unicode="&#x300;" horiz-adv-x="0" 
d="M-33 590l-143 140h160l113 -140h-130z" />
    <glyph glyph-name="acutecomb" unicode="&#x301;" horiz-adv-x="0" 
d="M-97 590l113 140h160l-143 -140h-130z" />
    <glyph glyph-name="uni0302" unicode="&#x302;" horiz-adv-x="0" 
d="M-189 590l122 140h134l122 -140h-129l-60 58l-60 -58h-129z" />
    <glyph glyph-name="tildecomb" unicode="&#x303;" horiz-adv-x="0" 
d="M59 585q-37 0 -76 27q-24 16 -36 16q-27 0 -31 -39h-84q4 140 109 140q37 0 76 -27q24 -16 36 -16q27 0 31 39h84q-4 -140 -109 -140z" />
    <glyph glyph-name="uni0304" unicode="&#x304;" horiz-adv-x="0" 
d="M-148 609h296v99h-296v-99z" />
    <glyph glyph-name="uni0306" unicode="&#x306;" horiz-adv-x="0" 
d="M0 581q-71 0 -115 40t-47 106h98q5 -54 64 -54t64 54h98q-3 -66 -47 -106t-115 -40z" />
    <glyph glyph-name="uni0307" unicode="&#x307;" horiz-adv-x="0" 
d="M-72 596v126h144v-126h-144z" />
    <glyph glyph-name="uni0308" unicode="&#x308;" horiz-adv-x="0" 
d="M-171 596v126h136v-126h-136zM35 596v126h136v-126h-136z" />
    <glyph glyph-name="uni030A" unicode="&#x30a;" horiz-adv-x="0" 
d="M0 571q-53 0 -88 32.5t-35 83.5q0 50 35 83.5t88 33.5t88 -33.5t35 -83.5q0 -51 -35 -83.5t-88 -32.5zM0 645q17 0 27.5 11.5t10.5 30.5t-10.5 30t-27.5 11t-27.5 -11t-10.5 -30t10.5 -30.5t27.5 -11.5z" />
    <glyph glyph-name="uni030B" unicode="&#x30b;" horiz-adv-x="0" 
d="M-181 590l88 140h148l-119 -140h-117zM24 590l88 140h148l-119 -140h-117z" />
    <glyph glyph-name="uni030C" unicode="&#x30c;" horiz-adv-x="0" 
d="M-67 590l-122 140h129l60 -58l60 58h129l-122 -140h-134z" />
    <glyph glyph-name="uni0312" unicode="&#x312;" horiz-adv-x="0" 
d="M-72 581v72q0 70 30.5 96.5t114.5 26.5v-55q-33 0 -47.5 -10t-14.5 -32h60v-98h-143z" />
    <glyph glyph-name="uni0326" unicode="&#x326;" horiz-adv-x="0" 
d="M-73 -254v55q33 0 47.5 10t14.5 32h-60v98h143v-65q0 -74 -29.5 -102t-115.5 -28z" />
    <glyph glyph-name="uni0327" unicode="&#x327;" horiz-adv-x="0" 
d="M-138 -187l23 56q34 -16 65 -16q44 0 44 24q0 13 -11.5 18t-44.5 5h-17l45 115h66l-26 -69q108 0 108 -75q0 -39 -31 -60t-108 -21q-68 0 -113 23z" />
    <glyph glyph-name="uni0328" unicode="&#x328;" horiz-adv-x="0" 
d="M23 -206q-60 0 -92.5 23.5t-32.5 68.5q0 94 156 162l41 -33q-86 -45 -86 -95q0 -36 45 -36q25 0 49 12v-89q-37 -13 -80 -13z" />
    <glyph glyph-name="uni0394" unicode="&#x394;" horiz-adv-x="605" 
d="M2 0l221 680h159l221 -680h-601zM191 125h216l-108 366z" />
    <glyph glyph-name="uni03A9" unicode="&#x3a9;" horiz-adv-x="652" 
d="M56 0v124h75q-80 58 -80 194v97q0 143 66.5 210t208.5 67q141 0 208 -67.5t67 -209.5v-97q0 -136 -80 -194h76v-124h-232v114q86 31 86 157v142q0 78 -30 114t-95 36q-66 0 -95.5 -36t-29.5 -114v-142q0 -126 87 -157v-114h-232z" />
    <glyph glyph-name="uni03BC" unicode="&#x3bc;" horiz-adv-x="578" 
d="M64 -182v704h148v-331q0 -75 60 -75q62 0 94 70v336h148v-522h-126l-4 63q-55 -75 -145 -75q-9 0 -27 2v-172h-148z" />
    <glyph glyph-name="pi" unicode="&#x3c0;" horiz-adv-x="604" 
d="M88 0v406h-80v116h579v-116h-79v-240q0 -29 10 -39.5t36 -10.5h34v-116h-93q-73 0 -104 36t-31 120v250h-124v-406h-148z" />
    <glyph glyph-name="Wgrave" unicode="&#x1e80;" horiz-adv-x="878" 
d="M406 742l-143 140h160l113 -140h-130zM172 0l-168 680h155l101 -461l116 461h133l116 -461l101 461h148l-168 -680h-155l-110 439l-111 -439h-158z" />
    <glyph glyph-name="wgrave" unicode="&#x1e81;" horiz-adv-x="800" 
d="M367 590l-143 140h160l113 -140h-130zM156 0l-150 522h155l81 -340l96 340h130l96 -340l81 340h149l-150 -522h-150l-93 326l-93 -326h-152z" />
    <glyph glyph-name="Wacute" unicode="&#x1e82;" horiz-adv-x="878" 
d="M342 742l113 140h160l-143 -140h-130zM172 0l-168 680h155l101 -461l116 461h133l116 -461l101 461h148l-168 -680h-155l-110 439l-111 -439h-158z" />
    <glyph glyph-name="wacute" unicode="&#x1e83;" horiz-adv-x="800" 
d="M303 590l113 140h160l-143 -140h-130zM156 0l-150 522h155l81 -340l96 340h130l96 -340l81 340h149l-150 -522h-150l-93 326l-93 -326h-152z" />
    <glyph glyph-name="Wdieresis" unicode="&#x1e84;" horiz-adv-x="878" 
d="M268 748v126h136v-126h-136zM474 748v126h136v-126h-136zM172 0l-168 680h155l101 -461l116 461h133l116 -461l101 461h148l-168 -680h-155l-110 439l-111 -439h-158z" />
    <glyph glyph-name="wdieresis" unicode="&#x1e85;" horiz-adv-x="800" 
d="M229 596v126h136v-126h-136zM435 596v126h136v-126h-136zM156 0l-150 522h155l81 -340l96 340h130l96 -340l81 340h149l-150 -522h-150l-93 326l-93 -326h-152z" />
    <glyph glyph-name="uni1E9E" unicode="&#x1e9e;" horiz-adv-x="643" 
d="M63 0v457q0 115 58 169t182 54h266v-114l-125 -172q91 -13 132.5 -60.5t41.5 -136.5q0 -105 -57.5 -151t-189.5 -46h-102v127h90q60 0 84 15.5t24 58.5q0 45 -25 60.5t-88 15.5h-71v108l120 168h-86q-54 0 -79 -23t-25 -73v-457h-150z" />
    <glyph glyph-name="Ygrave" unicode="&#x1ef2;" horiz-adv-x="541" 
d="M237 742l-143 140h160l113 -140h-130zM196 0v283l-222 397h171l132 -246l132 246h158l-221 -394v-286h-150z" />
    <glyph glyph-name="ygrave" unicode="&#x1ef3;" horiz-adv-x="498" 
d="M216 590l-143 140h160l113 -140h-130zM62 -182v116h58q21 0 32 8t18 31l11 33l-178 516h157l97 -326l89 326h149l-185 -567q-26 -81 -61.5 -109t-111.5 -28h-75z" />
    <glyph glyph-name="uni2002" unicode="&#x2002;" horiz-adv-x="500" 
 />
    <glyph glyph-name="uni2003" unicode="&#x2003;" horiz-adv-x="900" 
 />
    <glyph glyph-name="uni2007" unicode="&#x2007;" horiz-adv-x="596" 
 />
    <glyph glyph-name="uni2008" unicode="&#x2008;" horiz-adv-x="293" 
 />
    <glyph glyph-name="uni200B" unicode="&#x200b;" horiz-adv-x="0" 
 />
    <glyph glyph-name="figuredash" unicode="&#x2012;" horiz-adv-x="596" 
d="M30 240v114h536v-114h-536z" />
    <glyph glyph-name="endash" unicode="&#x2013;" horiz-adv-x="500" 
d="M30 240v114h440v-114h-440z" />
    <glyph glyph-name="emdash" unicode="&#x2014;" horiz-adv-x="900" 
d="M30 240v114h840v-114h-840z" />
    <glyph glyph-name="quoteleft" unicode="&#x2018;" horiz-adv-x="271" 
d="M58 367v152q0 90 37 131t118 42v-78q-60 -2 -60 -68v-28h56v-151h-151z" />
    <glyph glyph-name="quoteright" unicode="&#x2019;" horiz-adv-x="271" 
d="M58 355v78q60 2 60 68v28h-56v151h151v-152q0 -90 -37 -131t-118 -42z" />
    <glyph glyph-name="quotesinglbase" unicode="&#x201a;" horiz-adv-x="271" 
d="M58 -174v78q60 2 60 68v28h-56v151h151v-152q0 -90 -37 -131t-118 -42z" />
    <glyph glyph-name="quotedblleft" unicode="&#x201c;" horiz-adv-x="502" 
d="M58 367v152q0 90 37 131t118 42v-78q-60 -2 -60 -68v-28h56v-151h-151zM289 367v152q0 90 37 131t118 42v-78q-60 -2 -60 -68v-28h56v-151h-151z" />
    <glyph glyph-name="quotedblright" unicode="&#x201d;" horiz-adv-x="501" 
d="M58 355v78q60 2 60 68v28h-56v151h151v-152q0 -90 -37 -131t-118 -42zM288 355v78q60 2 60 68v28h-56v151h151v-152q0 -90 -37 -131t-118 -42z" />
    <glyph glyph-name="quotedblbase" unicode="&#x201e;" horiz-adv-x="501" 
d="M58 -174v78q60 2 60 68v28h-56v151h151v-152q0 -90 -37 -131t-118 -42zM288 -174v78q60 2 60 68v28h-56v151h151v-152q0 -90 -37 -131t-118 -42z" />
    <glyph glyph-name="dagger" unicode="&#x2020;" horiz-adv-x="610" 
d="M232 -182v517l-194 -10v137l194 -9v227h146v-227l194 9v-137l-194 10v-517h-146z" />
    <glyph glyph-name="daggerdbl" unicode="&#x2021;" horiz-adv-x="610" 
d="M232 -182v207l-194 -9v137l194 -10v212l-194 -10v137l194 -9v207h146v-207l194 9v-137l-194 10v-212l194 10v-137l-194 9v-207h-146z" />
    <glyph glyph-name="bullet" unicode="&#x2022;" horiz-adv-x="500" 
d="M121 168v258h258v-258h-258z" />
    <glyph glyph-name="ellipsis" unicode="&#x2026;" horiz-adv-x="900" 
d="M73 0v155h155v-155h-155zM373 0v155h155v-155h-155zM673 0v155h155v-155h-155z" />
    <glyph glyph-name="perthousand" unicode="&#x2030;" horiz-adv-x="1136" 
d="M183 310q-152 0 -152 134v114q0 134 152 134t152 -134v-114q0 -134 -152 -134zM136 -12l408 704h105l-407 -704h-106zM183 398q46 0 46 51v105q0 50 -46 50t-46 -50v-105q0 -51 46 -51zM602 -12q-152 0 -152 134v114q0 134 152 134t152 -134v-114q0 -134 -152 -134z
M953 -12q-152 0 -152 134v114q0 134 152 134t152 -134v-114q0 -134 -152 -134zM602 76q46 0 46 51v105q0 50 -46 50t-46 -50v-105q0 -51 46 -51zM953 76q46 0 46 51v105q0 50 -46 50t-46 -50v-105q0 -51 46 -51z" />
    <glyph glyph-name="guilsinglleft" unicode="&#x2039;" horiz-adv-x="311" 
d="M147 82l-132 180l132 180h149l-132 -180l132 -180h-149z" />
    <glyph glyph-name="guilsinglright" unicode="&#x203a;" horiz-adv-x="311" 
d="M15 80l132 180l-132 180h149l132 -180l-132 -180h-149z" />
    <glyph glyph-name="fraction" unicode="&#x2044;" horiz-adv-x="114" 
d="M-178 -12l367 704h103l-367 -704h-103z" />
    <glyph glyph-name="uni2070" unicode="&#x2070;" 
d="M183 404q-152 0 -152 134v150q0 134 152 134t152 -134v-150q0 -134 -152 -134zM183 492q46 0 46 51v141q0 50 -46 50t-46 -50v-141q0 -51 46 -51z" />
    <glyph glyph-name="uni2074" unicode="&#x2074;" 
d="M203 416v80h-180v89l175 225h111v-232h40v-82h-40v-80h-106zM115 578h88v118z" />
    <glyph glyph-name="uni2075" unicode="&#x2075;" 
d="M182 404q-149 0 -149 122h101q3 -34 49 -34q48 0 48 48q0 51 -49 51q-32 0 -46 -20h-91l14 239h258v-89h-175l-4 -70q30 21 77 21q60 0 91 -33.5t31 -96.5q0 -138 -155 -138z" />
    <glyph glyph-name="uni2076" unicode="&#x2076;" 
d="M187 404q-75 0 -114 34.5t-39 99.5v146q0 138 154 138q73 0 110 -31.5t37 -86.5h-101q-4 30 -45 30q-49 0 -49 -54v-35q30 26 80 26q57 0 87.5 -33t30.5 -95q0 -139 -151 -139zM187 492q45 0 45 50q0 49 -41 49q-33 0 -51 -32v-16q0 -51 47 -51z" />
    <glyph glyph-name="uni2077" unicode="&#x2077;" 
d="M77 416q9 193 150 303h-199v91h308v-95q-74 -66 -107.5 -135.5t-38.5 -163.5h-113z" />
    <glyph glyph-name="uni2078" unicode="&#x2078;" 
d="M183 404q-159 0 -159 118q0 74 62 98v2q-52 22 -52 86q0 114 149 114t149 -114q0 -64 -52 -86v-2q62 -24 62 -98q0 -118 -159 -118zM183 656q46 0 46 41q0 38 -46 38t-46 -38q0 -41 46 -41zM183 491q53 0 53 40q0 42 -53 42t-53 -42q0 -40 53 -40z" />
    <glyph glyph-name="uni2079" unicode="&#x2079;" 
d="M178 404q-73 0 -110 31.5t-37 86.5h101q4 -30 45 -30q49 0 49 54v35q-30 -26 -80 -26q-57 0 -87.5 33t-30.5 95q0 139 151 139q75 0 114 -34.5t39 -99.5v-146q0 -138 -154 -138zM175 635q33 0 51 32v16q0 51 -47 51q-45 0 -45 -50q0 -49 41 -49z" />
    <glyph glyph-name="uni2080" unicode="&#x2080;" 
d="M183 -132q-152 0 -152 134v150q0 134 152 134t152 -134v-150q0 -134 -152 -134zM183 -44q46 0 46 51v141q0 50 -46 50t-46 -50v-141q0 -51 46 -51z" />
    <glyph glyph-name="uni2081" unicode="&#x2081;" 
d="M61 -120v87h91v186q-40 -8 -103 -8v78q82 1 111 51h98v-307h91v-87h-288z" />
    <glyph glyph-name="uni2082" unicode="&#x2082;" 
d="M30 -120v48q0 59 29 97.5t96 68.5q38 17 54 32.5t16 35.5q0 36 -43 36q-46 0 -46 -49v-8h-99v18q0 62 38 94.5t110 32.5q70 0 108 -31.5t38 -89.5q0 -49 -29.5 -84.5t-95.5 -64.5q-35 -15 -50 -25t-19 -22h194v-89h-301z" />
    <glyph glyph-name="uni2083" unicode="&#x2083;" 
d="M184 -132q-152 0 -152 116v19h100v-7q0 -40 51 -40q48 0 48 40t-56 40h-44v83h40q52 0 52 40q0 39 -43 39t-43 -38v-6h-99v11q0 121 146 121q144 0 144 -115q0 -63 -50 -85v-2q59 -22 59 -94q0 -122 -153 -122z" />
    <glyph glyph-name="uni2084" unicode="&#x2084;" 
d="M203 -120v80h-180v89l175 225h111v-232h40v-82h-40v-80h-106zM115 42h88v118z" />
    <glyph glyph-name="uni2085" unicode="&#x2085;" 
d="M182 -132q-149 0 -149 122h101q3 -34 49 -34q48 0 48 48q0 51 -49 51q-32 0 -46 -20h-91l14 239h258v-89h-175l-4 -70q30 21 77 21q60 0 91 -33.5t31 -96.5q0 -138 -155 -138z" />
    <glyph glyph-name="uni2086" unicode="&#x2086;" 
d="M187 -132q-75 0 -114 34.5t-39 99.5v146q0 138 154 138q73 0 110 -31.5t37 -86.5h-101q-4 30 -45 30q-49 0 -49 -54v-35q30 26 80 26q57 0 87.5 -33t30.5 -95q0 -139 -151 -139zM187 -44q45 0 45 50q0 49 -41 49q-33 0 -51 -32v-16q0 -51 47 -51z" />
    <glyph glyph-name="uni2087" unicode="&#x2087;" 
d="M77 -120q9 193 150 303h-199v91h308v-95q-74 -66 -107.5 -135.5t-38.5 -163.5h-113z" />
    <glyph glyph-name="uni2088" unicode="&#x2088;" 
d="M183 -132q-159 0 -159 118q0 74 62 98v2q-52 22 -52 86q0 114 149 114t149 -114q0 -64 -52 -86v-2q62 -24 62 -98q0 -118 -159 -118zM183 120q46 0 46 41q0 38 -46 38t-46 -38q0 -41 46 -41zM183 -45q53 0 53 40q0 42 -53 42t-53 -42q0 -40 53 -40z" />
    <glyph glyph-name="uni2089" unicode="&#x2089;" 
d="M178 -132q-73 0 -110 31.5t-37 86.5h101q4 -30 45 -30q49 0 49 54v35q-30 -26 -80 -26q-57 0 -87.5 33t-30.5 95q0 139 151 139q75 0 114 -34.5t39 -99.5v-146q0 -138 -154 -138zM175 99q33 0 51 32v16q0 51 -47 51q-45 0 -45 -50q0 -49 41 -49z" />
    <glyph glyph-name="Euro" unicode="&#x20ac;" horiz-adv-x="596" 
d="M324 -12q-119 0 -180.5 59t-61.5 173v9h-43v86h43v50h-43v86h43v9q0 114 61 173t181 59q227 0 233 -222h-137q-4 97 -96 97q-97 0 -97 -106v-10h175l-15 -86h-160v-50h151l-15 -86h-136v-10q0 -106 97 -106q92 0 96 97h137q-6 -222 -233 -222z" />
    <glyph glyph-name="uni20B9" unicode="&#x20b9;" horiz-adv-x="596" 
d="M323 0l-264 242v89h107q65 0 97.5 20.5t40.5 67.5h-257l20 96h234q-10 36 -40 52.5t-85 16.5h-129l20 96h498l-20 -96h-135q28 -28 38 -69h117l-20 -96h-91q-7 -79 -53.5 -123t-136.5 -57l263 -239h-204z" />
    <glyph glyph-name="uni2113" unicode="&#x2113;" horiz-adv-x="484" 
d="M267 -12q-206 0 -206 215v333q0 206 195 206q183 0 183 -184q0 -100 -56 -182.5t-174 -158.5v-5q0 -96 89 -96q52 0 105 43l50 -104q-74 -67 -186 -67zM209 363q104 85 104 185q0 70 -50 70q-28 0 -41 -21t-13 -67v-167z" />
    <glyph glyph-name="uni2116" unicode="&#x2116;" horiz-adv-x="1065" 
d="M75 0v680h159l231 -429v429h142v-680h-143l-247 458v-458h-142zM850 157q-167 0 -167 160v64q0 161 167 161t167 -161v-64q0 -160 -167 -160zM850 246q30 0 43 16t13 54v67q0 37 -13.5 53.5t-42.5 16.5t-42.5 -16.5t-13.5 -53.5v-67q0 -38 13 -54t43 -16zM686 0v89h328
v-89h-328z" />
    <glyph glyph-name="uni2117" unicode="&#x2117;" horiz-adv-x="760" 
d="M380 -12q-153 0 -252.5 99.5t-99.5 252.5t99.5 252.5t252.5 99.5t252.5 -99.5t99.5 -252.5t-99.5 -252.5t-252.5 -99.5zM380 75q115 0 185 73t70 192t-70 192t-185 73t-185 -73t-70 -192t70 -192t185 -73zM252 162v356h155q75 0 109 -29t34 -93q0 -63 -34 -92t-109 -29
h-55v-113h-100zM352 355h46q28 0 40 9.5t12 31.5q0 42 -52 42h-46v-83z" />
    <glyph glyph-name="uni2120" unicode="&#x2120;" horiz-adv-x="711" 
d="M136 342q-65 0 -94.5 25.5t-29.5 82.5h85q0 -40 40 -40q38 0 38 29q0 16 -12.5 24t-44.5 15q-55 11 -78.5 35.5t-23.5 69.5q0 105 121 105q118 0 118 -105h-85q0 37 -34 37t-34 -29q0 -16 12.5 -24.5t44.5 -14.5q53 -10 77.5 -35.5t24.5 -72.5q0 -52 -30 -77t-95 -25z
M319 350v330h125l55 -186l55 186h129v-330h-87v234l-71 -234h-56l-70 229v-229h-80z" />
    <glyph glyph-name="trademark" unicode="&#x2122;" horiz-adv-x="693" 
d="M84 350v258h-84v72h255v-72h-84v-258h-87zM301 350v330h126l55 -186l55 186h128v-330h-87v231l-70 -231h-56l-71 232v-232h-80z" />
    <glyph glyph-name="uni2126" unicode="&#x2126;" horiz-adv-x="652" 
d="M56 0v124h75q-80 58 -80 194v97q0 143 66.5 210t208.5 67q141 0 208 -67.5t67 -209.5v-97q0 -136 -80 -194h76v-124h-232v114q86 31 86 157v142q0 78 -30 114t-95 36q-66 0 -95.5 -36t-29.5 -114v-142q0 -126 87 -157v-114h-232z" />
    <glyph glyph-name="estimated" unicode="&#x212e;" horiz-adv-x="794" 
d="M404 -12q-154 0 -262.5 103t-108.5 249t108.5 249t262.5 103t262.5 -103t108.5 -249v-9h-601q-5 0 -5 -5v-191q0 -10 9 -21q89 -105 228 -105q69 0 132 31.5t107 85.5h54q-52 -64 -129.5 -101t-165.5 -37zM174 351h461q6 0 6 6v193q0 12 -10 22q-94 99 -225 99
q-135 0 -228 -103q-9 -11 -9 -22v-190q0 -5 5 -5z" />
    <glyph glyph-name="uni2153" unicode="&#x2153;" horiz-adv-x="846" 
d="M555 692h103l-367 -704h-103l155 298h-282v87h91v186q-40 -8 -103 -8v78q82 1 111 51h98v-307h91v-76zM758 204q59 -22 59 -94q0 -122 -153 -122q-152 0 -152 116v19h100v-7q0 -40 51 -40q48 0 48 40t-56 40h-44v83h40q52 0 52 40q0 39 -43 39t-43 -38v-6h-99v11
q0 121 146 121q144 0 144 -115q0 -63 -50 -85v-2z" />
    <glyph glyph-name="uni2154" unicode="&#x2154;" horiz-adv-x="846" 
d="M30 286v48q0 59 29 97.5t96 68.5q38 17 54 32.5t16 35.5q0 36 -43 36q-46 0 -46 -49v-8h-99v18q0 62 38 94.5t110 32.5q70 0 108 -31.5t38 -89.5q0 -49 -29.5 -84.5t-95.5 -64.5q-35 -15 -50 -25t-19 -22h194v-89h-301zM188 -12l367 704h103l-367 -704h-103zM664 -12
q-152 0 -152 116v19h100v-7q0 -40 51 -40q48 0 48 40t-56 40h-44v83h40q52 0 52 40q0 39 -43 39t-43 -38v-6h-99v11q0 121 146 121q144 0 144 -115q0 -63 -50 -85v-2q59 -22 59 -94q0 -122 -153 -122z" />
    <glyph glyph-name="uni2155" unicode="&#x2155;" horiz-adv-x="846" 
d="M555 692h103l-367 -704h-103l155 298h-282v87h91v186q-40 -8 -103 -8v78q82 1 111 51h98v-307h91v-76zM695 256q60 0 91 -33.5t31 -96.5q0 -138 -155 -138q-149 0 -149 122h101q3 -34 49 -34q48 0 48 48q0 51 -49 51q-32 0 -46 -20h-91l14 239h258v-89h-175l-4 -70
q30 21 77 21z" />
    <glyph glyph-name="uni2156" unicode="&#x2156;" horiz-adv-x="846" 
d="M30 286v48q0 59 29 97.5t96 68.5q38 17 54 32.5t16 35.5q0 36 -43 36q-46 0 -46 -49v-8h-99v18q0 62 38 94.5t110 32.5q70 0 108 -31.5t38 -89.5q0 -49 -29.5 -84.5t-95.5 -64.5q-35 -15 -50 -25t-19 -22h194v-89h-301zM188 -12l367 704h103l-367 -704h-103zM662 -12
q-149 0 -149 122h101q3 -34 49 -34q48 0 48 48q0 51 -49 51q-32 0 -46 -20h-91l14 239h258v-89h-175l-4 -70q30 21 77 21q60 0 91 -33.5t31 -96.5q0 -138 -155 -138z" />
    <glyph glyph-name="uni2157" unicode="&#x2157;" horiz-adv-x="846" 
d="M184 274q-152 0 -152 116v19h100v-7q0 -40 51 -40q48 0 48 40t-56 40h-44v83h40q52 0 52 40q0 39 -43 39t-43 -38v-6h-99v11q0 121 146 121q144 0 144 -115q0 -63 -50 -85v-2q59 -22 59 -94q0 -122 -153 -122zM188 -12l367 704h103l-367 -704h-103zM662 -12
q-149 0 -149 122h101q3 -34 49 -34q48 0 48 48q0 51 -49 51q-32 0 -46 -20h-91l14 239h258v-89h-175l-4 -70q30 21 77 21q60 0 91 -33.5t31 -96.5q0 -138 -155 -138z" />
    <glyph glyph-name="uni2158" unicode="&#x2158;" horiz-adv-x="846" 
d="M188 -12l367 704h103l-367 -704h-103zM203 286v80h-180v89l175 225h111v-232h40v-82h-40v-80h-106zM115 448h88v118zM662 -12q-149 0 -149 122h101q3 -34 49 -34q48 0 48 48q0 51 -49 51q-32 0 -46 -20h-91l14 239h258v-89h-175l-4 -70q30 21 77 21q60 0 91 -33.5
t31 -96.5q0 -138 -155 -138z" />
    <glyph glyph-name="uni2159" unicode="&#x2159;" horiz-adv-x="846" 
d="M555 692h103l-367 -704h-103l155 298h-282v87h91v186q-40 -8 -103 -8v78q82 1 111 51h98v-307h91v-76zM700 255q57 0 87.5 -33t30.5 -95q0 -139 -151 -139q-75 0 -114 34.5t-39 99.5v146q0 138 154 138q73 0 110 -31.5t37 -86.5h-101q-4 30 -45 30q-49 0 -49 -54v-35
q30 26 80 26zM667 76q45 0 45 50q0 49 -41 49q-33 0 -51 -32v-16q0 -51 47 -51z" />
    <glyph glyph-name="uni215A" unicode="&#x215a;" horiz-adv-x="846" 
d="M188 -12l367 704h103l-367 -704h-103zM182 274q-149 0 -149 122h101q3 -34 49 -34q48 0 48 48q0 51 -49 51q-32 0 -46 -20h-91l14 239h258v-89h-175l-4 -70q30 21 77 21q60 0 91 -33.5t31 -96.5q0 -138 -155 -138zM667 -12q-75 0 -114 34.5t-39 99.5v146q0 138 154 138
q73 0 110 -31.5t37 -86.5h-101q-4 30 -45 30q-49 0 -49 -54v-35q30 26 80 26q57 0 87.5 -33t30.5 -95q0 -139 -151 -139zM667 76q45 0 45 50q0 49 -41 49q-33 0 -51 -32v-16q0 -51 47 -51z" />
    <glyph glyph-name="oneeighth" unicode="&#x215b;" horiz-adv-x="846" 
d="M555 692h103l-367 -704h-103l155 298h-282v87h91v186q-40 -8 -103 -8v78q82 1 111 51h98v-307h91v-76zM760 204q62 -24 62 -98q0 -118 -159 -118t-159 118q0 74 62 98v2q-52 22 -52 86q0 114 149 114t149 -114q0 -64 -52 -86v-2zM663 319q-46 0 -46 -38q0 -41 46 -41
t46 41q0 38 -46 38zM663 75q53 0 53 40q0 42 -53 42t-53 -42q0 -40 53 -40z" />
    <glyph glyph-name="threeeighths" unicode="&#x215c;" horiz-adv-x="846" 
d="M184 274q-152 0 -152 116v19h100v-7q0 -40 51 -40q48 0 48 40t-56 40h-44v83h40q52 0 52 40q0 39 -43 39t-43 -38v-6h-99v11q0 121 146 121q144 0 144 -115q0 -63 -50 -85v-2q59 -22 59 -94q0 -122 -153 -122zM188 -12l367 704h103l-367 -704h-103zM663 -12
q-159 0 -159 118q0 74 62 98v2q-52 22 -52 86q0 114 149 114t149 -114q0 -64 -52 -86v-2q62 -24 62 -98q0 -118 -159 -118zM663 240q46 0 46 41q0 38 -46 38t-46 -38q0 -41 46 -41zM663 75q53 0 53 40q0 42 -53 42t-53 -42q0 -40 53 -40z" />
    <glyph glyph-name="fiveeighths" unicode="&#x215d;" horiz-adv-x="846" 
d="M188 -12l367 704h103l-367 -704h-103zM182 274q-149 0 -149 122h101q3 -34 49 -34q48 0 48 48q0 51 -49 51q-32 0 -46 -20h-91l14 239h258v-89h-175l-4 -70q30 21 77 21q60 0 91 -33.5t31 -96.5q0 -138 -155 -138zM663 -12q-159 0 -159 118q0 74 62 98v2q-52 22 -52 86
q0 114 149 114t149 -114q0 -64 -52 -86v-2q62 -24 62 -98q0 -118 -159 -118zM663 240q46 0 46 41q0 38 -46 38t-46 -38q0 -41 46 -41zM663 75q53 0 53 40q0 42 -53 42t-53 -42q0 -40 53 -40z" />
    <glyph glyph-name="seveneighths" unicode="&#x215e;" horiz-adv-x="846" 
d="M161 -12l367 704h103l-367 -704h-103zM77 286q9 193 150 303h-199v91h308v-95q-74 -66 -107.5 -135.5t-38.5 -163.5h-113zM663 -12q-159 0 -159 118q0 74 62 98v2q-52 22 -52 86q0 114 149 114t149 -114q0 -64 -52 -86v-2q62 -24 62 -98q0 -118 -159 -118zM663 240
q46 0 46 41q0 38 -46 38t-46 -38q0 -41 46 -41zM663 75q53 0 53 40q0 42 -53 42t-53 -42q0 -40 53 -40z" />
    <glyph glyph-name="arrowleft" unicode="&#x2190;" horiz-adv-x="800" 
d="M376 18l-322 322l322 322l80 -80l-182 -179h472v-126h-472l182 -179z" />
    <glyph glyph-name="arrowup" unicode="&#x2191;" horiz-adv-x="800" 
d="M334 0v469l-183 -186l-80 80l329 329l329 -329l-80 -80l-183 186v-469h-132z" />
    <glyph glyph-name="arrowright" unicode="&#x2192;" horiz-adv-x="800" 
d="M424 18l-80 80l182 179h-472v126h472l-182 179l80 80l322 -322z" />
    <glyph glyph-name="arrowdown" unicode="&#x2193;" horiz-adv-x="800" 
d="M400 -12l-329 329l80 80l183 -186v469h132v-469l183 186l80 -80z" />
    <glyph glyph-name="arrowboth" unicode="&#x2194;" horiz-adv-x="1000" 
d="M355 39l-301 301l301 301l80 -80l-161 -158h452l-161 158l80 80l301 -301l-301 -301l-80 80l161 158h-452l161 -158z" />
    <glyph glyph-name="arrowupdn" unicode="&#x2195;" horiz-adv-x="800" 
d="M400 -84l-296 296l80 80l150 -153v402l-150 -153l-80 80l296 296l296 -296l-80 -80l-150 153v-402l150 153l80 -80z" />
    <glyph glyph-name="uni2196" unicode="&#x2196;" horiz-adv-x="800" 
d="M609 42l-362 362l2 -253h-116v457h457v-109l-260 2l369 -369z" />
    <glyph glyph-name="uni2197" unicode="&#x2197;" horiz-adv-x="800" 
d="M191 42l-90 90l369 369l-260 -2v109h457v-457h-116l2 253z" />
    <glyph glyph-name="uni2198" unicode="&#x2198;" horiz-adv-x="800" 
d="M210 72v109l260 -2l-369 369l90 90l362 -362l-2 253h116v-457h-457z" />
    <glyph glyph-name="uni2199" unicode="&#x2199;" horiz-adv-x="800" 
d="M133 72v457h116l-2 -253l362 362l90 -90l-369 -369l260 2v-109h-457z" />
    <glyph glyph-name="partialdiff" unicode="&#x2202;" horiz-adv-x="601" 
d="M259 -12q-107 0 -166 60.5t-59 168.5q0 115 64.5 186t171.5 71q85 0 135 -53q-4 104 -37 152.5t-117 48.5q-72 0 -127 -39v125q64 34 157 34q141 0 206 -81.5t65 -259.5q0 -198 -76 -305.5t-217 -107.5zM268 108q109 0 131 172q-27 74 -102 74q-53 0 -84 -37.5
t-31 -103.5q0 -105 86 -105z" />
    <glyph glyph-name="emptyset" unicode="&#x2205;" horiz-adv-x="810" 
d="M137 -12l-85 85l62 62q-62 91 -62 205q0 151 101 251.5t252 100.5q117 0 205 -62l62 62l86 -85l-62 -62q62 -91 62 -205q0 -151 -101 -251.5t-252 -100.5q-115 0 -206 62zM203 223l321 322q-54 30 -119 30q-101 0 -165 -66t-64 -169q0 -66 27 -117zM405 105q101 0 165 66
t64 169q0 66 -27 117l-322 -321q53 -31 120 -31z" />
    <glyph glyph-name="uni2206" unicode="&#x2206;" horiz-adv-x="605" 
d="M2 0l221 680h159l221 -680h-601zM191 125h216l-108 366z" />
    <glyph glyph-name="product" unicode="&#x220f;" horiz-adv-x="767" 
d="M78 -183v954h611v-954h-139v828h-333v-828h-139z" />
    <glyph glyph-name="summation" unicode="&#x2211;" horiz-adv-x="633" 
d="M23 -183v129l283 348l-283 348v129h587v-124h-415l287 -353l-287 -353h415v-124h-587z" />
    <glyph glyph-name="minus" unicode="&#x2212;" horiz-adv-x="596" 
d="M52 250v118h492v-118h-492z" />
    <glyph glyph-name="uni2215" unicode="&#x2215;" horiz-adv-x="423" 
d="M-16 -12l320 704h135l-320 -704h-135z" />
    <glyph glyph-name="uni2219" unicode="&#x2219;" horiz-adv-x="293" 
d="M69 231v155h155v-155h-155z" />
    <glyph glyph-name="radical" unicode="&#x221a;" horiz-adv-x="596" 
d="M223 -183l-93 321h-78v116h167l65 -239l206 756h125l-265 -954h-127z" />
    <glyph glyph-name="infinity" unicode="&#x221e;" horiz-adv-x="904" 
d="M251 100q-96 0 -151.5 59.5t-55.5 159.5t56 159.5t154 59.5q125 0 205 -119q38 58 82 88.5t112 30.5q95 0 151 -60t56 -160t-56.5 -159t-153.5 -59q-72 0 -120 31.5t-84 87.5q-40 -60 -84.5 -89.5t-110.5 -29.5zM642 221q41 0 64.5 27t23.5 74t-25 73t-73 26
q-40 0 -65.5 -20.5t-55.5 -70.5q31 -53 60 -81t71 -28zM272 217q40 0 65.5 20.5t56.5 70.5q-30 54 -59.5 81.5t-71.5 27.5t-65.5 -27.5t-23.5 -74.5t25 -72.5t73 -25.5z" />
    <glyph glyph-name="integral" unicode="&#x222b;" horiz-adv-x="325" 
d="M60 -194q-37 0 -67 10v111q23 -9 43 -9q34 0 49.5 21.5t15.5 68.5v581q0 100 39.5 148t122.5 48q36 0 69 -9v-112q-24 9 -44 9q-34 0 -49.5 -21.5t-15.5 -68.5v-581q0 -100 -40 -148t-123 -48z" />
    <glyph glyph-name="approxequal" unicode="&#x2248;" horiz-adv-x="596" 
d="M398 315q-63 0 -129 51q-43 33 -71 33q-52 0 -54 -71h-104q1 91 42 140.5t116 49.5q63 0 129 -51q43 -33 71 -33q52 0 54 71h104q-1 -91 -42 -140.5t-116 -49.5zM398 80q-63 0 -129 51q-43 33 -71 33q-52 0 -54 -71h-104q1 91 42 140.5t116 49.5q63 0 129 -51
q43 -33 71 -33q52 0 54 71h104q-1 -91 -42 -140.5t-116 -49.5z" />
    <glyph glyph-name="notequal" unicode="&#x2260;" horiz-adv-x="596" 
d="M544 364h-150l-64 -110h214v-118h-283l-71 -122h-128l71 122h-81v118h150l64 110h-214v118h283l71 121h128l-71 -121h81v-118z" />
    <glyph glyph-name="lessequal" unicode="&#x2264;" horiz-adv-x="596" 
d="M544 148l-492 166v111l492 166v-127l-298 -94l298 -95v-127zM52 0v118h492v-118h-492z" />
    <glyph glyph-name="greaterequal" unicode="&#x2265;" horiz-adv-x="596" 
d="M52 148v127l298 95l-298 94v127l492 -166v-111zM52 0v118h492v-118h-492z" />
    <glyph glyph-name="lozenge" unicode="&#x25ca;" horiz-adv-x="596" 
d="M298 -32l-275 372l275 372l275 -372zM298 169l126 171l-126 171l-126 -171z" />
    <glyph glyph-name="uniF8FF" unicode="&#xf8ff;" horiz-adv-x="649" 
d="M263 50q-101 0 -163 61t-62 163q0 101 64.5 163t185.5 62h50v116h157v-116h132v-149h-132v-51q0 -116 -63.5 -182.5t-168.5 -66.5zM266 205q72 0 72 92v53h-49q-89 0 -89 -76q0 -32 17.5 -50.5t48.5 -18.5z" />
    <glyph glyph-name="Iacute_J.loclNLD" horiz-adv-x="853" 
d="M53 742l113 140h160l-143 -140h-130zM620 742l113 140h160l-143 -140h-130zM75 0v680h150v-680h-150zM552 -12q-124 0 -180.5 57t-56.5 182v19h144v-19q0 -58 21 -84t70 -26t70.5 27.5t21.5 88.5v447h150v-453q0 -125 -57.5 -182t-182.5 -57z" />
    <glyph glyph-name="iacute_j.loclNLD" horiz-adv-x="552" 
d="M41 590l113 140h160l-143 -140h-130zM317 590l113 140h160l-143 -140h-130zM64 0v522h148v-522h-148zM273 -182v116h30q20 0 28.5 9.5t8.5 33.5v545h148v-548q0 -82 -33 -119t-106 -37h-76z" />
    <glyph glyph-name="i.loclTRK" horiz-adv-x="276" 
d="M60 596v126h156v-126h-156zM64 0v522h148v-522h-148z" />
    <glyph glyph-name="germandbls.calt" horiz-adv-x="643" 
d="M63 0v457q0 115 58 169t182 54h266v-114l-125 -172q91 -13 132.5 -60.5t41.5 -136.5q0 -105 -57.5 -151t-189.5 -46h-102v127h90q60 0 84 15.5t24 58.5q0 45 -25 60.5t-88 15.5h-71v108l120 168h-86q-54 0 -79 -23t-25 -73v-457h-150z" />
    <glyph glyph-name="zero.pf" horiz-adv-x="622" 
d="M311 -12q-121 0 -183.5 58.5t-62.5 170.5v246q0 113 62.5 171t183.5 58t183.5 -58t62.5 -171v-246q0 -112 -62.5 -170.5t-183.5 -58.5zM311 113q52 0 75 26t23 84v234q0 58 -23 84t-75 26t-75 -26t-23 -84v-234q0 -58 23 -84t75 -26z" />
    <glyph glyph-name="one.pf" horiz-adv-x="457" 
d="M221 0v499q-67 -15 -182 -17v110q72 2 116.5 22.5t73.5 65.5h140v-680h-148z" />
    <glyph glyph-name="two.pf" horiz-adv-x="571" 
d="M39 0v70q0 97 48 160.5t162 116.5q77 36 106.5 66t29.5 73q0 38 -24 59.5t-71 21.5q-100 0 -100 -103v-19h-140v32q0 105 62 160t179 55q118 0 179.5 -53.5t61.5 -151.5q0 -85 -48 -143.5t-160 -108.5q-70 -31 -99.5 -54.5t-36.5 -53.5h344v-127h-493z" />
    <glyph glyph-name="three.pf" horiz-adv-x="593" 
d="M298 -12q-249 0 -249 196v35h143v-16q0 -90 106 -90q102 0 102 84q0 44 -27 64t-87 20h-65v124h62q53 0 78 19t25 61q0 82 -91 82q-95 0 -95 -88v-13h-141v21q0 101 60.5 153t178.5 52q114 0 174 -48.5t60 -141.5q0 -107 -85 -147v-2q101 -39 101 -163q0 -202 -250 -202z
" />
    <glyph glyph-name="four.pf" horiz-adv-x="599" 
d="M352 0v139h-317v130l307 411h158v-420h70v-121h-70v-139h-148zM177 260h175v243z" />
    <glyph glyph-name="five.pf" horiz-adv-x="573" 
d="M286 -12q-119 0 -181.5 51t-63.5 151h142q2 -37 29 -57t73 -20q107 0 107 108t-101 108q-60 0 -101 -41h-129l25 392h423v-127h-300l-9 -142q51 40 132 40q101 0 154.5 -58t53.5 -168q0 -237 -254 -237z" />
    <glyph glyph-name="six.pf" horiz-adv-x="619" 
d="M316 -12q-122 0 -185 58t-63 172v239q0 116 64 175.5t189 59.5q230 0 236 -198h-142q-3 33 -27 53t-69 20q-103 0 -103 -116v-67q55 55 146 55q97 0 148.5 -56.5t51.5 -162.5q0 -232 -246 -232zM317 113q97 0 97 103q0 98 -89 98q-76 0 -109 -75v-15q0 -111 101 -111z
" />
    <glyph glyph-name="seven.pf" horiz-adv-x="539" 
d="M107 0q15 338 257 550h-347v130h500v-134q-124 -121 -184.5 -250.5t-67.5 -295.5h-158z" />
    <glyph glyph-name="eight.pf" horiz-adv-x="612" 
d="M306 -12q-128 0 -194 51t-66 149q0 123 104 165v2q-87 41 -87 146q0 92 63 141.5t181 49.5q117 0 180 -49.5t63 -140.5q0 -107 -88 -147v-2q104 -42 104 -165q0 -98 -66 -149t-194 -51zM306 406q98 0 98 83q0 80 -98 80t-98 -80q0 -83 98 -83zM305 111q113 0 113 84
q0 88 -113 88q-112 0 -112 -88q0 -84 112 -84z" />
    <glyph glyph-name="nine.pf" horiz-adv-x="619" 
d="M298 -12q-230 0 -236 198h142q3 -33 27 -53t69 -20q103 0 103 116v67q-55 -55 -146 -55q-97 0 -148.5 56.5t-51.5 162.5q0 232 246 232q122 0 185 -58t63 -172v-239q0 -116 -64 -175.5t-189 -59.5zM294 366q76 0 109 75v15q0 111 -101 111q-97 0 -97 -103q0 -98 89 -98z
" />
    <glyph glyph-name="zero.numr" 
d="M183 274q-152 0 -152 134v150q0 134 152 134t152 -134v-150q0 -134 -152 -134zM183 362q46 0 46 51v141q0 50 -46 50t-46 -50v-141q0 -51 46 -51z" />
    <glyph glyph-name="one.numr" 
d="M61 286v87h91v186q-40 -8 -103 -8v78q82 1 111 51h98v-307h91v-87h-288z" />
    <glyph glyph-name="two.numr" 
d="M30 286v48q0 59 29 97.5t96 68.5q38 17 54 32.5t16 35.5q0 36 -43 36q-46 0 -46 -49v-8h-99v18q0 62 38 94.5t110 32.5q70 0 108 -31.5t38 -89.5q0 -49 -29.5 -84.5t-95.5 -64.5q-35 -15 -50 -25t-19 -22h194v-89h-301z" />
    <glyph glyph-name="three.numr" 
d="M184 274q-152 0 -152 116v19h100v-7q0 -40 51 -40q48 0 48 40t-56 40h-44v83h40q52 0 52 40q0 39 -43 39t-43 -38v-6h-99v11q0 121 146 121q144 0 144 -115q0 -63 -50 -85v-2q59 -22 59 -94q0 -122 -153 -122z" />
    <glyph glyph-name="four.numr" 
d="M203 286v80h-180v89l175 225h111v-232h40v-82h-40v-80h-106zM115 448h88v118z" />
    <glyph glyph-name="five.numr" 
d="M182 274q-149 0 -149 122h101q3 -34 49 -34q48 0 48 48q0 51 -49 51q-32 0 -46 -20h-91l14 239h258v-89h-175l-4 -70q30 21 77 21q60 0 91 -33.5t31 -96.5q0 -138 -155 -138z" />
    <glyph glyph-name="six.numr" 
d="M187 274q-75 0 -114 34.5t-39 99.5v146q0 138 154 138q73 0 110 -31.5t37 -86.5h-101q-4 30 -45 30q-49 0 -49 -54v-35q30 26 80 26q57 0 87.5 -33t30.5 -95q0 -139 -151 -139zM187 362q45 0 45 50q0 49 -41 49q-33 0 -51 -32v-16q0 -51 47 -51z" />
    <glyph glyph-name="seven.numr" 
d="M77 286q9 193 150 303h-199v91h308v-95q-74 -66 -107.5 -135.5t-38.5 -163.5h-113z" />
    <glyph glyph-name="eight.numr" 
d="M183 274q-159 0 -159 118q0 74 62 98v2q-52 22 -52 86q0 114 149 114t149 -114q0 -64 -52 -86v-2q62 -24 62 -98q0 -118 -159 -118zM183 526q46 0 46 41q0 38 -46 38t-46 -38q0 -41 46 -41zM183 361q53 0 53 40q0 42 -53 42t-53 -42q0 -40 53 -40z" />
    <glyph glyph-name="nine.numr" 
d="M178 274q-73 0 -110 31.5t-37 86.5h101q4 -30 45 -30q49 0 49 54v35q-30 -26 -80 -26q-57 0 -87.5 33t-30.5 95q0 139 151 139q75 0 114 -34.5t39 -99.5v-146q0 -138 -154 -138zM175 505q33 0 51 32v16q0 51 -47 51q-45 0 -45 -50q0 -49 41 -49z" />
    <glyph glyph-name="zero.dnom" 
d="M183 -12q-152 0 -152 134v150q0 134 152 134t152 -134v-150q0 -134 -152 -134zM183 76q46 0 46 51v141q0 50 -46 50t-46 -50v-141q0 -51 46 -51z" />
    <glyph glyph-name="one.dnom" 
d="M61 0v87h91v186q-40 -8 -103 -8v78q82 1 111 51h98v-307h91v-87h-288z" />
    <glyph glyph-name="two.dnom" 
d="M30 0v48q0 59 29 97.5t96 68.5q38 17 54 32.5t16 35.5q0 36 -43 36q-46 0 -46 -49v-8h-99v18q0 62 38 94.5t110 32.5q70 0 108 -31.5t38 -89.5q0 -49 -29.5 -84.5t-95.5 -64.5q-35 -15 -50 -25t-19 -22h194v-89h-301z" />
    <glyph glyph-name="three.dnom" 
d="M184 -12q-152 0 -152 116v19h100v-7q0 -40 51 -40q48 0 48 40t-56 40h-44v83h40q52 0 52 40q0 39 -43 39t-43 -38v-6h-99v11q0 121 146 121q144 0 144 -115q0 -63 -50 -85v-2q59 -22 59 -94q0 -122 -153 -122z" />
    <glyph glyph-name="four.dnom" 
d="M203 0v80h-180v89l175 225h111v-232h40v-82h-40v-80h-106zM115 162h88v118z" />
    <glyph glyph-name="five.dnom" 
d="M182 -12q-149 0 -149 122h101q3 -34 49 -34q48 0 48 48q0 51 -49 51q-32 0 -46 -20h-91l14 239h258v-89h-175l-4 -70q30 21 77 21q60 0 91 -33.5t31 -96.5q0 -138 -155 -138z" />
    <glyph glyph-name="six.dnom" 
d="M187 -12q-75 0 -114 34.5t-39 99.5v146q0 138 154 138q73 0 110 -31.5t37 -86.5h-101q-4 30 -45 30q-49 0 -49 -54v-35q30 26 80 26q57 0 87.5 -33t30.5 -95q0 -139 -151 -139zM187 76q45 0 45 50q0 49 -41 49q-33 0 -51 -32v-16q0 -51 47 -51z" />
    <glyph glyph-name="seven.dnom" 
d="M77 0q9 193 150 303h-199v91h308v-95q-74 -66 -107.5 -135.5t-38.5 -163.5h-113z" />
    <glyph glyph-name="eight.dnom" 
d="M183 -12q-159 0 -159 118q0 74 62 98v2q-52 22 -52 86q0 114 149 114t149 -114q0 -64 -52 -86v-2q62 -24 62 -98q0 -118 -159 -118zM183 240q46 0 46 41q0 38 -46 38t-46 -38q0 -41 46 -41zM183 75q53 0 53 40q0 42 -53 42t-53 -42q0 -40 53 -40z" />
    <glyph glyph-name="nine.dnom" 
d="M178 -12q-73 0 -110 31.5t-37 86.5h101q4 -30 45 -30q49 0 49 54v35q-30 -26 -80 -26q-57 0 -87.5 33t-30.5 95q0 139 151 139q75 0 114 -34.5t39 -99.5v-146q0 -138 -154 -138zM175 219q33 0 51 32v16q0 51 -47 51q-45 0 -45 -50q0 -49 41 -49z" />
    <glyph glyph-name="exclamdown.case" horiz-adv-x="309" 
d="M77 525v155h155v-155h-155zM77 0l3 194l21 262h107l21 -262l3 -194h-155z" />
    <glyph glyph-name="questiondown.case" horiz-adv-x="467" 
d="M178 525v155h154v-155h-154zM237 -12q-104 0 -160 47t-56 135q0 52 22 89.5t73 72.5q41 28 57.5 52.5t16.5 56.5v15h129v-21q0 -58 -21.5 -99.5t-71.5 -76.5q-33 -23 -45.5 -41t-12.5 -43q0 -62 71 -62q77 0 77 88h139q0 -213 -218 -213z" />
    <glyph glyph-name="at.case" horiz-adv-x="752" 
d="M408 -22q-174 0 -276.5 97.5t-102.5 261.5t100.5 264t264.5 100q157 0 252 -90.5t95 -235.5q0 -100 -46 -154.5t-128 -54.5q-83 0 -112 56q-39 -56 -110 -56q-58 0 -88 34.5t-30 99.5v71q0 134 118 134q66 0 105 -48l4 36h88v-193q0 -46 33 -46q28 0 43.5 29t15.5 83
q0 111 -64 175.5t-174 64.5q-118 0 -186.5 -72.5t-68.5 -192.5q0 -123 72.5 -195t194.5 -72q103 0 180 50l36 -92q-89 -54 -216 -54zM377 256q36 0 54 37v85q-17 38 -55 38q-39 0 -39 -47v-68q0 -45 40 -45z" />
    <glyph glyph-name="parenleft.case" horiz-adv-x="343" 
d="M328 -96q-132 29 -204 143t-72 293t72 293t204 143v-109q-137 -67 -137 -327t137 -327v-109z" />
    <glyph glyph-name="parenright.case" horiz-adv-x="343" 
d="M15 -96v109q137 67 137 327t-137 327v109q132 -29 204 -143t72 -293t-72 -293t-204 -143z" />
    <glyph glyph-name="braceleft.case" horiz-adv-x="343" 
d="M248 -84q-86 0 -124 42t-38 141v116q0 42 -14.5 57t-52.5 15v106q38 0 52.5 15t14.5 57v116q0 99 38 141t124 42h80v-107h-43q-38 0 -50 -16t-12 -65v-106q0 -109 -76 -129v-2q76 -20 76 -129v-106q0 -49 12 -65t50 -16h43v-107h-80z" />
    <glyph glyph-name="braceright.case" horiz-adv-x="343" 
d="M15 -84v107h43q38 0 50 16t12 65v106q0 109 76 129v2q-76 20 -76 129v106q0 49 -12 65t-50 16h-43v107h80q86 0 124 -42t38 -141v-116q0 -42 14.5 -57t52.5 -15v-106q-38 0 -52.5 -15t-14.5 -57v-116q0 -99 -38 -141t-124 -42h-80z" />
    <glyph glyph-name="bracketleft.case" horiz-adv-x="343" 
d="M72 -84v848h256v-107h-118v-634h118v-107h-256z" />
    <glyph glyph-name="bracketright.case" horiz-adv-x="343" 
d="M15 -84v107h118v634h-118v107h256v-848h-256z" />
    <glyph glyph-name="bar.case" horiz-adv-x="290" 
d="M86 -160v1000h118v-1000h-118z" />
    <glyph glyph-name="brokenbar.case" horiz-adv-x="290" 
d="M86 440v400h118v-400h-118zM86 -160v400h118v-400h-118z" />
    <glyph glyph-name="periodcentered.case" horiz-adv-x="293" 
d="M69 262v155h155v-155h-155z" />
    <glyph glyph-name="bullet.case" horiz-adv-x="500" 
d="M121 211v258h258v-258h-258z" />
    <glyph glyph-name="hyphen.case" horiz-adv-x="383" 
d="M33 276v128h317v-128h-317z" />
    <glyph glyph-name="uni00AD.case" horiz-adv-x="383" 
d="M33 276v128h317v-128h-317z" />
    <glyph glyph-name="figuredash.case" horiz-adv-x="596" 
d="M30 283v114h536v-114h-536z" />
    <glyph glyph-name="endash.case" horiz-adv-x="500" 
d="M30 283v114h440v-114h-440z" />
    <glyph glyph-name="emdash.case" horiz-adv-x="900" 
d="M30 283v114h840v-114h-840z" />
    <glyph glyph-name="guillemotleft.case" horiz-adv-x="557" 
d="M147 160l-132 180l132 180h149l-132 -180l132 -180h-149zM393 160l-132 180l132 180h149l-132 -180l132 -180h-149z" />
    <glyph glyph-name="guillemotright.case" horiz-adv-x="557" 
d="M15 160l132 180l-132 180h149l132 -180l-132 -180h-149zM261 160l132 180l-132 180h149l132 -180l-132 -180h-149z" />
    <glyph glyph-name="guilsinglleft.case" horiz-adv-x="311" 
d="M147 160l-132 180l132 180h149l-132 -180l132 -180h-149z" />
    <glyph glyph-name="guilsinglright.case" horiz-adv-x="311" 
d="M15 160l132 180l-132 180h149l132 -180l-132 -180h-149z" />
    <glyph glyph-name="caron.alt" horiz-adv-x="185" 
d="M16 508l38 222h138l-81 -222h-95z" />
    <glyph glyph-name="ringacute" horiz-adv-x="500" 
d="M153 822l113 140h160l-143 -140h-130zM250 563q-53 0 -88 32.5t-35 83.5q0 50 35 83.5t88 33.5t88 -33.5t35 -83.5q0 -51 -35 -83.5t-88 -32.5zM250 637q17 0 27.5 11.5t10.5 30.5t-10.5 30t-27.5 11t-27.5 -11t-10.5 -30t10.5 -30.5t27.5 -11.5z" />
    <glyph glyph-name="NULL" horiz-adv-x="0" 
 />
    </font>
</defs>
</svg>
