<?xml version="1.0" standalone="no"?>
<!DOCTYPE svg PUBLIC "-//W3C//DTD SVG 1.1//EN" "http://www.w3.org/Graphics/SVG/1.1/DTD/svg11.dtd" >
<svg xmlns="http://www.w3.org/2000/svg" xmlns:xlink="http://www.w3.org/1999/xlink" version="1.1">
<metadata>
Created by FontForge 20170731 at Fri Feb  5 17:49:51 2016
 By Aleksey,,,
Copyright (c) 2014-2015 by Ryoichi Tsunekawa. All rights reserved.
</metadata>
<defs>
<font id="BioSans-SemiBoldItalic" horiz-adv-x="366" >
  <font-face 
    font-family="Bio Sans SemiBold"
    font-weight="600"
    font-style="italic"
    font-stretch="normal"
    units-per-em="1000"
    panose-1="2 11 6 6 2 2 2 11 2 4"
    ascent="800"
    descent="-200"
    x-height="519"
    cap-height="680"
    bbox="-222 -247 1085 1102"
    underline-thickness="62"
    underline-position="-224"
    slope="-10"
    unicode-range="U+000D-FB02"
  />
<missing-glyph horiz-adv-x="684" 
d="M35 0l120 680h522l-120 -680h-522zM367 410l166 198h-265zM133 133l177 211l-101 203zM505 133l76 414l-177 -211zM181 72h265l-99 197z" />
    <glyph glyph-name="fi" unicode="fi" horiz-adv-x="615" 
d="M51 0l75 426h-86l16 93h86l9 50q15 84 56.5 122.5t116.5 38.5h102l-16 -95h-62q-35 0 -53 -17t-25 -55l-8 -44h124l-17 -93h-123l-75 -426h-120zM477 602l20 113h128l-20 -113h-128zM376 0l92 519h120l-92 -519h-120z" />
    <glyph glyph-name="fl" unicode="fl" horiz-adv-x="615" 
d="M51 0l75 426h-86l16 93h86l9 50q15 84 56.5 122.5t116.5 38.5h102l-16 -95h-62q-35 0 -53 -17t-25 -55l-8 -44h124l-17 -93h-123l-75 -426h-120zM376 0l129 730h120l-129 -730h-120z" />
    <glyph glyph-name=".notdef" horiz-adv-x="684" 
d="M35 0l120 680h522l-120 -680h-522zM367 410l166 198h-265zM133 133l177 211l-101 203zM505 133l76 414l-177 -211zM181 72h265l-99 197z" />
    <glyph glyph-name=".null" horiz-adv-x="0" 
 />
    <glyph glyph-name="nonmarkingreturn" horiz-adv-x="333" 
 />
    <glyph glyph-name="CR" unicode="&#xd;" horiz-adv-x="251" 
 />
    <glyph glyph-name="space" unicode=" " horiz-adv-x="251" 
 />
    <glyph glyph-name="exclam" unicode="!" horiz-adv-x="301" 
d="M99 214l33 279l30 187h126l-35 -187l-67 -279h-87zM40 0l22 130h131l-23 -130h-130z" />
    <glyph glyph-name="quotedbl" unicode="&#x22;" horiz-adv-x="433" 
d="M101 419l30 261h120l-60 -261h-90zM300 419l30 261h120l-60 -261h-90z" />
    <glyph glyph-name="numbersign" unicode="#" horiz-adv-x="599" 
d="M48 0l51 170h-75l15 87h86l54 176h-75l15 87h86l48 160h103l-48 -160h121l48 160h103l-48 -160h73l-15 -87h-84l-54 -176h73l-15 -87h-84l-51 -170h-103l51 170h-121l-51 -170h-103zM228 257h121l54 176h-121z" />
    <glyph glyph-name="dollar" unicode="$" horiz-adv-x="599" 
d="M195 -72l13 74q-164 17 -164 153q0 24 4 45h110q-3 -14 -3 -26q0 -62 70 -74l35 197q-90 21 -124 55t-34 103q0 95 60 153.5t166 69.5l13 74h95l-13 -75q146 -20 146 -148q0 -23 -4 -44h-109q2 9 2 26q0 52 -53 67l-33 -188q92 -21 126.5 -56.5t34.5 -107.5
q0 -98 -59.5 -155.5t-170.5 -68.5l-13 -74h-95zM280 411l30 167q-42 -10 -65 -37t-23 -64q0 -25 12.5 -40t45.5 -26zM321 102q45 10 69 36t24 66q0 28 -13.5 43.5t-49.5 27.5z" />
    <glyph glyph-name="percent" unicode="%" horiz-adv-x="778" 
d="M202 312q-67 0 -101.5 27.5t-34.5 79.5q0 15 3 31l20 111q24 131 164 131q135 0 135 -107q0 -15 -3 -32l-19 -111q-22 -130 -164 -130zM92 -12l529 704h94l-529 -704h-94zM204 389q62 0 72 60l18 105q2 12 2 22q0 39 -47 39q-61 0 -71 -60l-19 -106q-2 -12 -2 -21
q0 -39 47 -39zM553 -12q-67 0 -101.5 27.5t-34.5 79.5q0 15 3 32l20 110q24 131 164 131q135 0 135 -107q0 -15 -3 -31l-19 -112q-22 -130 -164 -130zM556 65q62 0 72 60l18 106q2 12 2 21q0 39 -47 39q-61 0 -71 -60l-19 -105q-2 -12 -2 -22q0 -39 47 -39z" />
    <glyph glyph-name="ampersand" unicode="&#x26;" horiz-adv-x="672" 
d="M229 -12q-98 0 -150.5 42.5t-52.5 124.5q0 71 41.5 126.5t130.5 101.5q-36 59 -36 115q0 86 60 140t156 54q74 0 114.5 -34t40.5 -99q0 -64 -41 -111.5t-135 -91.5l98 -136q29 54 47 128h117q-36 -130 -101 -217l94 -131h-152l-32 46q-87 -58 -199 -58zM303 431
q65 31 94 59t29 60q0 49 -58 49q-43 0 -69.5 -26.5t-26.5 -64.5q0 -33 31 -77zM254 88q66 0 120 37l-123 180q-54 -31 -78 -62t-24 -70q0 -85 105 -85z" />
    <glyph glyph-name="quotesingle" unicode="'" horiz-adv-x="236" 
d="M100 419l31 261h122l-61 -261h-92z" />
    <glyph glyph-name="parenleft" unicode="(" horiz-adv-x="341" 
d="M255 -130q-197 60 -197 325q0 123 39 236.5t120.5 199.5t190.5 111l-17 -98q-107 -49 -166 -189t-59 -283q0 -86 25 -138t78 -78z" />
    <glyph glyph-name="parenright" unicode=")" horiz-adv-x="341" 
d="M-50 -130l17 98q107 49 166 189t59 283q0 86 -25 138t-78 78l14 86q197 -60 197 -325q0 -123 -39 -236.5t-120.5 -199.5t-190.5 -111z" />
    <glyph glyph-name="asterisk" unicode="*" horiz-adv-x="418" 
d="M144 290l-68 58l109 115l-133 35l32 89l134 -58l18 151h91l-34 -147l133 50l23 -88l-149 -37l79 -126l-79 -42l-58 128z" />
    <glyph glyph-name="plus" unicode="+" horiz-adv-x="599" 
d="M213 54l36 206h-195l18 98h195l36 206h101l-36 -206h195l-18 -98h-195l-36 -206h-101z" />
    <glyph glyph-name="comma" unicode="," horiz-adv-x="286" 
d="M-3 -158l13 69q25 1 43.5 18.5t23.5 47.5l4 23h-49l22 130h131l-23 -132q-15 -82 -52.5 -118.5t-112.5 -37.5z" />
    <glyph glyph-name="hyphen" unicode="-" horiz-adv-x="377" 
d="M30 241l19 109h310l-19 -109h-310z" />
    <glyph glyph-name="period" unicode="." horiz-adv-x="286" 
d="M32 0l23 130h131l-23 -130h-131z" />
    <glyph glyph-name="slash" unicode="/" horiz-adv-x="456" 
d="M-67 -140l493 870h111l-493 -870h-111z" />
    <glyph glyph-name="zero" unicode="0" horiz-adv-x="599" 
d="M259 -12q-103 0 -157.5 44.5t-54.5 130.5q0 31 5 59l43 246q39 224 273 224q103 0 157.5 -44.5t54.5 -130.5q0 -31 -5 -59l-43 -246q-39 -224 -273 -224zM267 92q64 0 99 32t47 100l42 235q4 23 4 42q0 87 -99 87q-63 0 -98.5 -32t-47.5 -100l-41 -235q-5 -28 -5 -42
q0 -87 99 -87z" />
    <glyph glyph-name="one" unicode="1" horiz-adv-x="599" 
d="M63 0l18 106h166l73 419q-69 -28 -190 -30l17 97q128 4 206 88h115l-101 -574h163l-18 -106h-449z" />
    <glyph glyph-name="two" unicode="2" horiz-adv-x="599" 
d="M11 0l12 66q18 97 76 158t186 116q94 40 135.5 80t41.5 90q0 78 -97 78q-63 0 -101 -31t-46 -90l-2 -14h-115l6 34q18 101 86 153t182 52q207 0 207 -171q0 -90 -61 -156t-196 -125q-86 -37 -124 -66t-51 -68h360l-18 -106h-481z" />
    <glyph glyph-name="three" unicode="3" horiz-adv-x="599" 
d="M257 -12q-106 0 -161.5 41t-55.5 115q0 12 4 40l5 28h116l-3 -17q-2 -16 -2 -27q0 -76 107 -76q70 0 110 33t40 89q0 42 -26.5 60.5t-88.5 18.5h-71l17 104h67q66 0 102.5 31t36.5 83q0 77 -93 77q-122 0 -140 -106l-2 -9h-115l4 22q36 197 265 197q202 0 202 -164
q0 -128 -118 -175v-2q80 -34 80 -135q0 -107 -75 -167.5t-205 -60.5z" />
    <glyph glyph-name="four" unicode="4" horiz-adv-x="599" 
d="M326 0l26 147h-333l19 109l396 424h132l-76 -431h74l-18 -102h-74l-26 -147h-120zM167 249h203l48 272z" />
    <glyph glyph-name="five" unicode="5" horiz-adv-x="599" 
d="M256 -12q-102 0 -158 42t-56 118q0 17 3 35h115v-13q0 -38 27 -58t77 -20q76 0 118.5 44t42.5 112q0 97 -102 97q-69 0 -130 -46h-106l91 381h415l-20 -106h-311l-39 -165q58 39 140 39q184 0 184 -185q0 -125 -77 -200t-214 -75z" />
    <glyph glyph-name="six" unicode="6" horiz-adv-x="599" 
d="M266 -12q-104 0 -159 44.5t-55 132.5q0 31 5 58l42 241q20 115 92 171.5t188 56.5q102 0 154 -42t52 -117q0 -21 -2 -32h-116v11q0 76 -96 76q-129 0 -154 -137l-13 -73q68 58 163 58q87 0 132 -43t45 -123q0 -131 -73 -206.5t-205 -75.5zM275 92q70 0 109 44.5t39 114.5
q0 81 -91 81q-96 0 -152 -92l-4 -20q-3 -14 -3 -36q0 -92 102 -92z" />
    <glyph glyph-name="seven" unicode="7" horiz-adv-x="599" 
d="M105 0q74 345 359 571h-358l19 109h492l-19 -112q-151 -126 -239.5 -262.5t-125.5 -305.5h-128z" />
    <glyph glyph-name="eight" unicode="8" horiz-adv-x="599" 
d="M253 -12q-225 0 -225 172q0 72 38 122t107 72v2q-71 35 -71 124q0 95 73 153.5t199 58.5q101 0 155 -41.5t54 -124.5q0 -127 -122 -173v-2q84 -37 84 -140q0 -105 -79 -164t-213 -59zM318 398q68 0 106 32t38 83q0 76 -98 76q-68 0 -107 -31.5t-39 -82.5q0 -77 100 -77z
M262 91q77 0 120.5 31.5t43.5 88.5q0 84 -112 84q-77 0 -121 -32.5t-44 -89.5q0 -82 113 -82z" />
    <glyph glyph-name="nine" unicode="9" horiz-adv-x="599" 
d="M360 692q104 0 159.5 -44.5t55.5 -132.5q0 -31 -5 -58l-43 -241q-41 -228 -280 -228q-101 0 -153 42t-52 117q0 21 2 32h116q-1 -3 -1 -11q0 -76 97 -76q129 0 154 137l13 73q-68 -58 -163 -58q-87 0 -132 43t-45 123q0 131 73 206.5t204 75.5zM295 348q97 0 152 94l3 16
q4 19 4 38q0 92 -102 92q-70 0 -109 -44.5t-39 -114.5q0 -81 91 -81z" />
    <glyph glyph-name="colon" unicode=":" horiz-adv-x="286" 
d="M95 360l23 130h131l-23 -130h-131zM32 0l23 130h131l-23 -130h-131z" />
    <glyph glyph-name="semicolon" unicode=";" horiz-adv-x="286" 
d="M96 360l23 130h131l-23 -130h-131zM-3 -158l13 69q25 1 43.5 18.5t23.5 47.5l4 23h-49l22 130h131l-23 -132q-15 -82 -52.5 -118.5t-112.5 -37.5z" />
    <glyph glyph-name="less" unicode="&#x3c;" horiz-adv-x="599" 
d="M510 59l-456 200l17 96l526 200l-20 -111l-377 -141l328 -142z" />
    <glyph glyph-name="equal" unicode="=" horiz-adv-x="599" 
d="M74 374l18 98h491l-18 -98h-491zM34 146l18 98h491l-18 -98h-491z" />
    <glyph glyph-name="greater" unicode="&#x3e;" horiz-adv-x="599" 
d="M19 61l20 111l377 141l-328 142l18 102l456 -200l-17 -96z" />
    <glyph glyph-name="question" unicode="?" horiz-adv-x="453" 
d="M145 214l6 31q11 60 38.5 98t84.5 73q46 28 64.5 54t18.5 61q0 58 -74 58q-48 0 -78 -26.5t-38 -76.5h-114q36 206 238 206q89 0 137.5 -38t48.5 -107q0 -67 -29.5 -112.5t-97.5 -86.5q-48 -28 -69.5 -54t-27.5 -62l-3 -18h-105zM96 0l22 130h130l-22 -130h-130z" />
    <glyph glyph-name="at" unicode="@" horiz-adv-x="755" 
d="M386 -68q-163 0 -256.5 86.5t-93.5 238.5q0 170 111.5 283.5t287.5 113.5q143 0 231 -78t88 -210q0 -102 -52.5 -175t-148.5 -73q-83 0 -102 57q-50 -57 -120 -57q-52 0 -79 26.5t-27 73.5q0 18 3 38l13 74q23 130 136 130q73 0 105 -56l13 44h79l-35 -201q-2 -10 -2 -19
q0 -29 29 -29q45 0 68.5 53t23.5 116q0 95 -59.5 147.5t-160.5 52.5q-135 0 -219 -89t-84 -221q0 -114 65.5 -177t182.5 -63q108 0 184 52l33 -86q-89 -52 -214 -52zM361 200q44 0 78 47l15 88q-12 43 -56 43q-51 0 -60 -58l-11 -66q-2 -10 -2 -18q0 -36 36 -36z" />
    <glyph glyph-name="A" unicode="A" horiz-adv-x="610" 
d="M-41 0l357 680h125l118 -680h-126l-25 154h-241l-80 -154h-128zM218 259h175l-38 279z" />
    <glyph glyph-name="B" unicode="B" horiz-adv-x="639" 
d="M37 0l120 680h264q106 0 152.5 -36t46.5 -116q0 -133 -121 -171v-2q47 -16 68 -48.5t21 -88.5q0 -104 -67.5 -161t-191.5 -57h-292zM230 399h130q138 0 138 107q0 39 -22 53.5t-79 14.5h-135zM178 106h145q145 0 145 114q0 41 -26 57t-94 16h-136z" />
    <glyph glyph-name="C" unicode="C" horiz-adv-x="615" 
d="M276 -12q-226 0 -226 197q0 35 8 80l28 158q24 137 96.5 203t202.5 66q223 0 223 -187q0 -33 -4 -60h-118q3 21 3 39q0 52 -27 76.5t-85 24.5q-74 0 -115 -40.5t-56 -129.5l-26 -153q-6 -35 -6 -62q0 -55 27 -80t85 -25q68 0 107 34t55 105h118q-26 -127 -97 -186.5
t-193 -59.5z" />
    <glyph glyph-name="D" unicode="D" horiz-adv-x="645" 
d="M37 0l120 680h240q226 0 226 -189q0 -35 -8 -81l-26 -150q-24 -137 -95.5 -198.5t-207.5 -61.5h-249zM178 107h106q84 0 127 38t57 123l25 145q6 40 6 59q0 54 -30.5 77.5t-99.5 23.5h-109z" />
    <glyph glyph-name="E" unicode="E" horiz-adv-x="585" 
d="M37 0l120 680h456l-18 -107h-335l-30 -173h283l-18 -106h-284l-33 -187h344l-19 -107h-466z" />
    <glyph glyph-name="F" unicode="F" horiz-adv-x="551" 
d="M37 0l120 680h448l-19 -107h-326l-31 -176h276l-19 -107h-276l-51 -290h-122z" />
    <glyph glyph-name="G" unicode="G" horiz-adv-x="635" 
d="M282 -12q-117 0 -174.5 51t-57.5 146q0 40 7 76l30 168q47 263 301 263q109 0 168 -47.5t59 -135.5q0 -19 -3 -40h-117q1 8 1 22q0 94 -115 94q-75 0 -116.5 -40t-57.5 -128l-28 -158q-6 -33 -6 -57q0 -55 29 -81t91 -26q74 0 113.5 38t56.5 122l3 15h-128l19 107h245
l-23 -130q-23 -129 -95 -194t-202 -65z" />
    <glyph glyph-name="H" unicode="H" horiz-adv-x="688" 
d="M37 0l120 680h122l-49 -279h278l49 279h122l-120 -680h-122l52 293h-278l-52 -293h-122z" />
    <glyph glyph-name="I" unicode="I" horiz-adv-x="288" 
d="M37 0l120 680h122l-120 -680h-122z" />
    <glyph glyph-name="J" unicode="J" horiz-adv-x="551" 
d="M206 -12q-105 0 -153.5 41t-48.5 132q0 32 7 67l2 12h117l-3 -17q-5 -28 -5 -47q0 -42 21.5 -61.5t70.5 -19.5q63 0 96.5 32.5t46.5 105.5l79 447h122l-81 -459q-22 -124 -85.5 -178.5t-185.5 -54.5z" />
    <glyph glyph-name="K" unicode="K" horiz-adv-x="620" 
d="M37 0l120 680h122l-57 -325l324 325h148l-280 -281l161 -399h-132l-126 310l-125 -126l-33 -184h-122z" />
    <glyph glyph-name="L" unicode="L" horiz-adv-x="518" 
d="M37 0l120 680h122l-101 -571h306l-19 -109h-428z" />
    <glyph glyph-name="M" unicode="M" horiz-adv-x="873" 
d="M37 0l120 680h177l86 -490l259 490h185l-120 -680h-122l95 537l-286 -537h-84l-98 545l-96 -545h-116z" />
    <glyph glyph-name="N" unicode="N" horiz-adv-x="686" 
d="M37 0l120 680h130l189 -484l85 484h116l-120 -680h-116l-198 509l-90 -509h-116z" />
    <glyph glyph-name="O" unicode="O" horiz-adv-x="654" 
d="M285 -12q-234 0 -234 200q0 41 7 77l28 158q24 137 99.5 203t211.5 66q234 0 234 -200q0 -41 -7 -77l-28 -158q-24 -137 -99.5 -203t-211.5 -66zM295 95q78 0 121.5 40t58.5 127l27 156q6 35 6 59q0 56 -29.5 82t-92.5 26q-78 0 -121.5 -40t-58.5 -127l-27 -156
q-6 -35 -6 -59q0 -56 29.5 -82t92.5 -26z" />
    <glyph glyph-name="P" unicode="P" horiz-adv-x="607" 
d="M37 0l120 680h259q112 0 159.5 -40.5t47.5 -135.5q0 -124 -70.5 -189t-204.5 -65h-145l-44 -250h-122zM222 356h130q71 0 109.5 34.5t38.5 99.5q0 47 -23.5 65t-83.5 18h-133z" />
    <glyph glyph-name="Q" unicode="Q" horiz-adv-x="653" 
d="M397 692q234 0 234 -200q0 -41 -7 -77l-28 -158q-19 -113 -75 -179l67 -82l-91 -75l-73 90q-56 -23 -139 -23q-234 0 -234 200q0 41 7 77l28 158q24 137 99.5 203t211.5 66zM173 203q0 -56 29.5 -82t92.5 -26q38 0 62 8l-88 108l83 68l91 -111q21 33 32 94l27 156
q6 35 6 59q0 56 -29.5 82t-92.5 26q-78 0 -121.5 -40t-58.5 -127l-27 -156q-6 -35 -6 -59z" />
    <glyph glyph-name="R" unicode="R" horiz-adv-x="632" 
d="M37 0l120 680h266q108 0 153 -39t45 -131q0 -194 -171 -237l108 -273h-132l-101 263h-120l-46 -263h-122zM224 369h134q68 0 104 33.5t36 94.5q0 43 -22 59.5t-79 16.5h-137z" />
    <glyph glyph-name="S" unicode="S" horiz-adv-x="561" 
d="M242 -12q-225 0 -225 161q0 20 5 50h119q-3 -16 -3 -29q0 -79 110 -79q69 0 108 30t39 88q0 32 -29.5 51t-99.5 32q-100 19 -143 55.5t-43 101.5q0 117 72 180t199 63q211 0 211 -157q0 -25 -4 -48h-120q2 10 2 28q0 39 -23.5 56t-72.5 17q-65 0 -103 -30t-38 -83
q0 -30 28.5 -47.5t96.5 -29.5q102 -18 146.5 -56t44.5 -106q0 -123 -72 -185.5t-205 -62.5z" />
    <glyph glyph-name="T" unicode="T" horiz-adv-x="517" 
d="M152 0l101 571h-191l19 109h504l-19 -109h-191l-101 -571h-122z" />
    <glyph glyph-name="U" unicode="U" horiz-adv-x="636" 
d="M279 -12q-115 0 -169 41.5t-54 130.5q0 31 7 70l79 450h122l-79 -453q-5 -32 -5 -45q0 -48 25.5 -67.5t82.5 -19.5q72 0 108 31t49 104l80 450h118l-81 -459q-22 -123 -87.5 -178t-195.5 -55z" />
    <glyph glyph-name="V" unicode="V" horiz-adv-x="587" 
d="M184 0l-105 680h126l71 -518l253 518h127l-345 -680h-127z" />
    <glyph glyph-name="W" unicode="W" horiz-adv-x="871" 
d="M136 0l-55 680h123l31 -497l218 497h112l43 -497l206 497h124l-295 -680h-125l-43 483l-212 -483h-127z" />
    <glyph glyph-name="X" unicode="X" horiz-adv-x="573" 
d="M-40 0l267 357l-138 323h134l99 -240l176 240h139l-258 -345l143 -335h-134l-104 254l-185 -254h-139z" />
    <glyph glyph-name="Y" unicode="Y" horiz-adv-x="546" 
d="M166 0l51 287l-162 393h133l109 -271l203 271h138l-299 -393l-51 -287h-122z" />
    <glyph glyph-name="Z" unicode="Z" horiz-adv-x="554" 
d="M-16 0l17 97l411 476h-309l19 107h469l-16 -96l-411 -477h334l-19 -107h-495z" />
    <glyph glyph-name="bracketleft" unicode="[" horiz-adv-x="341" 
d="M15 -118l150 848h241l-16 -89h-129l-117 -670h129l-16 -89h-242z" />
    <glyph glyph-name="backslash" unicode="\" horiz-adv-x="456" 
d="M276 -140l-188 870h106l187 -870h-105z" />
    <glyph glyph-name="bracketright" unicode="]" horiz-adv-x="341" 
d="M-48 -118l15 89h129l118 670h-129l16 89h241l-149 -848h-241z" />
    <glyph glyph-name="asciicircum" unicode="^" horiz-adv-x="599" 
d="M38 333l287 347h93l165 -347h-110l-114 241l-198 -241h-123z" />
    <glyph glyph-name="underscore" unicode="_" horiz-adv-x="500" 
d="M-69 -136l15 90h500l-15 -90h-500z" />
    <glyph glyph-name="grave" unicode="`" horiz-adv-x="500" 
d="M286 592l-113 136h131l87 -136h-105z" />
    <glyph glyph-name="a" unicode="a" horiz-adv-x="541" 
d="M166 -12q-72 0 -111 35t-39 104q0 90 63 138.5t174 48.5h114l4 24q3 15 3 29q0 33 -17.5 50t-60.5 17q-92 0 -110 -75h-116q22 89 79.5 130.5t157.5 41.5q97 0 142.5 -37t45.5 -112q0 -25 -4 -48l-59 -334h-102l7 61q-70 -73 -171 -73zM202 85q83 0 138 80l12 63h-94
q-121 0 -121 -87q0 -56 65 -56z" />
    <glyph glyph-name="b" unicode="b" horiz-adv-x="580" 
d="M301 -12q-108 0 -154 90l-18 -78h-102l129 730h120l-46 -260q64 61 153 61q78 0 120 -41t42 -118q0 -27 -6 -60l-20 -114q-18 -103 -73.5 -156.5t-144.5 -53.5zM286 88q45 0 74.5 30.5t39.5 87.5l19 109q4 28 4 41q0 75 -73 75q-85 0 -144 -100l-26 -147q24 -96 106 -96z
" />
    <glyph glyph-name="c" unicode="c" horiz-adv-x="521" 
d="M232 -12q-96 0 -146 42.5t-50 123.5q0 27 6 60l18 102q38 215 252 215q94 0 142.5 -40.5t48.5 -118.5q0 -22 -4 -42h-115q2 9 2 26q0 39 -19 57t-60 18q-106 0 -128 -122l-18 -102q-4 -28 -4 -42q0 -77 83 -77q95 0 120 102h115q-39 -202 -243 -202z" />
    <glyph glyph-name="d" unicode="d" horiz-adv-x="580" 
d="M198 -12q-78 0 -120 41t-42 118q0 25 6 60l20 113q38 211 218 211q96 0 142 -71l48 270h120l-129 -730h-102l8 65q-71 -77 -169 -77zM230 88q84 0 144 99l27 149q-26 95 -106 95q-93 0 -114 -119l-19 -108q-4 -28 -4 -41q0 -75 72 -75z" />
    <glyph glyph-name="e" unicode="e" horiz-adv-x="550" 
d="M241 -12q-204 0 -204 170q0 27 5 56l18 102q18 105 82.5 160t173.5 55q97 0 148 -43.5t51 -127.5q0 -21 -5 -53l-15 -83h-331l-4 -22q-3 -18 -3 -32q0 -43 20.5 -64t69.5 -21q97 0 118 72h115q-39 -169 -239 -169zM180 313h217q4 23 4 44q0 77 -89 77q-57 0 -89 -29.5
t-43 -91.5z" />
    <glyph glyph-name="f" unicode="f" horiz-adv-x="349" 
d="M51 0l75 426h-86l16 93h86l9 50q15 84 56.5 122.5t116.5 38.5h102l-16 -95h-62q-35 0 -53 -17t-25 -55l-8 -44h124l-17 -93h-123l-75 -426h-120z" />
    <glyph glyph-name="g" unicode="g" horiz-adv-x="580" 
d="M206 -194q-197 0 -197 141q0 9 2 25h111v-9q0 -60 88 -60q59 0 91.5 26t42.5 85l11 64q-65 -59 -152 -59q-78 0 -120 41t-42 117q0 27 6 60l15 83q38 211 217 211q107 0 153 -88l18 76h103l-91 -513q-18 -101 -80.5 -150.5t-175.5 -49.5zM235 119q86 0 144 98l21 120
q-24 94 -105 94q-92 0 -114 -119l-14 -77q-4 -19 -4 -42q0 -74 72 -74z" />
    <glyph glyph-name="h" unicode="h" horiz-adv-x="570" 
d="M27 0l129 730h120l-46 -259q66 60 151 60q69 0 105 -35t36 -101q0 -30 -5 -58l-60 -337h-120l59 332q3 20 3 35q0 58 -57 58q-76 0 -136 -90l-59 -335h-120z" />
    <glyph glyph-name="i" unicode="i" horiz-adv-x="266" 
d="M128 602l20 113h128l-20 -113h-128zM27 0l92 519h120l-92 -519h-120z" />
    <glyph glyph-name="j" unicode="j" horiz-adv-x="266" 
d="M127 602l20 113h128l-20 -113h-128zM-81 -182l17 97h26q28 0 41 12t18 43l97 549h120l-97 -553q-14 -79 -50 -113.5t-107 -34.5h-65z" />
    <glyph glyph-name="k" unicode="k" horiz-adv-x="539" 
d="M27 0l129 730h120l-77 -436l239 225h148l-229 -214l138 -305h-132l-100 224l-92 -86l-24 -138h-120z" />
    <glyph glyph-name="l" unicode="l" horiz-adv-x="266" 
d="M27 0l129 730h120l-129 -730h-120z" />
    <glyph glyph-name="m" unicode="m" horiz-adv-x="860" 
d="M670 531q70 0 106 -34.5t36 -100.5q0 -28 -3 -45l-62 -351h-120l60 341q3 15 3 29q0 55 -55 55q-67 0 -129 -90l-59 -335h-120l60 339q3 16 3 31q0 55 -55 55q-69 0 -130 -94l-58 -331h-120l92 519h102l-8 -66q68 78 161 78q105 0 131 -80q71 80 165 80z" />
    <glyph glyph-name="n" unicode="n" horiz-adv-x="570" 
d="M27 0l92 519h102l-8 -66q71 78 168 78q69 0 105 -35t36 -101q0 -30 -5 -58l-60 -337h-120l59 332q3 20 3 35q0 58 -57 58q-76 0 -136 -90l-59 -335h-120z" />
    <glyph glyph-name="o" unicode="o" horiz-adv-x="562" 
d="M241 -12q-203 0 -203 173q0 28 5 57l17 90q22 114 86.5 168.5t175.5 54.5q203 0 203 -173q0 -22 -6 -56l-16 -91q-40 -223 -262 -223zM249 88q113 0 135 130l15 86q5 28 5 43q0 84 -90 84q-58 0 -90.5 -32t-44.5 -98l-16 -86q-4 -23 -4 -43q0 -84 90 -84z" />
    <glyph glyph-name="p" unicode="p" horiz-adv-x="580" 
d="M-5 -182l124 701h102l-8 -65q71 77 170 77q78 0 120 -41t42 -118q0 -27 -6 -60l-20 -114q-38 -211 -218 -211q-97 0 -144 71l-42 -240h-120zM286 87q93 0 114 119l19 109q4 28 4 41q0 75 -73 75q-85 0 -145 -99l-26 -150q25 -95 107 -95z" />
    <glyph glyph-name="q" unicode="q" horiz-adv-x="580" 
d="M309 -182l40 229q-63 -59 -151 -59q-78 0 -120 41t-42 118q0 25 6 60l20 113q38 211 218 211q107 0 152 -88l18 76h103l-124 -701h-120zM230 88q85 0 144 98l26 151q-24 94 -105 94q-93 0 -114 -119l-19 -108q-4 -28 -4 -41q0 -75 72 -75z" />
    <glyph glyph-name="r" unicode="r" horiz-adv-x="368" 
d="M27 0l92 519h102l-12 -92q50 102 155 102h41l-20 -114h-26q-61 0 -99.5 -29t-60.5 -92l-52 -294h-120z" />
    <glyph glyph-name="s" unicode="s" horiz-adv-x="501" 
d="M208 -12q-97 0 -146 35t-49 100q0 17 3 33h114q-2 -12 -2 -19q0 -57 88 -57q52 0 82 19t30 55q0 26 -24 39.5t-82 20.5q-85 10 -122.5 41t-37.5 91q0 86 62.5 135.5t168.5 49.5q90 0 136.5 -35.5t46.5 -96.5q0 -15 -3 -31h-115q2 14 2 19q0 52 -75 52q-48 0 -75.5 -19.5
t-27.5 -52.5q0 -25 23.5 -37.5t77.5 -18.5q86 -10 125.5 -42.5t39.5 -95.5q0 -90 -63 -137.5t-177 -47.5z" />
    <glyph glyph-name="t" unicode="t" horiz-adv-x="352" 
d="M197 0q-126 0 -126 115q0 28 5 54l46 257h-82l16 93h84l31 133h110l-23 -133h117l-16 -93h-118l-45 -257q-3 -21 -3 -34q0 -22 11.5 -30t41.5 -8h59l-16 -97h-92z" />
    <glyph glyph-name="u" unicode="u" horiz-adv-x="574" 
d="M191 -12q-143 0 -143 138q0 31 5 56l60 337h120l-59 -334q-3 -21 -3 -33q0 -58 59 -58q78 0 138 92l59 333h120l-92 -519h-102l8 67q-72 -79 -170 -79z" />
    <glyph glyph-name="v" unicode="v" horiz-adv-x="492" 
d="M136 0l-84 519h124l48 -381l182 381h125l-266 -519h-129z" />
    <glyph glyph-name="w" unicode="w" horiz-adv-x="788" 
d="M118 0l-64 519h123l32 -370l175 370h109l45 -371l163 371h125l-247 -519h-123l-44 357l-169 -357h-125z" />
    <glyph glyph-name="x" unicode="x" horiz-adv-x="492" 
d="M-49 0l222 275l-120 244h133l82 -170l130 170h140l-213 -265l125 -254h-133l-88 181l-139 -181h-139z" />
    <glyph glyph-name="y" unicode="y" horiz-adv-x="486" 
d="M-19 -182l17 97h50q27 0 41 10.5t28 37.5l28 55l-93 501h124l54 -353l170 353h125l-295 -576q-38 -75 -75 -100t-106 -25h-68z" />
    <glyph glyph-name="z" unicode="z" horiz-adv-x="470" 
d="M-18 0l14 85l310 338h-229l17 96h390l-15 -85l-311 -338h256l-17 -96h-415z" />
    <glyph glyph-name="braceleft" unicode="{" horiz-adv-x="341" 
d="M190 -118q-69 0 -101 29t-32 92q0 30 5 59l23 128q3 16 3 29q0 24 -14.5 33.5t-48.5 9.5l15 88q40 0 59.5 16.5t26.5 58.5l24 132q18 97 59.5 135t122.5 38h74l-16 -89h-41q-40 0 -60 -19.5t-29 -71.5l-21 -125q-17 -102 -92 -120v-2q52 -18 52 -84q0 -20 -4 -41
l-21 -120q-4 -23 -4 -40q0 -26 12.5 -36.5t45.5 -10.5h44l-16 -89h-66z" />
    <glyph glyph-name="bar" unicode="|" horiz-adv-x="290" 
d="M10 -226l176 1000h99l-176 -1000h-99z" />
    <glyph glyph-name="braceright" unicode="}" horiz-adv-x="341" 
d="M-48 -118l15 89h41q41 0 60.5 19.5t28.5 71.5l22 125q19 103 91 120v2q-51 17 -51 84q0 20 4 41l21 120q4 23 4 40q0 26 -13 36.5t-46 10.5h-44l16 89h67q69 0 101 -29t32 -92q0 -25 -6 -59l-23 -128q-3 -16 -3 -29q0 -24 14.5 -33.5t48.5 -9.5l-15 -88
q-40 0 -59.5 -16.5t-26.5 -58.5l-23 -132q-17 -96 -59.5 -134.5t-123.5 -38.5h-73z" />
    <glyph glyph-name="asciitilde" unicode="~" horiz-adv-x="599" 
d="M402 215q-65 0 -124 52q-41 36 -73 36q-60 0 -77 -76h-88q33 175 175 175q63 0 123 -52q41 -36 73 -36q61 0 78 76h87q-32 -175 -174 -175z" />
    <glyph glyph-name="uni00A0" unicode="&#xa0;" horiz-adv-x="251" 
 />
    <glyph glyph-name="exclamdown" unicode="&#xa1;" horiz-adv-x="301" 
d="M109 389l22 130h131l-23 -130h-130zM14 -161l35 188l67 278h87l-33 -278l-30 -188h-126z" />
    <glyph glyph-name="cent" unicode="&#xa2;" horiz-adv-x="599" 
d="M204 -72l13 76q-148 21 -148 157q0 26 5 54l17 97q34 190 217 205l13 74h93l-13 -76q143 -21 143 -150q0 -12 -4 -40h-116q2 16 2 26q0 51 -44 63l-54 -308q58 17 74 89h116q-35 -178 -208 -193l-13 -74h-93zM235 105l55 308q-65 -18 -80 -106l-17 -97q-4 -28 -4 -38
q0 -55 46 -67z" />
    <glyph glyph-name="sterling" unicode="&#xa3;" horiz-adv-x="599" 
d="M31 0l17 96q104 61 111 174h-102l18 100h73q-13 56 -13 84q0 113 69 175.5t190 62.5q197 0 197 -156q0 -21 -5 -49h-113q2 16 2 28q0 73 -90 73q-66 0 -99 -37.5t-33 -105.5q0 -23 8 -75h242l-18 -100h-218q-9 -109 -79 -164h322l-18 -106h-461z" />
    <glyph glyph-name="currency" unicode="&#xa4;" horiz-adv-x="599" 
d="M112 75l-67 67l110 111q-22 41 -22 87t22 87l-110 111l67 67l109 -111q42 24 92 24t92 -24l109 111l67 -67l-110 -111q22 -41 22 -87t-22 -87l110 -111l-67 -67l-109 111q-42 -24 -92 -24t-92 24zM313 256q37 0 60.5 24t23.5 60t-23.5 60t-60.5 24t-60.5 -24t-23.5 -60
t23.5 -60t60.5 -24z" />
    <glyph glyph-name="yen" unicode="&#xa5;" horiz-adv-x="599" 
d="M194 0l20 111h-167l14 80h167l10 59h-167l14 80h157l-149 350h132l100 -256l190 256h140l-270 -350h153l-14 -80h-166l-10 -59h166l-14 -80h-166l-20 -111h-120z" />
    <glyph glyph-name="brokenbar" unicode="&#xa6;" horiz-adv-x="290" 
d="M116 374l70 400h99l-70 -400h-99zM10 -226l71 400h99l-71 -400h-99z" />
    <glyph glyph-name="section" unicode="&#xa7;" horiz-adv-x="603" 
d="M222 -196q-102 0 -156 37.5t-54 110.5q0 18 3 37h115q-2 -16 -2 -23q0 -68 103 -68q61 0 98 22.5t37 63.5q0 31 -26 48t-105 36q-107 26 -147 60t-40 97q0 110 112 163v2q-44 36 -44 104q0 93 69 145.5t183 52.5q95 0 147 -37.5t52 -106.5q0 -16 -3 -34h-115q2 14 2 22
q0 63 -90 63q-56 0 -91 -23.5t-35 -61.5q0 -31 26 -47t104 -36q106 -26 146.5 -60t40.5 -97q0 -107 -113 -162v-2q48 -34 48 -107q0 -95 -71.5 -147t-193.5 -52zM345 154q40 12 63.5 37t23.5 58q0 30 -26.5 46.5t-104.5 37.5q-43 11 -51 14q-39 -13 -60.5 -39t-21.5 -57
q0 -32 26 -48.5t105 -36.5z" />
    <glyph glyph-name="dieresis" unicode="&#xa8;" horiz-adv-x="500" 
d="M155 602l20 113h118l-20 -113h-118zM348 602l20 113h118l-20 -113h-118z" />
    <glyph glyph-name="copyright" unicode="&#xa9;" horiz-adv-x="766" 
d="M396 -12q-153 0 -252.5 99.5t-99.5 252.5t99.5 252.5t252.5 99.5t252.5 -99.5t99.5 -252.5t-99.5 -252.5t-252.5 -99.5zM396 67q119 0 192 75t73 198t-73 198t-192 75q-120 0 -192.5 -75t-72.5 -198t72.5 -198t192.5 -75zM395 152q-74 0 -109 35.5t-35 111.5v82
q0 76 35 111.5t109 35.5q143 0 144 -138h-85q-2 35 -14.5 49t-41.5 14q-32 0 -44.5 -16.5t-12.5 -58.5v-76q0 -42 12.5 -58.5t44.5 -16.5q29 0 41.5 14t14.5 49h85q-1 -138 -144 -138z" />
    <glyph glyph-name="ordfeminine" unicode="&#xaa;" horiz-adv-x="420" 
d="M169 309q-54 0 -83 26t-29 75q0 61 42.5 95t117.5 34h97l4 21q2 8 2 14q0 42 -55 42q-66 0 -80 -46h-88q31 122 175 122q143 0 143 -107q0 -11 -3 -32l-41 -232h-81l5 41q-50 -53 -126 -53zM198 385q62 0 99 52l7 40h-78q-75 0 -75 -55q0 -37 47 -37zM20 158l14 78h322
l-14 -78h-322z" />
    <glyph glyph-name="guillemotleft" unicode="&#xab;" horiz-adv-x="522" 
d="M126 82l-107 181l164 176h132l-175 -188l100 -169h-114zM355 82l-107 181l164 176h132l-175 -188l100 -169h-114z" />
    <glyph glyph-name="logicalnot" unicode="&#xac;" horiz-adv-x="599" 
d="M419 124l37 206h-390l17 98h491l-54 -304h-101z" />
    <glyph glyph-name="uni00AD" unicode="&#xad;" horiz-adv-x="377" 
d="M30 241l19 109h310l-19 -109h-310z" />
    <glyph glyph-name="registered" unicode="&#xae;" horiz-adv-x="766" 
d="M396 -12q-153 0 -252.5 99.5t-99.5 252.5t99.5 252.5t252.5 99.5t252.5 -99.5t99.5 -252.5t-99.5 -252.5t-252.5 -99.5zM396 67q119 0 192 75t73 198t-73 198t-192 75q-120 0 -192.5 -75t-72.5 -198t72.5 -198t192.5 -75zM254 162v356h157q70 0 102.5 -27.5t32.5 -87.5
q0 -82 -64 -104l84 -137h-100l-74 127h-48v-127h-90zM344 358h56q31 0 43.5 10t12.5 33q0 25 -12 34.5t-44 9.5h-56v-87z" />
    <glyph glyph-name="macron" unicode="&#xaf;" horiz-adv-x="500" 
d="M175 616l15 86h277l-16 -86h-276z" />
    <glyph glyph-name="degree" unicode="&#xb0;" horiz-adv-x="394" 
d="M230 380q-68 0 -109.5 41t-41.5 108q0 79 54 132t133 53q68 0 109 -41t41 -108q0 -79 -53.5 -132t-132.5 -53zM234 466q38 0 65 28.5t27 68.5q0 30 -17 47.5t-47 17.5q-38 0 -65 -28.5t-27 -67.5q0 -31 17 -48.5t47 -17.5z" />
    <glyph glyph-name="plusminus" unicode="&#xb1;" horiz-adv-x="599" 
d="M229 146l30 168h-195l17 99h195l32 180h101l-32 -180h195l-17 -99h-195l-30 -168h-101zM8 0l18 98h491l-18 -98h-491z" />
    <glyph glyph-name="uni00B2" unicode="&#xb2;" 
d="M63 416l8 47q10 56 46.5 95t107.5 68q92 38 92 84q0 35 -44 35q-60 0 -70 -59l-1 -6h-85l3 19q19 123 159 123q128 0 128 -106q0 -53 -36.5 -91.5t-116.5 -73.5q-42 -18 -60.5 -30t-24.5 -26h200l-13 -79h-293z" />
    <glyph glyph-name="uni00B3" unicode="&#xb3;" 
d="M215 404q-65 0 -99.5 25.5t-34.5 69.5q0 17 2 26l2 12h86l-1 -6q-1 -6 -1 -10q0 -40 49 -40q36 0 55 17t19 44q0 20 -13 28t-44 8h-45l13 74h40q32 0 51.5 15.5t19.5 41.5q0 36 -43 36q-28 0 -45.5 -12.5t-21.5 -34.5l-1 -6h-85l3 15q21 115 156 115q128 0 128 -102
q0 -75 -67 -100v-2q45 -20 45 -80q0 -62 -44.5 -98t-123.5 -36z" />
    <glyph glyph-name="acute" unicode="&#xb4;" horiz-adv-x="500" 
d="M220 592l136 136h143l-162 -136h-117z" />
    <glyph glyph-name="uni00B5" unicode="&#xb5;" horiz-adv-x="580" 
d="M-5 -182l124 701h120l-58 -332q-4 -20 -4 -35q0 -31 14 -44.5t44 -13.5q79 0 140 95l58 330h120l-92 -519h-102l8 67q-71 -79 -164 -79q-33 0 -57 9l-31 -179h-120z" />
    <glyph glyph-name="paragraph" unicode="&#xb6;" horiz-adv-x="603" 
d="M136 -183l80 456q-84 4 -121 42.5t-37 119.5q0 118 64 181.5t183 63.5h281l-152 -863h-105l136 770h-88l-136 -770h-105z" />
    <glyph glyph-name="periodcentered" unicode="&#xb7;" horiz-adv-x="286" 
d="M73 230l23 130h131l-23 -130h-131z" />
    <glyph glyph-name="cedilla" unicode="&#xb8;" horiz-adv-x="500" 
d="M153 -207q-67 0 -112 22l29 51q31 -16 62 -16q54 0 54 32q0 11 -10.5 14.5t-40.5 3.5h-24l65 115h62l-40 -71q90 -1 90 -67q0 -84 -135 -84z" />
    <glyph glyph-name="uni00B9" unicode="&#xb9;" 
d="M99 416l13 77h91l37 209q-38 -12 -105 -12l12 69q77 3 117 51h86l-56 -317h88l-13 -77h-270z" />
    <glyph glyph-name="ordmasculine" unicode="&#xba;" horiz-adv-x="414" 
d="M223 309q-147 0 -147 121q0 22 4 42l11 62q14 81 58.5 119.5t125.5 38.5q147 0 147 -122q0 -21 -4 -41l-11 -63q-14 -81 -58.5 -119t-125.5 -38zM226 386q72 0 87 83l12 65q3 16 3 29q0 52 -56 52q-72 0 -87 -83l-12 -66q-3 -15 -3 -28q0 -52 56 -52zM27 158l14 78h322
l-14 -78h-322z" />
    <glyph glyph-name="guillemotright" unicode="&#xbb;" horiz-adv-x="522" 
d="M-22 80l176 188l-101 169h114l108 -181l-164 -176h-133zM207 80l176 188l-101 169h114l108 -181l-164 -176h-133z" />
    <glyph glyph-name="onequarter" unicode="&#xbc;" horiz-adv-x="843" 
d="M179 -12l490 704h92l-490 -704h-92zM76 286l13 77h91l37 209q-38 -12 -105 -12l12 69q77 3 117 51h86l-56 -317h88l-13 -77h-270zM644 0l15 83h-188l13 79l224 232h96l-42 -238h44l-14 -73h-42l-15 -83h-91zM572 156h99l23 130z" />
    <glyph glyph-name="onehalf" unicode="&#xbd;" horiz-adv-x="843" 
d="M144 -12l490 704h92l-490 -704h-92zM76 286l13 77h91l37 209q-38 -12 -105 -12l12 69q77 3 117 51h86l-56 -317h88l-13 -77h-270zM467 0l8 47q10 56 46.5 95t107.5 68q92 38 92 84q0 35 -44 35q-60 0 -70 -59l-1 -6h-85l3 19q19 123 159 123q128 0 128 -106
q0 -53 -36.5 -91.5t-116.5 -73.5q-42 -18 -60.5 -30t-24.5 -26h200l-13 -79h-293z" />
    <glyph glyph-name="threequarters" unicode="&#xbe;" horiz-adv-x="843" 
d="M192 274q-65 0 -99.5 25.5t-34.5 69.5q0 17 2 26l2 12h86l-1 -6q-1 -6 -1 -10q0 -40 49 -40q36 0 55 17t19 44q0 20 -13 28t-44 8h-45l13 74h40q32 0 51.5 15.5t19.5 41.5q0 36 -43 36q-28 0 -45.5 -12.5t-21.5 -34.5l-1 -6h-85l3 15q21 115 156 115q128 0 128 -102
q0 -75 -67 -100v-2q45 -20 45 -80q0 -62 -44.5 -98t-123.5 -36zM179 -12l490 704h92l-490 -704h-92zM644 0l15 83h-188l13 79l224 232h96l-42 -238h44l-14 -73h-42l-15 -83h-91zM572 156h99l23 130z" />
    <glyph glyph-name="questiondown" unicode="&#xbf;" horiz-adv-x="453" 
d="M205 389l22 130h130l-22 -130h-130zM161 -173q-89 0 -137.5 38t-48.5 107q0 67 29.5 112.5t97.5 86.5q47 28 68 53.5t29 61.5l4 19h104l-6 -30q-12 -60 -39 -98.5t-84 -73.5q-46 -28 -64 -53.5t-18 -61.5q0 -58 73 -58q99 0 116 103h114q-36 -206 -238 -206z" />
    <glyph glyph-name="Agrave" unicode="&#xc0;" horiz-adv-x="610" 
d="M369 746l-113 136h131l87 -136h-105zM-41 0l357 680h125l118 -680h-126l-25 154h-241l-80 -154h-128zM218 259h175l-38 279z" />
    <glyph glyph-name="Aacute" unicode="&#xc1;" horiz-adv-x="610" 
d="M303 746l136 136h143l-162 -136h-117zM-41 0l357 680h125l118 -680h-126l-25 154h-241l-80 -154h-128zM218 259h175l-38 279z" />
    <glyph glyph-name="Acircumflex" unicode="&#xc2;" horiz-adv-x="610" 
d="M216 746l142 136h113l93 -136h-105l-52 62l-75 -62h-116zM-41 0l357 680h125l118 -680h-126l-25 154h-241l-80 -154h-128zM218 259h175l-38 279z" />
    <glyph glyph-name="Atilde" unicode="&#xc3;" horiz-adv-x="610" 
d="M460 745q-33 0 -74 28q-24 17 -38 17q-29 0 -41 -42h-74q26 129 114 129q39 0 74 -27q22 -17 38 -17q29 0 41 41h74q-26 -129 -114 -129zM-41 0l357 680h125l118 -680h-126l-25 154h-241l-80 -154h-128zM218 259h175l-38 279z" />
    <glyph glyph-name="Adieresis" unicode="&#xc4;" horiz-adv-x="610" 
d="M238 756l20 113h118l-20 -113h-118zM431 756l20 113h118l-20 -113h-118zM-41 0l357 680h125l118 -680h-126l-25 154h-241l-80 -154h-128zM218 259h175l-38 279z" />
    <glyph glyph-name="Aring" unicode="&#xc5;" horiz-adv-x="610" 
d="M396 728q-47 0 -77 28.5t-30 73.5q0 50 36 84.5t88 34.5q47 0 77 -28.5t30 -73.5q0 -51 -35.5 -85t-88.5 -34zM399 795q20 0 33.5 15t13.5 37q0 35 -36 35q-19 0 -32.5 -15t-13.5 -37q0 -16 9.5 -25.5t25.5 -9.5zM-41 0l357 680h125l118 -680h-126l-25 154h-241l-80 -154
h-128zM218 259h175l-38 279z" />
    <glyph glyph-name="AE" unicode="&#xc6;" horiz-adv-x="900" 
d="M-64 0l510 680h481l-19 -107h-308l-31 -174h258l-18 -106h-258l-33 -186h318l-18 -107h-441l27 154h-216l-116 -154h-136zM264 259h159l52 296z" />
    <glyph glyph-name="Ccedilla" unicode="&#xc7;" horiz-adv-x="615" 
d="M604 445h-118q3 21 3 39q0 52 -27 76.5t-85 24.5q-74 0 -115 -40.5t-56 -129.5l-26 -153q-6 -35 -6 -62q0 -55 27 -80t85 -25q68 0 107 34t55 105h118q-25 -120 -89.5 -179.5t-173.5 -65.5l-25 -45q90 -1 90 -67q0 -84 -135 -84q-67 0 -112 22l29 51q31 -16 62 -16
q54 0 54 32q0 11 -10.5 14.5t-40.5 3.5h-24l50 89q-191 15 -191 196q0 35 8 80l28 158q24 137 96.5 203t202.5 66q223 0 223 -187q0 -33 -4 -60z" />
    <glyph glyph-name="Egrave" unicode="&#xc8;" horiz-adv-x="585" 
d="M374 746l-113 136h131l87 -136h-105zM37 0l120 680h456l-18 -107h-335l-30 -173h283l-18 -106h-284l-33 -187h344l-19 -107h-466z" />
    <glyph glyph-name="Eacute" unicode="&#xc9;" horiz-adv-x="585" 
d="M308 746l136 136h143l-162 -136h-117zM37 0l120 680h456l-18 -107h-335l-30 -173h283l-18 -106h-284l-33 -187h344l-19 -107h-466z" />
    <glyph glyph-name="Ecircumflex" unicode="&#xca;" horiz-adv-x="585" 
d="M221 746l142 136h113l93 -136h-105l-52 62l-75 -62h-116zM37 0l120 680h456l-18 -107h-335l-30 -173h283l-18 -106h-284l-33 -187h344l-19 -107h-466z" />
    <glyph glyph-name="Edieresis" unicode="&#xcb;" horiz-adv-x="585" 
d="M243 756l20 113h118l-20 -113h-118zM436 756l20 113h118l-20 -113h-118zM37 0l120 680h456l-18 -107h-335l-30 -173h283l-18 -106h-284l-33 -187h344l-19 -107h-466z" />
    <glyph glyph-name="Igrave" unicode="&#xcc;" horiz-adv-x="288" 
d="M207 746l-113 136h131l87 -136h-105zM37 0l120 680h122l-120 -680h-122z" />
    <glyph glyph-name="Iacute" unicode="&#xcd;" horiz-adv-x="288" 
d="M141 746l136 136h143l-162 -136h-117zM37 0l120 680h122l-120 -680h-122z" />
    <glyph glyph-name="Icircumflex" unicode="&#xce;" horiz-adv-x="288" 
d="M61 746l134 136h114l85 -136h-101l-48 63l-71 -63h-113zM37 0l120 680h122l-120 -680h-122z" />
    <glyph glyph-name="Idieresis" unicode="&#xcf;" horiz-adv-x="288" 
d="M89 756l20 113h116l-20 -113h-116zM258 756l20 113h116l-20 -113h-116zM37 0l120 680h122l-120 -680h-122z" />
    <glyph glyph-name="Eth" unicode="&#xd0;" horiz-adv-x="655" 
d="M407 680q226 0 226 -189q0 -35 -8 -81l-26 -150q-24 -137 -95.5 -198.5t-207.5 -61.5h-249l52 294h-68l18 106h69l49 280h240zM503 413q6 40 6 59q0 54 -30.5 77.5t-99.5 23.5h-109l-30 -173h132l-18 -106h-133l-33 -187h106q84 0 127 38t57 123z" />
    <glyph glyph-name="Ntilde" unicode="&#xd1;" horiz-adv-x="686" 
d="M497 745q-33 0 -74 28q-24 17 -38 17q-29 0 -41 -42h-74q26 129 114 129q39 0 74 -27q22 -17 38 -17q29 0 41 41h74q-26 -129 -114 -129zM37 0l120 680h130l189 -484l85 484h116l-120 -680h-116l-198 509l-90 -509h-116z" />
    <glyph glyph-name="Ograve" unicode="&#xd2;" horiz-adv-x="654" 
d="M389 746l-113 136h131l87 -136h-105zM285 -12q-234 0 -234 200q0 41 7 77l28 158q24 137 99.5 203t211.5 66q234 0 234 -200q0 -41 -7 -77l-28 -158q-24 -137 -99.5 -203t-211.5 -66zM295 95q78 0 121.5 40t58.5 127l27 156q6 35 6 59q0 56 -29.5 82t-92.5 26
q-78 0 -121.5 -40t-58.5 -127l-27 -156q-6 -35 -6 -59q0 -56 29.5 -82t92.5 -26z" />
    <glyph glyph-name="Oacute" unicode="&#xd3;" horiz-adv-x="654" 
d="M323 746l136 136h143l-162 -136h-117zM285 -12q-234 0 -234 200q0 41 7 77l28 158q24 137 99.5 203t211.5 66q234 0 234 -200q0 -41 -7 -77l-28 -158q-24 -137 -99.5 -203t-211.5 -66zM295 95q78 0 121.5 40t58.5 127l27 156q6 35 6 59q0 56 -29.5 82t-92.5 26
q-78 0 -121.5 -40t-58.5 -127l-27 -156q-6 -35 -6 -59q0 -56 29.5 -82t92.5 -26z" />
    <glyph glyph-name="Ocircumflex" unicode="&#xd4;" horiz-adv-x="654" 
d="M236 746l142 136h113l93 -136h-105l-52 62l-75 -62h-116zM285 -12q-234 0 -234 200q0 41 7 77l28 158q24 137 99.5 203t211.5 66q234 0 234 -200q0 -41 -7 -77l-28 -158q-24 -137 -99.5 -203t-211.5 -66zM295 95q78 0 121.5 40t58.5 127l27 156q6 35 6 59q0 56 -29.5 82
t-92.5 26q-78 0 -121.5 -40t-58.5 -127l-27 -156q-6 -35 -6 -59q0 -56 29.5 -82t92.5 -26z" />
    <glyph glyph-name="Otilde" unicode="&#xd5;" horiz-adv-x="654" 
d="M480 745q-33 0 -74 28q-24 17 -38 17q-29 0 -41 -42h-74q26 129 114 129q39 0 74 -27q22 -17 38 -17q29 0 41 41h74q-26 -129 -114 -129zM285 -12q-234 0 -234 200q0 41 7 77l28 158q24 137 99.5 203t211.5 66q234 0 234 -200q0 -41 -7 -77l-28 -158q-24 -137 -99.5 -203
t-211.5 -66zM295 95q78 0 121.5 40t58.5 127l27 156q6 35 6 59q0 56 -29.5 82t-92.5 26q-78 0 -121.5 -40t-58.5 -127l-27 -156q-6 -35 -6 -59q0 -56 29.5 -82t92.5 -26z" />
    <glyph glyph-name="Odieresis" unicode="&#xd6;" horiz-adv-x="654" 
d="M258 756l20 113h118l-20 -113h-118zM451 756l20 113h118l-20 -113h-118zM285 -12q-234 0 -234 200q0 41 7 77l28 158q24 137 99.5 203t211.5 66q234 0 234 -200q0 -41 -7 -77l-28 -158q-24 -137 -99.5 -203t-211.5 -66zM295 95q78 0 121.5 40t58.5 127l27 156q6 35 6 59
q0 56 -29.5 82t-92.5 26q-78 0 -121.5 -40t-58.5 -127l-27 -156q-6 -35 -6 -59q0 -56 29.5 -82t92.5 -26z" />
    <glyph glyph-name="multiply" unicode="&#xd7;" horiz-adv-x="599" 
d="M94 60l-65 76l208 178l-145 178l81 66l143 -176l205 176l66 -76l-208 -178l145 -178l-81 -66l-143 176z" />
    <glyph glyph-name="Oslash" unicode="&#xd8;" horiz-adv-x="653" 
d="M662 631l-46 -51q15 -38 15 -88q0 -41 -7 -77l-28 -158q-24 -137 -99.5 -203t-211.5 -66q-105 0 -163 40l-35 -40l-67 61l46 51q-15 38 -15 88q0 41 7 77l28 158q24 137 99.5 203t211.5 66q105 0 163 -40l35 40zM179 262q-3 -14 -5 -41l303 339q-29 25 -91 25
q-78 0 -121.5 -40t-58.5 -127zM502 418q3 14 5 40l-303 -339q30 -24 91 -24q78 0 121.5 40t58.5 127z" />
    <glyph glyph-name="Ugrave" unicode="&#xd9;" horiz-adv-x="636" 
d="M381 746l-113 136h131l87 -136h-105zM279 -12q-115 0 -169 41.5t-54 130.5q0 31 7 70l79 450h122l-79 -453q-5 -32 -5 -45q0 -48 25.5 -67.5t82.5 -19.5q72 0 108 31t49 104l80 450h118l-81 -459q-22 -123 -87.5 -178t-195.5 -55z" />
    <glyph glyph-name="Uacute" unicode="&#xda;" horiz-adv-x="636" 
d="M315 746l136 136h143l-162 -136h-117zM279 -12q-115 0 -169 41.5t-54 130.5q0 31 7 70l79 450h122l-79 -453q-5 -32 -5 -45q0 -48 25.5 -67.5t82.5 -19.5q72 0 108 31t49 104l80 450h118l-81 -459q-22 -123 -87.5 -178t-195.5 -55z" />
    <glyph glyph-name="Ucircumflex" unicode="&#xdb;" horiz-adv-x="636" 
d="M228 746l142 136h113l93 -136h-105l-52 62l-75 -62h-116zM279 -12q-115 0 -169 41.5t-54 130.5q0 31 7 70l79 450h122l-79 -453q-5 -32 -5 -45q0 -48 25.5 -67.5t82.5 -19.5q72 0 108 31t49 104l80 450h118l-81 -459q-22 -123 -87.5 -178t-195.5 -55z" />
    <glyph glyph-name="Udieresis" unicode="&#xdc;" horiz-adv-x="636" 
d="M250 756l20 113h118l-20 -113h-118zM443 756l20 113h118l-20 -113h-118zM279 -12q-115 0 -169 41.5t-54 130.5q0 31 7 70l79 450h122l-79 -453q-5 -32 -5 -45q0 -48 25.5 -67.5t82.5 -19.5q72 0 108 31t49 104l80 450h118l-81 -459q-22 -123 -87.5 -178t-195.5 -55z" />
    <glyph glyph-name="Yacute" unicode="&#xdd;" horiz-adv-x="546" 
d="M270 746l136 136h143l-162 -136h-117zM166 0l51 287l-162 393h133l109 -271l203 271h138l-299 -393l-51 -287h-122z" />
    <glyph glyph-name="Thorn" unicode="&#xde;" horiz-adv-x="607" 
d="M37 0l120 680h122l-17 -97h137q112 0 159.5 -40.5t47.5 -135.5q0 -123 -70.5 -188.5t-204.5 -65.5h-145l-27 -153h-122zM205 259h130q72 0 110 35t38 99q0 47 -23.5 65t-83.5 18h-133z" />
    <glyph glyph-name="germandbls" unicode="&#xdf;" horiz-adv-x="598" 
d="M51 0l75 426h-86l16 93h87l7 41q33 182 229 182q181 0 181 -137q0 -85 -85 -158q-29 -25 -39.5 -40.5t-10.5 -32.5q0 -16 10.5 -27.5t39.5 -27.5q49 -26 66 -51.5t17 -71.5q0 -92 -63 -144t-179 -52h-65l16 97h61q51 0 79.5 20.5t28.5 56.5q0 21 -11.5 34.5t-44.5 31.5
q-43 24 -59 47t-16 61q0 80 80 154q56 52 56 91q0 53 -66 53q-89 0 -106 -92l-98 -554h-120z" />
    <glyph glyph-name="agrave" unicode="&#xe0;" horiz-adv-x="541" 
d="M300 592l-113 136h131l87 -136h-105zM166 -12q-72 0 -111 35t-39 104q0 90 63 138.5t174 48.5h114l4 24q3 15 3 29q0 33 -17.5 50t-60.5 17q-92 0 -110 -75h-116q22 89 79.5 130.5t157.5 41.5q97 0 142.5 -37t45.5 -112q0 -25 -4 -48l-59 -334h-102l7 61
q-70 -73 -171 -73zM202 85q83 0 138 80l12 63h-94q-121 0 -121 -87q0 -56 65 -56z" />
    <glyph glyph-name="aacute" unicode="&#xe1;" horiz-adv-x="541" 
d="M234 592l136 136h143l-162 -136h-117zM166 -12q-72 0 -111 35t-39 104q0 90 63 138.5t174 48.5h114l4 24q3 15 3 29q0 33 -17.5 50t-60.5 17q-92 0 -110 -75h-116q22 89 79.5 130.5t157.5 41.5q97 0 142.5 -37t45.5 -112q0 -25 -4 -48l-59 -334h-102l7 61
q-70 -73 -171 -73zM202 85q83 0 138 80l12 63h-94q-121 0 -121 -87q0 -56 65 -56z" />
    <glyph glyph-name="acircumflex" unicode="&#xe2;" horiz-adv-x="541" 
d="M147 592l142 136h113l93 -136h-105l-52 62l-75 -62h-116zM166 -12q-72 0 -111 35t-39 104q0 90 63 138.5t174 48.5h114l4 24q3 15 3 29q0 33 -17.5 50t-60.5 17q-92 0 -110 -75h-116q22 89 79.5 130.5t157.5 41.5q97 0 142.5 -37t45.5 -112q0 -25 -4 -48l-59 -334h-102
l7 61q-70 -73 -171 -73zM202 85q83 0 138 80l12 63h-94q-121 0 -121 -87q0 -56 65 -56z" />
    <glyph glyph-name="atilde" unicode="&#xe3;" horiz-adv-x="541" 
d="M391 591q-33 0 -74 28q-24 17 -38 17q-29 0 -41 -42h-74q26 129 114 129q39 0 74 -27q22 -17 38 -17q29 0 41 41h74q-26 -129 -114 -129zM166 -12q-72 0 -111 35t-39 104q0 90 63 138.5t174 48.5h114l4 24q3 15 3 29q0 33 -17.5 50t-60.5 17q-92 0 -110 -75h-116
q22 89 79.5 130.5t157.5 41.5q97 0 142.5 -37t45.5 -112q0 -25 -4 -48l-59 -334h-102l7 61q-70 -73 -171 -73zM202 85q83 0 138 80l12 63h-94q-121 0 -121 -87q0 -56 65 -56z" />
    <glyph glyph-name="adieresis" unicode="&#xe4;" horiz-adv-x="541" 
d="M169 602l20 113h118l-20 -113h-118zM362 602l20 113h118l-20 -113h-118zM166 -12q-72 0 -111 35t-39 104q0 90 63 138.5t174 48.5h114l4 24q3 15 3 29q0 33 -17.5 50t-60.5 17q-92 0 -110 -75h-116q22 89 79.5 130.5t157.5 41.5q97 0 142.5 -37t45.5 -112q0 -25 -4 -48
l-59 -334h-102l7 61q-70 -73 -171 -73zM202 85q83 0 138 80l12 63h-94q-121 0 -121 -87q0 -56 65 -56z" />
    <glyph glyph-name="aring" unicode="&#xe5;" horiz-adv-x="541" 
d="M327 574q-47 0 -77 28.5t-30 73.5q0 50 36 84.5t88 34.5q47 0 77 -28.5t30 -73.5q0 -51 -35.5 -85t-88.5 -34zM330 641q20 0 33.5 15t13.5 37q0 35 -36 35q-19 0 -32.5 -15t-13.5 -37q0 -16 9.5 -25.5t25.5 -9.5zM166 -12q-72 0 -111 35t-39 104q0 90 63 138.5t174 48.5
h114l4 24q3 15 3 29q0 33 -17.5 50t-60.5 17q-92 0 -110 -75h-116q22 89 79.5 130.5t157.5 41.5q97 0 142.5 -37t45.5 -112q0 -25 -4 -48l-59 -334h-102l7 61q-70 -73 -171 -73zM202 85q83 0 138 80l12 63h-94q-121 0 -121 -87q0 -56 65 -56z" />
    <glyph glyph-name="ae" unicode="&#xe6;" horiz-adv-x="858" 
d="M173 -12q-157 0 -157 138q0 90 63.5 139t173.5 49h114l4 23q3 15 3 29q0 34 -17.5 51t-59.5 17q-93 0 -111 -75h-116q41 172 227 172q127 0 159 -78q56 78 178 78q92 0 140.5 -42.5t48.5 -123.5q0 -31 -5 -59l-15 -82h-331l-4 -20q-3 -18 -3 -34q0 -43 21 -64t70 -21
q96 0 117 72h115q-39 -169 -239 -169q-143 0 -186 83q-76 -83 -190 -83zM488 313h217q4 23 4 44q0 77 -89 77q-57 0 -89 -29.5t-43 -91.5zM203 85q87 0 142 87q0 19 5 42l3 14h-95q-121 0 -121 -87q0 -56 66 -56z" />
    <glyph glyph-name="ccedilla" unicode="&#xe7;" horiz-adv-x="521" 
d="M499 330h-115q2 9 2 26q0 39 -19 57t-60 18q-106 0 -128 -122l-18 -102q-4 -28 -4 -42q0 -77 83 -77q95 0 120 102h115q-36 -190 -219 -201l-25 -45q90 -1 90 -67q0 -84 -135 -84q-67 0 -112 22l29 51q31 -16 62 -16q54 0 54 32q0 11 -10.5 14.5t-40.5 3.5h-24l51 90
q-159 15 -159 164q0 27 6 60l18 102q38 215 252 215q94 0 142.5 -40.5t48.5 -118.5q0 -22 -4 -42z" />
    <glyph glyph-name="egrave" unicode="&#xe8;" horiz-adv-x="550" 
d="M309 592l-113 136h131l87 -136h-105zM241 -12q-204 0 -204 170q0 27 5 56l18 102q18 105 82.5 160t173.5 55q97 0 148 -43.5t51 -127.5q0 -21 -5 -53l-15 -83h-331l-4 -22q-3 -18 -3 -32q0 -43 20.5 -64t69.5 -21q97 0 118 72h115q-39 -169 -239 -169zM180 313h217
q4 23 4 44q0 77 -89 77q-57 0 -89 -29.5t-43 -91.5z" />
    <glyph glyph-name="eacute" unicode="&#xe9;" horiz-adv-x="550" 
d="M243 592l136 136h143l-162 -136h-117zM241 -12q-204 0 -204 170q0 27 5 56l18 102q18 105 82.5 160t173.5 55q97 0 148 -43.5t51 -127.5q0 -21 -5 -53l-15 -83h-331l-4 -22q-3 -18 -3 -32q0 -43 20.5 -64t69.5 -21q97 0 118 72h115q-39 -169 -239 -169zM180 313h217
q4 23 4 44q0 77 -89 77q-57 0 -89 -29.5t-43 -91.5z" />
    <glyph glyph-name="ecircumflex" unicode="&#xea;" horiz-adv-x="550" 
d="M156 592l142 136h113l93 -136h-105l-52 62l-75 -62h-116zM241 -12q-204 0 -204 170q0 27 5 56l18 102q18 105 82.5 160t173.5 55q97 0 148 -43.5t51 -127.5q0 -21 -5 -53l-15 -83h-331l-4 -22q-3 -18 -3 -32q0 -43 20.5 -64t69.5 -21q97 0 118 72h115q-39 -169 -239 -169
zM180 313h217q4 23 4 44q0 77 -89 77q-57 0 -89 -29.5t-43 -91.5z" />
    <glyph glyph-name="edieresis" unicode="&#xeb;" horiz-adv-x="550" 
d="M178 602l20 113h118l-20 -113h-118zM371 602l20 113h118l-20 -113h-118zM241 -12q-204 0 -204 170q0 27 5 56l18 102q18 105 82.5 160t173.5 55q97 0 148 -43.5t51 -127.5q0 -21 -5 -53l-15 -83h-331l-4 -22q-3 -18 -3 -32q0 -43 20.5 -64t69.5 -21q97 0 118 72h115
q-39 -169 -239 -169zM180 313h217q4 23 4 44q0 77 -89 77q-57 0 -89 -29.5t-43 -91.5z" />
    <glyph glyph-name="igrave" unicode="&#xec;" horiz-adv-x="266" 
d="M168 592l-113 136h131l87 -136h-105zM27 0l92 519h120l-92 -519h-120z" />
    <glyph glyph-name="iacute" unicode="&#xed;" horiz-adv-x="266" 
d="M102 592l136 136h143l-162 -136h-117zM27 0l92 519h120l-92 -519h-120z" />
    <glyph glyph-name="icircumflex" unicode="&#xee;" horiz-adv-x="266" 
d="M22 592l134 136h114l85 -136h-101l-48 63l-71 -63h-113zM27 0l92 519h120l-92 -519h-120z" />
    <glyph glyph-name="idieresis" unicode="&#xef;" horiz-adv-x="266" 
d="M50 602l20 113h116l-20 -113h-116zM219 602l20 113h116l-20 -113h-116zM27 0l92 519h120l-92 -519h-120z" />
    <glyph glyph-name="eth" unicode="&#xf0;" horiz-adv-x="558" 
d="M239 -12q-204 0 -204 171q0 33 5 58l11 60q40 214 214 214q95 0 138 -72q-13 81 -58 151l-143 -51l-26 73l121 43q-47 55 -106 95h151q40 -33 61 -56l99 35l27 -73l-76 -27q68 -110 68 -237q0 -45 -7 -84l-14 -78q-39 -222 -261 -222zM245 88q59 0 92 32t45 99l13 75
q-5 45 -31 71t-72 26q-98 0 -122 -124l-10 -52q-4 -23 -4 -45q0 -43 21.5 -62.5t67.5 -19.5z" />
    <glyph glyph-name="ntilde" unicode="&#xf1;" horiz-adv-x="570" 
d="M412 591q-33 0 -74 28q-24 17 -38 17q-29 0 -41 -42h-74q26 129 114 129q39 0 74 -27q22 -17 38 -17q29 0 41 41h74q-26 -129 -114 -129zM27 0l92 519h102l-8 -66q71 78 168 78q69 0 105 -35t36 -101q0 -30 -5 -58l-60 -337h-120l59 332q3 20 3 35q0 58 -57 58
q-76 0 -136 -90l-59 -335h-120z" />
    <glyph glyph-name="ograve" unicode="&#xf2;" horiz-adv-x="562" 
d="M317 592l-113 136h131l87 -136h-105zM241 -12q-203 0 -203 173q0 28 5 57l17 90q22 114 86.5 168.5t175.5 54.5q203 0 203 -173q0 -22 -6 -56l-16 -91q-40 -223 -262 -223zM249 88q113 0 135 130l15 86q5 28 5 43q0 84 -90 84q-58 0 -90.5 -32t-44.5 -98l-16 -86
q-4 -23 -4 -43q0 -84 90 -84z" />
    <glyph glyph-name="oacute" unicode="&#xf3;" horiz-adv-x="562" 
d="M251 592l136 136h143l-162 -136h-117zM241 -12q-203 0 -203 173q0 28 5 57l17 90q22 114 86.5 168.5t175.5 54.5q203 0 203 -173q0 -22 -6 -56l-16 -91q-40 -223 -262 -223zM249 88q113 0 135 130l15 86q5 28 5 43q0 84 -90 84q-58 0 -90.5 -32t-44.5 -98l-16 -86
q-4 -23 -4 -43q0 -84 90 -84z" />
    <glyph glyph-name="ocircumflex" unicode="&#xf4;" horiz-adv-x="562" 
d="M164 592l142 136h113l93 -136h-105l-52 62l-75 -62h-116zM241 -12q-203 0 -203 173q0 28 5 57l17 90q22 114 86.5 168.5t175.5 54.5q203 0 203 -173q0 -22 -6 -56l-16 -91q-40 -223 -262 -223zM249 88q113 0 135 130l15 86q5 28 5 43q0 84 -90 84q-58 0 -90.5 -32
t-44.5 -98l-16 -86q-4 -23 -4 -43q0 -84 90 -84z" />
    <glyph glyph-name="otilde" unicode="&#xf5;" horiz-adv-x="562" 
d="M408 591q-33 0 -74 28q-24 17 -38 17q-29 0 -41 -42h-74q26 129 114 129q39 0 74 -27q22 -17 38 -17q29 0 41 41h74q-26 -129 -114 -129zM241 -12q-203 0 -203 173q0 28 5 57l17 90q22 114 86.5 168.5t175.5 54.5q203 0 203 -173q0 -22 -6 -56l-16 -91
q-40 -223 -262 -223zM249 88q113 0 135 130l15 86q5 28 5 43q0 84 -90 84q-58 0 -90.5 -32t-44.5 -98l-16 -86q-4 -23 -4 -43q0 -84 90 -84z" />
    <glyph glyph-name="odieresis" unicode="&#xf6;" horiz-adv-x="562" 
d="M186 602l20 113h118l-20 -113h-118zM379 602l20 113h118l-20 -113h-118zM241 -12q-203 0 -203 173q0 28 5 57l17 90q22 114 86.5 168.5t175.5 54.5q203 0 203 -173q0 -22 -6 -56l-16 -91q-40 -223 -262 -223zM249 88q113 0 135 130l15 86q5 28 5 43q0 84 -90 84
q-58 0 -90.5 -32t-44.5 -98l-16 -86q-4 -23 -4 -43q0 -84 90 -84z" />
    <glyph glyph-name="divide" unicode="&#xf7;" horiz-adv-x="599" 
d="M270 461l21 117h130l-21 -117h-130zM54 260l18 98h491l-18 -98h-491zM196 40l21 117h130l-21 -117h-130z" />
    <glyph glyph-name="oslash" unicode="&#xf8;" horiz-adv-x="562" 
d="M549 473l-37 -38q13 -36 13 -77q0 -22 -6 -56l-16 -91q-40 -223 -262 -223q-87 0 -137 32l-32 -32l-59 58l38 39q-13 32 -13 76q0 28 5 57l17 90q22 114 86.5 168.5t175.5 54.5q86 0 136 -32l32 32zM163 215l-3 -19l216 219q-20 16 -62 16q-58 0 -90.5 -32t-44.5 -98z
M399 304l3 20l-216 -220q22 -16 63 -16q113 0 135 130z" />
    <glyph glyph-name="ugrave" unicode="&#xf9;" horiz-adv-x="574" 
d="M320 592l-113 136h131l87 -136h-105zM191 -12q-143 0 -143 138q0 31 5 56l60 337h120l-59 -334q-3 -21 -3 -33q0 -58 59 -58q78 0 138 92l59 333h120l-92 -519h-102l8 67q-72 -79 -170 -79z" />
    <glyph glyph-name="uacute" unicode="&#xfa;" horiz-adv-x="574" 
d="M254 592l136 136h143l-162 -136h-117zM191 -12q-143 0 -143 138q0 31 5 56l60 337h120l-59 -334q-3 -21 -3 -33q0 -58 59 -58q78 0 138 92l59 333h120l-92 -519h-102l8 67q-72 -79 -170 -79z" />
    <glyph glyph-name="ucircumflex" unicode="&#xfb;" horiz-adv-x="574" 
d="M167 592l142 136h113l93 -136h-105l-52 62l-75 -62h-116zM191 -12q-143 0 -143 138q0 31 5 56l60 337h120l-59 -334q-3 -21 -3 -33q0 -58 59 -58q78 0 138 92l59 333h120l-92 -519h-102l8 67q-72 -79 -170 -79z" />
    <glyph glyph-name="udieresis" unicode="&#xfc;" horiz-adv-x="574" 
d="M189 602l20 113h118l-20 -113h-118zM382 602l20 113h118l-20 -113h-118zM191 -12q-143 0 -143 138q0 31 5 56l60 337h120l-59 -334q-3 -21 -3 -33q0 -58 59 -58q78 0 138 92l59 333h120l-92 -519h-102l8 67q-72 -79 -170 -79z" />
    <glyph glyph-name="yacute" unicode="&#xfd;" horiz-adv-x="486" 
d="M212 592l136 136h143l-162 -136h-117zM-19 -182l17 97h50q27 0 41 10.5t28 37.5l28 55l-93 501h124l54 -353l170 353h125l-295 -576q-38 -75 -75 -100t-106 -25h-68z" />
    <glyph glyph-name="thorn" unicode="&#xfe;" horiz-adv-x="580" 
d="M-5 -182l161 912h120l-46 -259q64 60 153 60q78 0 120 -41t42 -118q0 -27 -6 -60l-20 -114q-38 -211 -218 -211q-97 0 -144 71l-42 -240h-120zM286 87q93 0 114 119l19 109q4 28 4 41q0 75 -73 75q-85 0 -144 -99l-27 -150q25 -95 107 -95z" />
    <glyph glyph-name="ydieresis" unicode="&#xff;" horiz-adv-x="486" 
d="M147 602l20 113h118l-20 -113h-118zM340 602l20 113h118l-20 -113h-118zM-19 -182l17 97h50q27 0 41 10.5t28 37.5l28 55l-93 501h124l54 -353l170 353h125l-295 -576q-38 -75 -75 -100t-106 -25h-68z" />
    <glyph glyph-name="Amacron" unicode="&#x100;" horiz-adv-x="610" 
d="M258 770l15 86h277l-16 -86h-276zM-41 0l357 680h125l118 -680h-126l-25 154h-241l-80 -154h-128zM218 259h175l-38 279z" />
    <glyph glyph-name="amacron" unicode="&#x101;" horiz-adv-x="541" 
d="M189 616l15 86h277l-16 -86h-276zM166 -12q-72 0 -111 35t-39 104q0 90 63 138.5t174 48.5h114l4 24q3 15 3 29q0 33 -17.5 50t-60.5 17q-92 0 -110 -75h-116q22 89 79.5 130.5t157.5 41.5q97 0 142.5 -37t45.5 -112q0 -25 -4 -48l-59 -334h-102l7 61q-70 -73 -171 -73z
M202 85q83 0 138 80l12 63h-94q-121 0 -121 -87q0 -56 65 -56z" />
    <glyph glyph-name="Abreve" unicode="&#x102;" horiz-adv-x="610" 
d="M397 740q-64 0 -99 33.5t-35 87.5q0 12 1 18h83v-10q0 -48 55 -48q65 0 80 58h85q-13 -66 -58 -102.5t-112 -36.5zM-41 0l357 680h125l118 -680h-126l-25 154h-241l-80 -154h-128zM218 259h175l-38 279z" />
    <glyph glyph-name="abreve" unicode="&#x103;" horiz-adv-x="541" 
d="M328 586q-64 0 -99 33.5t-35 87.5q0 12 1 18h83v-10q0 -48 55 -48q65 0 80 58h85q-13 -66 -58 -102.5t-112 -36.5zM166 -12q-72 0 -111 35t-39 104q0 90 63 138.5t174 48.5h114l4 24q3 15 3 29q0 33 -17.5 50t-60.5 17q-92 0 -110 -75h-116q22 89 79.5 130.5t157.5 41.5
q97 0 142.5 -37t45.5 -112q0 -25 -4 -48l-59 -334h-102l7 61q-70 -73 -171 -73zM202 85q83 0 138 80l12 63h-94q-121 0 -121 -87q0 -56 65 -56z" />
    <glyph glyph-name="Aogonek" unicode="&#x104;" horiz-adv-x="610" 
d="M449 -96q0 -28 38 -28q24 0 56 13l-15 -80q-26 -13 -69 -13q-110 0 -110 80q0 67 86 124h-2l-25 154h-241l-80 -154h-128l357 680h125l118 -680h-22q-88 -47 -88 -96zM218 259h175l-38 279z" />
    <glyph glyph-name="aogonek" unicode="&#x105;" horiz-adv-x="541" 
d="M307 531q97 0 142.5 -37t45.5 -112q0 -25 -4 -48l-59 -334h-24q-88 -47 -88 -96q0 -28 38 -28q24 0 56 13l-15 -80q-26 -13 -69 -13q-110 0 -110 80q0 76 112 140l5 45q-70 -73 -171 -73q-72 0 -111 35t-39 104q0 90 63 138.5t174 48.5h114l4 24q3 15 3 29q0 33 -17.5 50
t-60.5 17q-92 0 -110 -75h-116q22 89 79.5 130.5t157.5 41.5zM202 85q83 0 138 80l12 63h-94q-121 0 -121 -87q0 -56 65 -56z" />
    <glyph glyph-name="Cacute" unicode="&#x106;" horiz-adv-x="615" 
d="M312 746l136 136h143l-162 -136h-117zM276 -12q-226 0 -226 197q0 35 8 80l28 158q24 137 96.5 203t202.5 66q223 0 223 -187q0 -33 -4 -60h-118q3 21 3 39q0 52 -27 76.5t-85 24.5q-74 0 -115 -40.5t-56 -129.5l-26 -153q-6 -35 -6 -62q0 -55 27 -80t85 -25q68 0 107 34
t55 105h118q-26 -127 -97 -186.5t-193 -59.5z" />
    <glyph glyph-name="cacute" unicode="&#x107;" horiz-adv-x="521" 
d="M239 592l136 136h143l-162 -136h-117zM232 -12q-96 0 -146 42.5t-50 123.5q0 27 6 60l18 102q38 215 252 215q94 0 142.5 -40.5t48.5 -118.5q0 -22 -4 -42h-115q2 9 2 26q0 39 -19 57t-60 18q-106 0 -128 -122l-18 -102q-4 -28 -4 -42q0 -77 83 -77q95 0 120 102h115
q-39 -202 -243 -202z" />
    <glyph glyph-name="Ccircumflex" unicode="&#x108;" horiz-adv-x="615" 
d="M225 746l142 136h113l93 -136h-105l-52 62l-75 -62h-116zM276 -12q-226 0 -226 197q0 35 8 80l28 158q24 137 96.5 203t202.5 66q223 0 223 -187q0 -33 -4 -60h-118q3 21 3 39q0 52 -27 76.5t-85 24.5q-74 0 -115 -40.5t-56 -129.5l-26 -153q-6 -35 -6 -62q0 -55 27 -80
t85 -25q68 0 107 34t55 105h118q-26 -127 -97 -186.5t-193 -59.5z" />
    <glyph glyph-name="ccircumflex" unicode="&#x109;" horiz-adv-x="521" 
d="M152 592l142 136h113l93 -136h-105l-52 62l-75 -62h-116zM232 -12q-96 0 -146 42.5t-50 123.5q0 27 6 60l18 102q38 215 252 215q94 0 142.5 -40.5t48.5 -118.5q0 -22 -4 -42h-115q2 9 2 26q0 39 -19 57t-60 18q-106 0 -128 -122l-18 -102q-4 -28 -4 -42q0 -77 83 -77
q95 0 120 102h115q-39 -202 -243 -202z" />
    <glyph glyph-name="Cdotaccent" unicode="&#x10a;" horiz-adv-x="615" 
d="M341 756l20 113h122l-19 -113h-123zM276 -12q-226 0 -226 197q0 35 8 80l28 158q24 137 96.5 203t202.5 66q223 0 223 -187q0 -33 -4 -60h-118q3 21 3 39q0 52 -27 76.5t-85 24.5q-74 0 -115 -40.5t-56 -129.5l-26 -153q-6 -35 -6 -62q0 -55 27 -80t85 -25q68 0 107 34
t55 105h118q-26 -127 -97 -186.5t-193 -59.5z" />
    <glyph glyph-name="cdotaccent" unicode="&#x10b;" horiz-adv-x="521" 
d="M268 602l20 113h122l-19 -113h-123zM232 -12q-96 0 -146 42.5t-50 123.5q0 27 6 60l18 102q38 215 252 215q94 0 142.5 -40.5t48.5 -118.5q0 -22 -4 -42h-115q2 9 2 26q0 39 -19 57t-60 18q-106 0 -128 -122l-18 -102q-4 -28 -4 -42q0 -77 83 -77q95 0 120 102h115
q-39 -202 -243 -202z" />
    <glyph glyph-name="Ccaron" unicode="&#x10c;" horiz-adv-x="615" 
d="M345 746l-93 136h105l52 -62l75 62h116l-142 -136h-113zM276 -12q-226 0 -226 197q0 35 8 80l28 158q24 137 96.5 203t202.5 66q223 0 223 -187q0 -33 -4 -60h-118q3 21 3 39q0 52 -27 76.5t-85 24.5q-74 0 -115 -40.5t-56 -129.5l-26 -153q-6 -35 -6 -62q0 -55 27 -80
t85 -25q68 0 107 34t55 105h118q-26 -127 -97 -186.5t-193 -59.5z" />
    <glyph glyph-name="ccaron" unicode="&#x10d;" horiz-adv-x="521" 
d="M272 592l-93 136h105l52 -62l75 62h116l-142 -136h-113zM232 -12q-96 0 -146 42.5t-50 123.5q0 27 6 60l18 102q38 215 252 215q94 0 142.5 -40.5t48.5 -118.5q0 -22 -4 -42h-115q2 9 2 26q0 39 -19 57t-60 18q-106 0 -128 -122l-18 -102q-4 -28 -4 -42q0 -77 83 -77
q95 0 120 102h115q-39 -202 -243 -202z" />
    <glyph glyph-name="Dcaron" unicode="&#x10e;" horiz-adv-x="645" 
d="M341 746l-93 136h105l52 -62l75 62h116l-142 -136h-113zM37 0l120 680h240q226 0 226 -189q0 -35 -8 -81l-26 -150q-24 -137 -95.5 -198.5t-207.5 -61.5h-249zM178 107h106q84 0 127 38t57 123l25 145q6 40 6 59q0 54 -30.5 77.5t-99.5 23.5h-109z" />
    <glyph glyph-name="dcaron" unicode="&#x10f;" horiz-adv-x="609" 
d="M198 -12q-78 0 -120 41t-42 118q0 25 6 60l20 113q38 211 218 211q96 0 142 -71l48 270h120l-129 -730h-102l8 65q-71 -77 -169 -77zM583 515l77 215h121l-114 -215h-84zM230 88q84 0 144 99l27 149q-26 95 -106 95q-93 0 -114 -119l-19 -108q-4 -28 -4 -41q0 -75 72 -75
z" />
    <glyph glyph-name="Dcroat" unicode="&#x110;" horiz-adv-x="655" 
d="M407 680q226 0 226 -189q0 -35 -8 -81l-26 -150q-24 -137 -95.5 -198.5t-207.5 -61.5h-249l52 294h-68l18 106h69l49 280h240zM503 413q6 40 6 59q0 54 -30.5 77.5t-99.5 23.5h-109l-30 -173h132l-18 -106h-133l-33 -187h106q84 0 127 38t57 123z" />
    <glyph glyph-name="dcroat" unicode="&#x111;" horiz-adv-x="588" 
d="M654 663l-15 -85h-76l-102 -578h-102l8 65q-71 -77 -169 -77q-78 0 -120 41t-42 118q0 25 6 60l20 113q38 211 218 211q96 0 142 -71l21 118h-128l15 85h128l12 67h120l-12 -67h76zM374 187l27 149q-26 95 -106 95q-93 0 -114 -119l-19 -108q-4 -28 -4 -41q0 -75 72 -75
q84 0 144 99z" />
    <glyph glyph-name="Emacron" unicode="&#x112;" horiz-adv-x="585" 
d="M263 770l15 86h277l-16 -86h-276zM37 0l120 680h456l-18 -107h-335l-30 -173h283l-18 -106h-284l-33 -187h344l-19 -107h-466z" />
    <glyph glyph-name="emacron" unicode="&#x113;" horiz-adv-x="550" 
d="M198 616l15 86h277l-16 -86h-276zM241 -12q-204 0 -204 170q0 27 5 56l18 102q18 105 82.5 160t173.5 55q97 0 148 -43.5t51 -127.5q0 -21 -5 -53l-15 -83h-331l-4 -22q-3 -18 -3 -32q0 -43 20.5 -64t69.5 -21q97 0 118 72h115q-39 -169 -239 -169zM180 313h217
q4 23 4 44q0 77 -89 77q-57 0 -89 -29.5t-43 -91.5z" />
    <glyph glyph-name="Ebreve" unicode="&#x114;" horiz-adv-x="585" 
d="M402 740q-64 0 -99 33.5t-35 87.5q0 12 1 18h83v-10q0 -48 55 -48q65 0 80 58h85q-13 -66 -58 -102.5t-112 -36.5zM37 0l120 680h456l-18 -107h-335l-30 -173h283l-18 -106h-284l-33 -187h344l-19 -107h-466z" />
    <glyph glyph-name="ebreve" unicode="&#x115;" horiz-adv-x="550" 
d="M337 586q-64 0 -99 33.5t-35 87.5q0 12 1 18h83v-10q0 -48 55 -48q65 0 80 58h85q-13 -66 -58 -102.5t-112 -36.5zM241 -12q-204 0 -204 170q0 27 5 56l18 102q18 105 82.5 160t173.5 55q97 0 148 -43.5t51 -127.5q0 -21 -5 -53l-15 -83h-331l-4 -22q-3 -18 -3 -32
q0 -43 20.5 -64t69.5 -21q97 0 118 72h115q-39 -169 -239 -169zM180 313h217q4 23 4 44q0 77 -89 77q-57 0 -89 -29.5t-43 -91.5z" />
    <glyph glyph-name="Edotaccent" unicode="&#x116;" horiz-adv-x="585" 
d="M337 756l20 113h122l-19 -113h-123zM37 0l120 680h456l-18 -107h-335l-30 -173h283l-18 -106h-284l-33 -187h344l-19 -107h-466z" />
    <glyph glyph-name="edotaccent" unicode="&#x117;" horiz-adv-x="550" 
d="M272 602l20 113h122l-19 -113h-123zM241 -12q-204 0 -204 170q0 27 5 56l18 102q18 105 82.5 160t173.5 55q97 0 148 -43.5t51 -127.5q0 -21 -5 -53l-15 -83h-331l-4 -22q-3 -18 -3 -32q0 -43 20.5 -64t69.5 -21q97 0 118 72h115q-39 -169 -239 -169zM180 313h217
q4 23 4 44q0 77 -89 77q-57 0 -89 -29.5t-43 -91.5z" />
    <glyph glyph-name="Eogonek" unicode="&#x118;" horiz-adv-x="585" 
d="M595 573h-335l-30 -173h283l-18 -106h-284l-33 -187h344l-19 -107h-23q-88 -47 -88 -96q0 -28 38 -28q24 0 56 13l-15 -80q-26 -13 -69 -13q-110 0 -110 80q0 67 86 124h-341l120 680h456z" />
    <glyph glyph-name="eogonek" unicode="&#x119;" horiz-adv-x="550" 
d="M316 531q97 0 148 -43.5t51 -127.5q0 -21 -5 -53l-15 -83h-331l-4 -22q-3 -18 -3 -32q0 -43 20.5 -64t69.5 -21q97 0 118 72h115q-20 -89 -87 -132q-41 -25 -65.5 -56.5t-24.5 -60.5q0 -32 38 -32q26 0 56 13l-15 -80q-26 -13 -68 -13q-111 0 -111 85q0 56 52 107h-14
q-204 0 -204 170q0 27 5 56l18 102q18 105 82.5 160t173.5 55zM397 313q4 23 4 44q0 77 -89 77q-57 0 -89 -29.5t-43 -91.5h217z" />
    <glyph glyph-name="Ecaron" unicode="&#x11a;" horiz-adv-x="585" 
d="M341 746l-93 136h105l52 -62l75 62h116l-142 -136h-113zM37 0l120 680h456l-18 -107h-335l-30 -173h283l-18 -106h-284l-33 -187h344l-19 -107h-466z" />
    <glyph glyph-name="ecaron" unicode="&#x11b;" horiz-adv-x="550" 
d="M276 592l-93 136h105l52 -62l75 62h116l-142 -136h-113zM241 -12q-204 0 -204 170q0 27 5 56l18 102q18 105 82.5 160t173.5 55q97 0 148 -43.5t51 -127.5q0 -21 -5 -53l-15 -83h-331l-4 -22q-3 -18 -3 -32q0 -43 20.5 -64t69.5 -21q97 0 118 72h115q-39 -169 -239 -169z
M180 313h217q4 23 4 44q0 77 -89 77q-57 0 -89 -29.5t-43 -91.5z" />
    <glyph glyph-name="Gcircumflex" unicode="&#x11c;" horiz-adv-x="635" 
d="M227 746l142 136h113l93 -136h-105l-52 62l-75 -62h-116zM282 -12q-117 0 -174.5 51t-57.5 146q0 40 7 76l30 168q47 263 301 263q109 0 168 -47.5t59 -135.5q0 -19 -3 -40h-117q1 8 1 22q0 94 -115 94q-75 0 -116.5 -40t-57.5 -128l-28 -158q-6 -33 -6 -57q0 -55 29 -81
t91 -26q74 0 113.5 38t56.5 122l3 15h-128l19 107h245l-23 -130q-23 -129 -95 -194t-202 -65z" />
    <glyph glyph-name="gcircumflex" unicode="&#x11d;" horiz-adv-x="580" 
d="M164 592l142 136h113l93 -136h-105l-52 62l-75 -62h-116zM206 -194q-197 0 -197 141q0 9 2 25h111v-9q0 -60 88 -60q59 0 91.5 26t42.5 85l11 64q-65 -59 -152 -59q-78 0 -120 41t-42 117q0 27 6 60l15 83q38 211 217 211q107 0 153 -88l18 76h103l-91 -513
q-18 -101 -80.5 -150.5t-175.5 -49.5zM235 119q86 0 144 98l21 120q-24 94 -105 94q-92 0 -114 -119l-14 -77q-4 -19 -4 -42q0 -74 72 -74z" />
    <glyph glyph-name="Gbreve" unicode="&#x11e;" horiz-adv-x="635" 
d="M408 740q-64 0 -99 33.5t-35 87.5q0 12 1 18h83v-10q0 -48 55 -48q65 0 80 58h85q-13 -66 -58 -102.5t-112 -36.5zM282 -12q-117 0 -174.5 51t-57.5 146q0 40 7 76l30 168q47 263 301 263q109 0 168 -47.5t59 -135.5q0 -19 -3 -40h-117q1 8 1 22q0 94 -115 94
q-75 0 -116.5 -40t-57.5 -128l-28 -158q-6 -33 -6 -57q0 -55 29 -81t91 -26q74 0 113.5 38t56.5 122l3 15h-128l19 107h245l-23 -130q-23 -129 -95 -194t-202 -65z" />
    <glyph glyph-name="gbreve" unicode="&#x11f;" horiz-adv-x="580" 
d="M345 586q-64 0 -99 33.5t-35 87.5q0 12 1 18h83v-10q0 -48 55 -48q65 0 80 58h85q-13 -66 -58 -102.5t-112 -36.5zM206 -194q-197 0 -197 141q0 9 2 25h111v-9q0 -60 88 -60q59 0 91.5 26t42.5 85l11 64q-65 -59 -152 -59q-78 0 -120 41t-42 117q0 27 6 60l15 83
q38 211 217 211q107 0 153 -88l18 76h103l-91 -513q-18 -101 -80.5 -150.5t-175.5 -49.5zM235 119q86 0 144 98l21 120q-24 94 -105 94q-92 0 -114 -119l-14 -77q-4 -19 -4 -42q0 -74 72 -74z" />
    <glyph glyph-name="Gdotaccent" unicode="&#x120;" horiz-adv-x="635" 
d="M343 756l20 113h122l-19 -113h-123zM282 -12q-117 0 -174.5 51t-57.5 146q0 40 7 76l30 168q47 263 301 263q109 0 168 -47.5t59 -135.5q0 -19 -3 -40h-117q1 8 1 22q0 94 -115 94q-75 0 -116.5 -40t-57.5 -128l-28 -158q-6 -33 -6 -57q0 -55 29 -81t91 -26
q74 0 113.5 38t56.5 122l3 15h-128l19 107h245l-23 -130q-23 -129 -95 -194t-202 -65z" />
    <glyph glyph-name="gdotaccent" unicode="&#x121;" horiz-adv-x="580" 
d="M280 602l20 113h122l-19 -113h-123zM206 -194q-197 0 -197 141q0 9 2 25h111v-9q0 -60 88 -60q59 0 91.5 26t42.5 85l11 64q-65 -59 -152 -59q-78 0 -120 41t-42 117q0 27 6 60l15 83q38 211 217 211q107 0 153 -88l18 76h103l-91 -513q-18 -101 -80.5 -150.5
t-175.5 -49.5zM235 119q86 0 144 98l21 120q-24 94 -105 94q-92 0 -114 -119l-14 -77q-4 -19 -4 -42q0 -74 72 -74z" />
    <glyph glyph-name="Gcommaaccent" unicode="&#x122;" horiz-adv-x="635" 
d="M282 -12q-117 0 -174.5 51t-57.5 146q0 40 7 76l30 168q47 263 301 263q109 0 168 -47.5t59 -135.5q0 -19 -3 -40h-117q1 8 1 22q0 94 -115 94q-75 0 -116.5 -40t-57.5 -128l-28 -158q-6 -33 -6 -57q0 -55 29 -81t91 -26q74 0 113.5 38t56.5 122l3 15h-128l19 107h245
l-23 -130q-23 -129 -95 -194t-202 -65zM171 -247l9 49q52 0 62 43h-51l16 89h122l-12 -65q-12 -67 -39.5 -91.5t-106.5 -24.5z" />
    <glyph glyph-name="gcommaaccent" unicode="&#x123;" horiz-adv-x="580" 
d="M435 766l-9 -49q-52 0 -62 -43h51l-16 -89h-122l12 65q12 67 39.5 91.5t106.5 24.5zM206 -194q-197 0 -197 141q0 9 2 25h111v-9q0 -60 88 -60q59 0 91.5 26t42.5 85l11 64q-65 -59 -152 -59q-78 0 -120 41t-42 117q0 27 6 60l15 83q38 211 217 211q107 0 153 -88l18 76
h103l-91 -513q-18 -101 -80.5 -150.5t-175.5 -49.5zM235 119q86 0 144 98l21 120q-24 94 -105 94q-92 0 -114 -119l-14 -77q-4 -19 -4 -42q0 -74 72 -74z" />
    <glyph glyph-name="Hcircumflex" unicode="&#x124;" horiz-adv-x="688" 
d="M254 746l142 136h113l93 -136h-105l-52 62l-75 -62h-116zM37 0l120 680h122l-49 -279h278l49 279h122l-120 -680h-122l52 293h-278l-52 -293h-122z" />
    <glyph glyph-name="hcircumflex" unicode="&#x125;" horiz-adv-x="570" 
d="M52 796l142 136h113l93 -136h-105l-52 62l-75 -62h-116zM27 0l129 730h120l-46 -259q66 60 151 60q69 0 105 -35t36 -101q0 -30 -5 -58l-60 -337h-120l59 332q3 20 3 35q0 58 -57 58q-76 0 -136 -90l-59 -335h-120z" />
    <glyph glyph-name="Hbar" unicode="&#x126;" horiz-adv-x="708" 
d="M740 578l-15 -91h-70l-86 -487h-122l52 293h-278l-52 -293h-122l86 487h-68l16 91h68l18 102h122l-18 -102h278l18 102h122l-18 -102h69zM518 401l15 86h-278l-15 -86h278z" />
    <glyph glyph-name="hbar" unicode="&#x127;" horiz-adv-x="578" 
d="M389 531q69 0 105 -35t36 -101q0 -30 -5 -58l-60 -337h-120l59 332q3 20 3 35q0 58 -57 58q-76 0 -136 -90l-59 -335h-120l102 578h-75l15 85h75l12 67h120l-12 -67h129l-15 -85h-129l-19 -107q66 60 151 60z" />
    <glyph glyph-name="Itilde" unicode="&#x128;" horiz-adv-x="288" 
d="M292 745q-36 0 -67 27q-21 18 -36 18q-29 0 -39 -42h-72q26 129 111 129q31 0 67 -27q22 -17 37 -17q29 0 39 41h71q-26 -129 -111 -129zM37 0l120 680h122l-120 -680h-122z" />
    <glyph glyph-name="itilde" unicode="&#x129;" horiz-adv-x="266" 
d="M253 591q-36 0 -67 27q-21 18 -36 18q-29 0 -39 -42h-72q26 129 111 129q31 0 67 -27q22 -17 37 -17q29 0 39 41h71q-26 -129 -111 -129zM27 0l92 519h120l-92 -519h-120z" />
    <glyph glyph-name="Imacron" unicode="&#x12a;" horiz-adv-x="288" 
d="M107 770l15 86h254l-15 -86h-254zM37 0l120 680h122l-120 -680h-122z" />
    <glyph glyph-name="imacron" unicode="&#x12b;" horiz-adv-x="266" 
d="M68 616l15 86h254l-15 -86h-254zM27 0l92 519h120l-92 -519h-120z" />
    <glyph glyph-name="Ibreve" unicode="&#x12c;" horiz-adv-x="288" 
d="M235 740q-60 0 -94 32.5t-34 86.5q0 13 1 20h81v-12q0 -46 51 -46q30 0 49 16t25 42h83q-12 -66 -55.5 -102.5t-106.5 -36.5zM37 0l120 680h122l-120 -680h-122z" />
    <glyph glyph-name="ibreve" unicode="&#x12d;" horiz-adv-x="266" 
d="M196 586q-60 0 -94 32.5t-34 86.5q0 13 1 20h81v-12q0 -46 51 -46q30 0 49 16t25 42h83q-12 -66 -55.5 -102.5t-106.5 -36.5zM27 0l92 519h120l-92 -519h-120z" />
    <glyph glyph-name="Iogonek" unicode="&#x12e;" horiz-adv-x="288" 
d="M66 -96q0 -28 39 -28q25 0 58 13l-15 -80q-33 -13 -71 -13q-53 0 -82 21t-29 60q0 65 85 123h-14l120 680h122l-120 -680h-12q-81 -46 -81 -96z" />
    <glyph glyph-name="iogonek" unicode="&#x12f;" horiz-adv-x="266" 
d="M148 715h128l-20 -113h-128zM135 0q-81 -46 -81 -96q0 -28 39 -28q25 0 58 13l-15 -80q-32 -13 -71 -13q-53 0 -82 21t-29 60q0 65 85 123h-12l92 519h120l-92 -519h-12z" />
    <glyph glyph-name="Idotaccent" unicode="&#x130;" horiz-adv-x="288" 
d="M170 756l20 113h122l-19 -113h-123zM37 0l120 680h122l-120 -680h-122z" />
    <glyph glyph-name="dotlessi" unicode="&#x131;" horiz-adv-x="266" 
d="M27 0l92 519h120l-92 -519h-120z" />
    <glyph glyph-name="IJ" unicode="&#x132;" horiz-adv-x="839" 
d="M37 0l120 680h122l-120 -680h-122zM494 -12q-105 0 -153.5 41t-48.5 132q0 32 7 67l2 12h117l-3 -17q-5 -28 -5 -47q0 -42 21.5 -61.5t70.5 -19.5q63 0 96.5 32.5t46.5 105.5l79 447h122l-81 -459q-22 -124 -85.5 -178.5t-185.5 -54.5z" />
    <glyph glyph-name="ij" unicode="&#x133;" horiz-adv-x="532" 
d="M128 602l20 113h128l-20 -113h-128zM393 602l20 113h128l-20 -113h-128zM27 0l92 519h120l-92 -519h-120zM185 -182l17 97h26q28 0 41 12t18 43l97 549h120l-97 -553q-14 -79 -50 -113.5t-107 -34.5h-65z" />
    <glyph glyph-name="Jcircumflex" unicode="&#x134;" horiz-adv-x="551" 
d="M340 746l134 136h114l85 -136h-101l-48 63l-71 -63h-113zM206 -12q-105 0 -153.5 41t-48.5 132q0 32 7 67l2 12h117l-3 -17q-5 -28 -5 -47q0 -42 21.5 -61.5t70.5 -19.5q63 0 96.5 32.5t46.5 105.5l79 447h122l-81 -459q-22 -124 -85.5 -178.5t-185.5 -54.5z" />
    <glyph glyph-name="jcircumflex" unicode="&#x135;" horiz-adv-x="266" 
d="M21 592l134 136h114l85 -136h-101l-48 63l-71 -63h-113zM-81 -182l17 97h26q28 0 41 12t18 43l97 549h120l-97 -553q-14 -79 -50 -113.5t-107 -34.5h-65z" />
    <glyph glyph-name="Kcommaaccent" unicode="&#x136;" horiz-adv-x="620" 
d="M37 0l120 680h122l-57 -325l324 325h148l-280 -281l161 -399h-132l-126 310l-125 -126l-33 -184h-122zM185 -247l9 49q52 0 62 43h-51l16 89h122l-12 -65q-12 -67 -39.5 -91.5t-106.5 -24.5z" />
    <glyph glyph-name="kcommaaccent" unicode="&#x137;" horiz-adv-x="539" 
d="M27 0l129 730h120l-77 -436l239 225h148l-229 -214l138 -305h-132l-100 224l-92 -86l-24 -138h-120zM139 -247l9 49q52 0 62 43h-51l16 89h122l-12 -65q-12 -67 -39.5 -91.5t-106.5 -24.5z" />
    <glyph glyph-name="kgreenlandic" unicode="&#x138;" horiz-adv-x="539" 
d="M27 0l92 519h120l-40 -225l239 225h148l-229 -214l138 -305h-132l-100 224l-92 -86l-24 -138h-120z" />
    <glyph glyph-name="Lacute" unicode="&#x139;" horiz-adv-x="518" 
d="M141 746l136 136h143l-162 -136h-117zM37 0l120 680h122l-101 -571h306l-19 -109h-428z" />
    <glyph glyph-name="lacute" unicode="&#x13a;" horiz-adv-x="266" 
d="M139 796l136 136h143l-162 -136h-117zM27 0l129 730h120l-129 -730h-120z" />
    <glyph glyph-name="Lcommaaccent" unicode="&#x13b;" horiz-adv-x="518" 
d="M37 0l120 680h122l-101 -571h306l-19 -109h-428zM143 -247l9 49q52 0 62 43h-51l16 89h122l-12 -65q-12 -67 -39.5 -91.5t-106.5 -24.5z" />
    <glyph glyph-name="lcommaaccent" unicode="&#x13c;" horiz-adv-x="266" 
d="M27 0l129 730h120l-129 -730h-120zM-21 -247l9 49q52 0 62 43h-51l16 89h122l-12 -65q-12 -67 -39.5 -91.5t-106.5 -24.5z" />
    <glyph glyph-name="Lcaron" unicode="&#x13d;" horiz-adv-x="518" 
d="M37 0l120 680h122l-101 -571h306l-19 -109h-428zM291 465l77 215h121l-114 -215h-84z" />
    <glyph glyph-name="lcaron" unicode="&#x13e;" horiz-adv-x="295" 
d="M27 0l129 730h120l-129 -730h-120zM269 515l77 215h121l-114 -215h-84z" />
    <glyph glyph-name="Ldot" unicode="&#x13f;" horiz-adv-x="518" 
d="M37 0l120 680h122l-101 -571h306l-19 -109h-428zM352 314l21 122h123l-21 -122h-123z" />
    <glyph glyph-name="ldot" unicode="&#x140;" horiz-adv-x="330" 
d="M27 0l129 730h120l-129 -730h-120zM246 303l21 113h120l-21 -113h-120z" />
    <glyph glyph-name="Lslash" unicode="&#x141;" horiz-adv-x="528" 
d="M188 109h306l-19 -109h-428l32 180l-76 -46l21 121l76 46l67 379h122l-53 -297l213 128l-21 -121l-213 -128z" />
    <glyph glyph-name="lslash" unicode="&#x142;" horiz-adv-x="294" 
d="M336 527l-20 -115l-92 -56l-63 -356h-120l48 274l-92 -56l21 114l92 56l60 342h120l-46 -259z" />
    <glyph glyph-name="Nacute" unicode="&#x143;" horiz-adv-x="686" 
d="M340 746l136 136h143l-162 -136h-117zM37 0l120 680h130l189 -484l85 484h116l-120 -680h-116l-198 509l-90 -509h-116z" />
    <glyph glyph-name="nacute" unicode="&#x144;" horiz-adv-x="570" 
d="M255 592l136 136h143l-162 -136h-117zM27 0l92 519h102l-8 -66q71 78 168 78q69 0 105 -35t36 -101q0 -30 -5 -58l-60 -337h-120l59 332q3 20 3 35q0 58 -57 58q-76 0 -136 -90l-59 -335h-120z" />
    <glyph glyph-name="Ncommaaccent" unicode="&#x145;" horiz-adv-x="686" 
d="M37 0l120 680h130l189 -484l85 484h116l-120 -680h-116l-198 509l-90 -509h-116zM189 -247l9 49q52 0 62 43h-51l16 89h122l-12 -65q-12 -67 -39.5 -91.5t-106.5 -24.5z" />
    <glyph glyph-name="ncommaaccent" unicode="&#x146;" horiz-adv-x="570" 
d="M27 0l92 519h102l-8 -66q71 78 168 78q69 0 105 -35t36 -101q0 -30 -5 -58l-60 -337h-120l59 332q3 20 3 35q0 58 -57 58q-76 0 -136 -90l-59 -335h-120zM134 -247l9 49q52 0 62 43h-51l16 89h122l-12 -65q-12 -67 -39.5 -91.5t-106.5 -24.5z" />
    <glyph glyph-name="Ncaron" unicode="&#x147;" horiz-adv-x="686" 
d="M373 746l-93 136h105l52 -62l75 62h116l-142 -136h-113zM37 0l120 680h130l189 -484l85 484h116l-120 -680h-116l-198 509l-90 -509h-116z" />
    <glyph glyph-name="ncaron" unicode="&#x148;" horiz-adv-x="570" 
d="M288 592l-93 136h105l52 -62l75 62h116l-142 -136h-113zM27 0l92 519h102l-8 -66q71 78 168 78q69 0 105 -35t36 -101q0 -30 -5 -58l-60 -337h-120l59 332q3 20 3 35q0 58 -57 58q-76 0 -136 -90l-59 -335h-120z" />
    <glyph glyph-name="napostrophe" unicode="&#x149;" horiz-adv-x="613" 
d="M43 524l10 55q50 0 60 46h-48l18 105h120l-15 -88q-11 -64 -41.5 -91t-103.5 -27zM70 0l92 519h102l-8 -66q71 78 168 78q69 0 105 -35t36 -101q0 -30 -5 -58l-60 -337h-120l59 332q3 20 3 35q0 58 -57 58q-76 0 -136 -90l-59 -335h-120z" />
    <glyph glyph-name="Eng" unicode="&#x14a;" horiz-adv-x="687" 
d="M329 -182l17 97h31q28 0 41 12.5t18 43.5l5 29l-198 509l-90 -509h-116l120 680h130l189 -484l85 484h116l-125 -715q-14 -80 -51 -113.5t-106 -33.5h-66z" />
    <glyph glyph-name="eng" unicode="&#x14b;" horiz-adv-x="570" 
d="M229 -182l18 95h26q28 0 41 13.5t18 43.5l64 362q3 20 3 35q0 58 -57 58q-76 0 -136 -90l-59 -335h-120l92 519h102l-8 -66q71 78 168 78q69 0 105 -35t36 -101q0 -30 -5 -58l-66 -373q-14 -78 -50 -112t-107 -34h-65z" />
    <glyph glyph-name="Omacron" unicode="&#x14c;" horiz-adv-x="654" 
d="M278 770l15 86h277l-16 -86h-276zM285 -12q-234 0 -234 200q0 41 7 77l28 158q24 137 99.5 203t211.5 66q234 0 234 -200q0 -41 -7 -77l-28 -158q-24 -137 -99.5 -203t-211.5 -66zM295 95q78 0 121.5 40t58.5 127l27 156q6 35 6 59q0 56 -29.5 82t-92.5 26
q-78 0 -121.5 -40t-58.5 -127l-27 -156q-6 -35 -6 -59q0 -56 29.5 -82t92.5 -26z" />
    <glyph glyph-name="omacron" unicode="&#x14d;" horiz-adv-x="562" 
d="M206 616l15 86h277l-16 -86h-276zM241 -12q-203 0 -203 173q0 28 5 57l17 90q22 114 86.5 168.5t175.5 54.5q203 0 203 -173q0 -22 -6 -56l-16 -91q-40 -223 -262 -223zM249 88q113 0 135 130l15 86q5 28 5 43q0 84 -90 84q-58 0 -90.5 -32t-44.5 -98l-16 -86
q-4 -23 -4 -43q0 -84 90 -84z" />
    <glyph glyph-name="Obreve" unicode="&#x14e;" horiz-adv-x="654" 
d="M417 740q-64 0 -99 33.5t-35 87.5q0 12 1 18h83v-10q0 -48 55 -48q65 0 80 58h85q-13 -66 -58 -102.5t-112 -36.5zM285 -12q-234 0 -234 200q0 41 7 77l28 158q24 137 99.5 203t211.5 66q234 0 234 -200q0 -41 -7 -77l-28 -158q-24 -137 -99.5 -203t-211.5 -66zM295 95
q78 0 121.5 40t58.5 127l27 156q6 35 6 59q0 56 -29.5 82t-92.5 26q-78 0 -121.5 -40t-58.5 -127l-27 -156q-6 -35 -6 -59q0 -56 29.5 -82t92.5 -26z" />
    <glyph glyph-name="obreve" unicode="&#x14f;" horiz-adv-x="562" 
d="M345 586q-64 0 -99 33.5t-35 87.5q0 12 1 18h83v-10q0 -48 55 -48q65 0 80 58h85q-13 -66 -58 -102.5t-112 -36.5zM241 -12q-203 0 -203 173q0 28 5 57l17 90q22 114 86.5 168.5t175.5 54.5q203 0 203 -173q0 -22 -6 -56l-16 -91q-40 -223 -262 -223zM249 88
q113 0 135 130l15 86q5 28 5 43q0 84 -90 84q-58 0 -90.5 -32t-44.5 -98l-16 -86q-4 -23 -4 -43q0 -84 90 -84z" />
    <glyph glyph-name="Ohungarumlaut" unicode="&#x150;" horiz-adv-x="654" 
d="M242 746l112 136h135l-139 -136h-108zM437 746l112 136h135l-139 -136h-108zM285 -12q-234 0 -234 200q0 41 7 77l28 158q24 137 99.5 203t211.5 66q234 0 234 -200q0 -41 -7 -77l-28 -158q-24 -137 -99.5 -203t-211.5 -66zM295 95q78 0 121.5 40t58.5 127l27 156
q6 35 6 59q0 56 -29.5 82t-92.5 26q-78 0 -121.5 -40t-58.5 -127l-27 -156q-6 -35 -6 -59q0 -56 29.5 -82t92.5 -26z" />
    <glyph glyph-name="ohungarumlaut" unicode="&#x151;" horiz-adv-x="562" 
d="M170 592l112 136h135l-139 -136h-108zM365 592l112 136h135l-139 -136h-108zM241 -12q-203 0 -203 173q0 28 5 57l17 90q22 114 86.5 168.5t175.5 54.5q203 0 203 -173q0 -22 -6 -56l-16 -91q-40 -223 -262 -223zM249 88q113 0 135 130l15 86q5 28 5 43q0 84 -90 84
q-58 0 -90.5 -32t-44.5 -98l-16 -86q-4 -23 -4 -43q0 -84 90 -84z" />
    <glyph glyph-name="OE" unicode="&#x152;" horiz-adv-x="899" 
d="M276 0q-226 0 -226 189q0 35 8 81l26 150q24 137 95.5 198.5t207.5 61.5h540l-19 -107h-309l-30 -173h258l-18 -106h-259l-33 -187h319l-19 -107h-541zM304 107h91l82 466h-88q-84 0 -127 -38t-57 -123l-25 -145q-6 -40 -6 -59q0 -54 30.5 -77.5t99.5 -23.5z" />
    <glyph glyph-name="oe" unicode="&#x153;" horiz-adv-x="891" 
d="M232 -12q-94 0 -144 44t-50 129q0 28 5 57l17 90q43 223 254 223q130 0 167 -81q61 81 187 81q93 0 141 -43t48 -124q0 -25 -6 -58l-14 -82h-332l-3 -20q-4 -28 -4 -34q0 -43 21 -64t70 -21q48 0 78 19.5t39 52.5h115q-39 -169 -231 -169q-131 0 -169 81
q-62 -81 -189 -81zM521 313h217q4 23 4 44q0 77 -88 77q-113 0 -133 -121zM249 88q113 0 135 130l15 86q5 28 5 43q0 84 -90 84q-58 0 -90.5 -32t-44.5 -98l-16 -86q-4 -23 -4 -43q0 -84 90 -84z" />
    <glyph glyph-name="Racute" unicode="&#x154;" horiz-adv-x="632" 
d="M303 746l136 136h143l-162 -136h-117zM37 0l120 680h266q108 0 153 -39t45 -131q0 -194 -171 -237l108 -273h-132l-101 263h-120l-46 -263h-122zM224 369h134q68 0 104 33.5t36 94.5q0 43 -22 59.5t-79 16.5h-137z" />
    <glyph glyph-name="racute" unicode="&#x155;" horiz-adv-x="368" 
d="M173 592l136 136h143l-162 -136h-117zM27 0l92 519h102l-12 -92q50 102 155 102h41l-20 -114h-26q-61 0 -99.5 -29t-60.5 -92l-52 -294h-120z" />
    <glyph glyph-name="Rcommaaccent" unicode="&#x156;" horiz-adv-x="632" 
d="M37 0l120 680h266q108 0 153 -39t45 -131q0 -194 -171 -237l108 -273h-132l-101 263h-120l-46 -263h-122zM224 369h134q68 0 104 33.5t36 94.5q0 43 -22 59.5t-79 16.5h-137zM179 -247l9 49q52 0 62 43h-51l16 89h122l-12 -65q-12 -67 -39.5 -91.5t-106.5 -24.5z" />
    <glyph glyph-name="rcommaaccent" unicode="&#x157;" horiz-adv-x="368" 
d="M27 0l92 519h102l-12 -92q50 102 155 102h41l-20 -114h-26q-61 0 -99.5 -29t-60.5 -92l-52 -294h-120zM-21 -247l9 49q52 0 62 43h-51l16 89h122l-12 -65q-12 -67 -39.5 -91.5t-106.5 -24.5z" />
    <glyph glyph-name="Rcaron" unicode="&#x158;" horiz-adv-x="632" 
d="M336 746l-93 136h105l52 -62l75 62h116l-142 -136h-113zM37 0l120 680h266q108 0 153 -39t45 -131q0 -194 -171 -237l108 -273h-132l-101 263h-120l-46 -263h-122zM224 369h134q68 0 104 33.5t36 94.5q0 43 -22 59.5t-79 16.5h-137z" />
    <glyph glyph-name="rcaron" unicode="&#x159;" horiz-adv-x="368" 
d="M206 592l-93 136h105l52 -62l75 62h116l-142 -136h-113zM27 0l92 519h102l-12 -92q50 102 155 102h41l-20 -114h-26q-61 0 -99.5 -29t-60.5 -92l-52 -294h-120z" />
    <glyph glyph-name="Sacute" unicode="&#x15a;" horiz-adv-x="561" 
d="M270 746l136 136h143l-162 -136h-117zM242 -12q-225 0 -225 161q0 20 5 50h119q-3 -16 -3 -29q0 -79 110 -79q69 0 108 30t39 88q0 32 -29.5 51t-99.5 32q-100 19 -143 55.5t-43 101.5q0 117 72 180t199 63q211 0 211 -157q0 -25 -4 -48h-120q2 10 2 28q0 39 -23.5 56
t-72.5 17q-65 0 -103 -30t-38 -83q0 -30 28.5 -47.5t96.5 -29.5q102 -18 146.5 -56t44.5 -106q0 -123 -72 -185.5t-205 -62.5z" />
    <glyph glyph-name="sacute" unicode="&#x15b;" horiz-adv-x="501" 
d="M217 592l136 136h143l-162 -136h-117zM208 -12q-97 0 -146 35t-49 100q0 17 3 33h114q-2 -12 -2 -19q0 -57 88 -57q52 0 82 19t30 55q0 26 -24 39.5t-82 20.5q-85 10 -122.5 41t-37.5 91q0 86 62.5 135.5t168.5 49.5q90 0 136.5 -35.5t46.5 -96.5q0 -15 -3 -31h-115
q2 14 2 19q0 52 -75 52q-48 0 -75.5 -19.5t-27.5 -52.5q0 -25 23.5 -37.5t77.5 -18.5q86 -10 125.5 -42.5t39.5 -95.5q0 -90 -63 -137.5t-177 -47.5z" />
    <glyph glyph-name="Scircumflex" unicode="&#x15c;" horiz-adv-x="561" 
d="M183 746l142 136h113l93 -136h-105l-52 62l-75 -62h-116zM242 -12q-225 0 -225 161q0 20 5 50h119q-3 -16 -3 -29q0 -79 110 -79q69 0 108 30t39 88q0 32 -29.5 51t-99.5 32q-100 19 -143 55.5t-43 101.5q0 117 72 180t199 63q211 0 211 -157q0 -25 -4 -48h-120
q2 10 2 28q0 39 -23.5 56t-72.5 17q-65 0 -103 -30t-38 -83q0 -30 28.5 -47.5t96.5 -29.5q102 -18 146.5 -56t44.5 -106q0 -123 -72 -185.5t-205 -62.5z" />
    <glyph glyph-name="scircumflex" unicode="&#x15d;" horiz-adv-x="501" 
d="M130 592l142 136h113l93 -136h-105l-52 62l-75 -62h-116zM208 -12q-97 0 -146 35t-49 100q0 17 3 33h114q-2 -12 -2 -19q0 -57 88 -57q52 0 82 19t30 55q0 26 -24 39.5t-82 20.5q-85 10 -122.5 41t-37.5 91q0 86 62.5 135.5t168.5 49.5q90 0 136.5 -35.5t46.5 -96.5
q0 -15 -3 -31h-115q2 14 2 19q0 52 -75 52q-48 0 -75.5 -19.5t-27.5 -52.5q0 -25 23.5 -37.5t77.5 -18.5q86 -10 125.5 -42.5t39.5 -95.5q0 -90 -63 -137.5t-177 -47.5z" />
    <glyph glyph-name="Scedilla" unicode="&#x15e;" horiz-adv-x="561" 
d="M558 487h-120q2 10 2 28q0 39 -23.5 56t-72.5 17q-65 0 -103 -30t-38 -83q0 -30 28.5 -47.5t96.5 -29.5q102 -18 146.5 -56t44.5 -106q0 -117 -65.5 -179.5t-188.5 -68.5l-25 -44q90 -1 90 -67q0 -84 -135 -84q-67 0 -112 22l29 51q31 -16 62 -16q54 0 54 32
q0 11 -10.5 14.5t-40.5 3.5h-24l50 89q-186 14 -186 160q0 20 5 50h119q-3 -16 -3 -29q0 -79 110 -79q69 0 108 30t39 88q0 32 -29.5 51t-99.5 32q-100 19 -143 55.5t-43 101.5q0 117 72 180t199 63q211 0 211 -157q0 -25 -4 -48z" />
    <glyph glyph-name="scedilla" unicode="&#x15f;" horiz-adv-x="501" 
d="M473 368h-115q2 14 2 19q0 52 -75 52q-48 0 -75.5 -19.5t-27.5 -52.5q0 -25 23.5 -37.5t77.5 -18.5q86 -10 125.5 -42.5t39.5 -95.5q0 -84 -56 -131.5t-158 -52.5l-25 -45q90 -1 90 -67q0 -84 -135 -84q-67 0 -112 22l29 51q31 -16 62 -16q54 0 54 32q0 11 -10.5 14.5
t-40.5 3.5h-24l50 89q-159 13 -159 134q0 17 3 33h114q-2 -12 -2 -19q0 -57 88 -57q52 0 82 19t30 55q0 26 -24 39.5t-82 20.5q-85 10 -122.5 41t-37.5 91q0 86 62.5 135.5t168.5 49.5q90 0 136.5 -35.5t46.5 -96.5q0 -15 -3 -31z" />
    <glyph glyph-name="Scaron" unicode="&#x160;" horiz-adv-x="561" 
d="M303 746l-93 136h105l52 -62l75 62h116l-142 -136h-113zM242 -12q-225 0 -225 161q0 20 5 50h119q-3 -16 -3 -29q0 -79 110 -79q69 0 108 30t39 88q0 32 -29.5 51t-99.5 32q-100 19 -143 55.5t-43 101.5q0 117 72 180t199 63q211 0 211 -157q0 -25 -4 -48h-120q2 10 2 28
q0 39 -23.5 56t-72.5 17q-65 0 -103 -30t-38 -83q0 -30 28.5 -47.5t96.5 -29.5q102 -18 146.5 -56t44.5 -106q0 -123 -72 -185.5t-205 -62.5z" />
    <glyph glyph-name="scaron" unicode="&#x161;" horiz-adv-x="501" 
d="M250 592l-93 136h105l52 -62l75 62h116l-142 -136h-113zM208 -12q-97 0 -146 35t-49 100q0 17 3 33h114q-2 -12 -2 -19q0 -57 88 -57q52 0 82 19t30 55q0 26 -24 39.5t-82 20.5q-85 10 -122.5 41t-37.5 91q0 86 62.5 135.5t168.5 49.5q90 0 136.5 -35.5t46.5 -96.5
q0 -15 -3 -31h-115q2 14 2 19q0 52 -75 52q-48 0 -75.5 -19.5t-27.5 -52.5q0 -25 23.5 -37.5t77.5 -18.5q86 -10 125.5 -42.5t39.5 -95.5q0 -90 -63 -137.5t-177 -47.5z" />
    <glyph glyph-name="uni0162" unicode="&#x162;" horiz-adv-x="517" 
d="M81 680h504l-19 -109h-191l-101 -571h-27l-36 -56q86 -3 86 -67q0 -84 -135 -84q-67 0 -112 22l29 51q31 -16 62 -16q54 0 54 32q0 11 -10.5 14.5t-40.5 3.5h-24l65 100h-33l101 571h-191z" />
    <glyph glyph-name="uni0163" unicode="&#x163;" horiz-adv-x="352" 
d="M241 426l-45 -257q-3 -21 -3 -34q0 -22 11.5 -30t41.5 -8h59l-16 -97h-105l-32 -56q90 -1 90 -67q0 -84 -135 -84q-67 0 -112 22l29 51q31 -16 62 -16q54 0 54 32q0 11 -10.5 14.5t-40.5 3.5h-24l63 112q-57 23 -57 103q0 28 5 54l46 257h-82l16 93h84l31 133h110
l-23 -133h117l-16 -93h-118z" />
    <glyph glyph-name="Tcaron" unicode="&#x164;" horiz-adv-x="517" 
d="M288 746l-93 136h105l52 -62l75 62h116l-142 -136h-113zM152 0l101 571h-191l19 109h504l-19 -109h-191l-101 -571h-122z" />
    <glyph glyph-name="tcaron" unicode="&#x165;" horiz-adv-x="352" 
d="M295 563l77 215h121l-114 -215h-84zM197 0q-126 0 -126 115q0 28 5 54l46 257h-82l16 93h84l31 133h110l-23 -133h117l-16 -93h-118l-45 -257q-3 -21 -3 -34q0 -22 11.5 -30t41.5 -8h59l-16 -97h-92z" />
    <glyph glyph-name="Tbar" unicode="&#x166;" horiz-adv-x="517" 
d="M566 571h-191l-31 -176h127l-18 -107h-128l-51 -288h-122l51 288h-128l19 107h128l31 176h-191l19 109h504z" />
    <glyph glyph-name="tbar" unicode="&#x167;" horiz-adv-x="352" 
d="M359 426h-118l-15 -83h109l-16 -87h-108l-15 -87q-3 -21 -3 -34q0 -22 11.5 -30t41.5 -8h59l-16 -97h-92q-126 0 -126 115q0 28 5 54l16 87h-76l16 87h75l15 83h-82l16 93h84l31 133h110l-23 -133h117z" />
    <glyph glyph-name="Utilde" unicode="&#x168;" horiz-adv-x="636" 
d="M472 745q-33 0 -74 28q-24 17 -38 17q-29 0 -41 -42h-74q26 129 114 129q39 0 74 -27q22 -17 38 -17q29 0 41 41h74q-26 -129 -114 -129zM279 -12q-115 0 -169 41.5t-54 130.5q0 31 7 70l79 450h122l-79 -453q-5 -32 -5 -45q0 -48 25.5 -67.5t82.5 -19.5q72 0 108 31
t49 104l80 450h118l-81 -459q-22 -123 -87.5 -178t-195.5 -55z" />
    <glyph glyph-name="utilde" unicode="&#x169;" horiz-adv-x="574" 
d="M411 591q-33 0 -74 28q-24 17 -38 17q-29 0 -41 -42h-74q26 129 114 129q39 0 74 -27q22 -17 38 -17q29 0 41 41h74q-26 -129 -114 -129zM191 -12q-143 0 -143 138q0 31 5 56l60 337h120l-59 -334q-3 -21 -3 -33q0 -58 59 -58q78 0 138 92l59 333h120l-92 -519h-102l8 67
q-72 -79 -170 -79z" />
    <glyph glyph-name="Umacron" unicode="&#x16a;" horiz-adv-x="636" 
d="M270 770l15 86h277l-16 -86h-276zM279 -12q-115 0 -169 41.5t-54 130.5q0 31 7 70l79 450h122l-79 -453q-5 -32 -5 -45q0 -48 25.5 -67.5t82.5 -19.5q72 0 108 31t49 104l80 450h118l-81 -459q-22 -123 -87.5 -178t-195.5 -55z" />
    <glyph glyph-name="umacron" unicode="&#x16b;" horiz-adv-x="574" 
d="M209 616l15 86h277l-16 -86h-276zM191 -12q-143 0 -143 138q0 31 5 56l60 337h120l-59 -334q-3 -21 -3 -33q0 -58 59 -58q78 0 138 92l59 333h120l-92 -519h-102l8 67q-72 -79 -170 -79z" />
    <glyph glyph-name="Ubreve" unicode="&#x16c;" horiz-adv-x="636" 
d="M409 740q-64 0 -99 33.5t-35 87.5q0 12 1 18h83v-10q0 -48 55 -48q65 0 80 58h85q-13 -66 -58 -102.5t-112 -36.5zM279 -12q-115 0 -169 41.5t-54 130.5q0 31 7 70l79 450h122l-79 -453q-5 -32 -5 -45q0 -48 25.5 -67.5t82.5 -19.5q72 0 108 31t49 104l80 450h118
l-81 -459q-22 -123 -87.5 -178t-195.5 -55z" />
    <glyph glyph-name="ubreve" unicode="&#x16d;" horiz-adv-x="574" 
d="M348 586q-64 0 -99 33.5t-35 87.5q0 12 1 18h83v-10q0 -48 55 -48q65 0 80 58h85q-13 -66 -58 -102.5t-112 -36.5zM191 -12q-143 0 -143 138q0 31 5 56l60 337h120l-59 -334q-3 -21 -3 -33q0 -58 59 -58q78 0 138 92l59 333h120l-92 -519h-102l8 67q-72 -79 -170 -79z
" />
    <glyph glyph-name="Uring" unicode="&#x16e;" horiz-adv-x="636" 
d="M408 728q-47 0 -77 28.5t-30 73.5q0 50 36 84.5t88 34.5q47 0 77 -28.5t30 -73.5q0 -51 -35.5 -85t-88.5 -34zM411 795q20 0 33.5 15t13.5 37q0 35 -36 35q-19 0 -32.5 -15t-13.5 -37q0 -16 9.5 -25.5t25.5 -9.5zM279 -12q-115 0 -169 41.5t-54 130.5q0 31 7 70l79 450
h122l-79 -453q-5 -32 -5 -45q0 -48 25.5 -67.5t82.5 -19.5q72 0 108 31t49 104l80 450h118l-81 -459q-22 -123 -87.5 -178t-195.5 -55z" />
    <glyph glyph-name="uring" unicode="&#x16f;" horiz-adv-x="574" 
d="M347 574q-47 0 -77 28.5t-30 73.5q0 50 36 84.5t88 34.5q47 0 77 -28.5t30 -73.5q0 -51 -35.5 -85t-88.5 -34zM350 641q20 0 33.5 15t13.5 37q0 35 -36 35q-19 0 -32.5 -15t-13.5 -37q0 -16 9.5 -25.5t25.5 -9.5zM191 -12q-143 0 -143 138q0 31 5 56l60 337h120l-59 -334
q-3 -21 -3 -33q0 -58 59 -58q78 0 138 92l59 333h120l-92 -519h-102l8 67q-72 -79 -170 -79z" />
    <glyph glyph-name="Uhungarumlaut" unicode="&#x170;" horiz-adv-x="636" 
d="M234 746l112 136h135l-139 -136h-108zM429 746l112 136h135l-139 -136h-108zM279 -12q-115 0 -169 41.5t-54 130.5q0 31 7 70l79 450h122l-79 -453q-5 -32 -5 -45q0 -48 25.5 -67.5t82.5 -19.5q72 0 108 31t49 104l80 450h118l-81 -459q-22 -123 -87.5 -178t-195.5 -55z
" />
    <glyph glyph-name="uhungarumlaut" unicode="&#x171;" horiz-adv-x="574" 
d="M173 592l112 136h135l-139 -136h-108zM368 592l112 136h135l-139 -136h-108zM191 -12q-143 0 -143 138q0 31 5 56l60 337h120l-59 -334q-3 -21 -3 -33q0 -58 59 -58q78 0 138 92l59 333h120l-92 -519h-102l8 67q-72 -79 -170 -79z" />
    <glyph glyph-name="Uogonek" unicode="&#x172;" horiz-adv-x="636" 
d="M525 680h118l-81 -459q-17 -95 -59.5 -149t-118.5 -73q-103 -38 -103 -95q0 -28 37 -28q24 0 57 13l-15 -80q-25 -13 -68 -13q-111 0 -111 81q0 63 71 112q-101 4 -148.5 46t-47.5 125q0 31 7 70l79 450h122l-79 -453q-5 -32 -5 -45q0 -48 25.5 -67.5t82.5 -19.5
q72 0 108 31t49 104z" />
    <glyph glyph-name="uogonek" unicode="&#x173;" horiz-adv-x="574" 
d="M431 0q-88 -47 -88 -96q0 -28 38 -28q24 0 56 13l-15 -80q-26 -13 -69 -13q-110 0 -110 80q0 76 112 140l6 51q-72 -79 -170 -79q-143 0 -143 138q0 31 5 56l60 337h120l-59 -334q-3 -21 -3 -33q0 -58 59 -58q78 0 138 92l59 333h120l-92 -519h-24z" />
    <glyph glyph-name="Wcircumflex" unicode="&#x174;" horiz-adv-x="871" 
d="M345 746l142 136h113l93 -136h-105l-52 62l-75 -62h-116zM136 0l-55 680h123l31 -497l218 497h112l43 -497l206 497h124l-295 -680h-125l-43 483l-212 -483h-127z" />
    <glyph glyph-name="wcircumflex" unicode="&#x175;" horiz-adv-x="788" 
d="M277 592l142 136h113l93 -136h-105l-52 62l-75 -62h-116zM118 0l-64 519h123l32 -370l175 370h109l45 -371l163 371h125l-247 -519h-123l-44 357l-169 -357h-125z" />
    <glyph glyph-name="Ycircumflex" unicode="&#x176;" horiz-adv-x="546" 
d="M183 746l142 136h113l93 -136h-105l-52 62l-75 -62h-116zM166 0l51 287l-162 393h133l109 -271l203 271h138l-299 -393l-51 -287h-122z" />
    <glyph glyph-name="ycircumflex" unicode="&#x177;" horiz-adv-x="486" 
d="M125 592l142 136h113l93 -136h-105l-52 62l-75 -62h-116zM-19 -182l17 97h50q27 0 41 10.5t28 37.5l28 55l-93 501h124l54 -353l170 353h125l-295 -576q-38 -75 -75 -100t-106 -25h-68z" />
    <glyph glyph-name="Ydieresis" unicode="&#x178;" horiz-adv-x="546" 
d="M205 756l20 113h118l-20 -113h-118zM398 756l20 113h118l-20 -113h-118zM166 0l51 287l-162 393h133l109 -271l203 271h138l-299 -393l-51 -287h-122z" />
    <glyph glyph-name="Zacute" unicode="&#x179;" horiz-adv-x="554" 
d="M279 746l136 136h143l-162 -136h-117zM-16 0l17 97l411 476h-309l19 107h469l-16 -96l-411 -477h334l-19 -107h-495z" />
    <glyph glyph-name="zacute" unicode="&#x17a;" horiz-adv-x="470" 
d="M208 592l136 136h143l-162 -136h-117zM-18 0l14 85l310 338h-229l17 96h390l-15 -85l-311 -338h256l-17 -96h-415z" />
    <glyph glyph-name="Zdotaccent" unicode="&#x17b;" horiz-adv-x="554" 
d="M308 756l20 113h122l-19 -113h-123zM-16 0l17 97l411 476h-309l19 107h469l-16 -96l-411 -477h334l-19 -107h-495z" />
    <glyph glyph-name="zdotaccent" unicode="&#x17c;" horiz-adv-x="470" 
d="M237 602l20 113h122l-19 -113h-123zM-18 0l14 85l310 338h-229l17 96h390l-15 -85l-311 -338h256l-17 -96h-415z" />
    <glyph glyph-name="Zcaron" unicode="&#x17d;" horiz-adv-x="554" 
d="M312 746l-93 136h105l52 -62l75 62h116l-142 -136h-113zM-16 0l17 97l411 476h-309l19 107h469l-16 -96l-411 -477h334l-19 -107h-495z" />
    <glyph glyph-name="zcaron" unicode="&#x17e;" horiz-adv-x="470" 
d="M241 592l-93 136h105l52 -62l75 62h116l-142 -136h-113zM-18 0l14 85l310 338h-229l17 96h390l-15 -85l-311 -338h256l-17 -96h-415z" />
    <glyph glyph-name="florin" unicode="&#x192;" horiz-adv-x="599" 
d="M-3 -60l28 95h53q39 0 62 20t37 66l74 247h-119l17 96h130l22 73q27 90 70 126.5t124 36.5h111l-27 -95h-64q-39 0 -62 -20t-36 -66l-16 -55h134l-18 -96h-145l-79 -265q-27 -90 -70.5 -126.5t-124.5 -36.5h-101z" />
    <glyph glyph-name="Aringacute" unicode="&#x1fa;" horiz-adv-x="610" 
d="M342 966l136 136h143l-162 -136h-117zM397 717q-47 0 -77 28.5t-30 73.5q0 50 36 84.5t88 34.5q47 0 77 -28.5t30 -73.5q0 -51 -35.5 -85t-88.5 -34zM400 784q20 0 33.5 15t13.5 37q0 35 -36 35q-19 0 -32.5 -15t-13.5 -37q0 -16 9.5 -25.5t25.5 -9.5zM-41 0l357 680h125
l118 -680h-126l-25 154h-241l-80 -154h-128zM218 259h175l-38 279z" />
    <glyph glyph-name="aringacute" unicode="&#x1fb;" horiz-adv-x="541" 
d="M273 812l136 136h143l-162 -136h-117zM328 563q-47 0 -77 28.5t-30 73.5q0 50 36 84.5t88 34.5q47 0 77 -28.5t30 -73.5q0 -51 -35.5 -85t-88.5 -34zM331 630q20 0 33.5 15t13.5 37q0 35 -36 35q-19 0 -32.5 -15t-13.5 -37q0 -16 9.5 -25.5t25.5 -9.5zM166 -12
q-72 0 -111 35t-39 104q0 90 63 138.5t174 48.5h114l4 24q3 15 3 29q0 33 -17.5 50t-60.5 17q-92 0 -110 -75h-116q22 89 79.5 130.5t157.5 41.5q97 0 142.5 -37t45.5 -112q0 -25 -4 -48l-59 -334h-102l7 61q-70 -73 -171 -73zM202 85q83 0 138 80l12 63h-94
q-121 0 -121 -87q0 -56 65 -56z" />
    <glyph glyph-name="AEacute" unicode="&#x1fc;" horiz-adv-x="900" 
d="M457 746l136 136h143l-162 -136h-117zM-64 0l510 680h481l-19 -107h-308l-31 -174h258l-18 -106h-258l-33 -186h318l-18 -107h-441l27 154h-216l-116 -154h-136zM264 259h159l52 296z" />
    <glyph glyph-name="aeacute" unicode="&#x1fd;" horiz-adv-x="858" 
d="M393 592l136 136h143l-162 -136h-117zM173 -12q-157 0 -157 138q0 90 63.5 139t173.5 49h114l4 23q3 15 3 29q0 34 -17.5 51t-59.5 17q-93 0 -111 -75h-116q41 172 227 172q127 0 159 -78q56 78 178 78q92 0 140.5 -42.5t48.5 -123.5q0 -31 -5 -59l-15 -82h-331l-4 -20
q-3 -18 -3 -34q0 -43 21 -64t70 -21q96 0 117 72h115q-39 -169 -239 -169q-143 0 -186 83q-76 -83 -190 -83zM488 313h217q4 23 4 44q0 77 -89 77q-57 0 -89 -29.5t-43 -91.5zM203 85q87 0 142 87q0 19 5 42l3 14h-95q-121 0 -121 -87q0 -56 66 -56z" />
    <glyph glyph-name="Oslashacute" unicode="&#x1fe;" horiz-adv-x="653" 
d="M602 882l-162 -136h-117l136 136h143zM662 631l-46 -51q15 -38 15 -88q0 -41 -7 -77l-28 -158q-24 -137 -99.5 -203t-211.5 -66q-105 0 -163 40l-35 -40l-67 61l46 51q-15 38 -15 88q0 41 7 77l28 158q24 137 99.5 203t211.5 66q105 0 163 -40l35 40zM179 262
q-3 -14 -5 -41l303 339q-29 25 -91 25q-78 0 -121.5 -40t-58.5 -127zM502 418q3 14 5 40l-303 -339q30 -24 91 -24q78 0 121.5 40t58.5 127z" />
    <glyph glyph-name="oslashacute" unicode="&#x1ff;" horiz-adv-x="562" 
d="M530 728l-162 -136h-117l136 136h143zM549 473l-37 -38q13 -36 13 -77q0 -22 -6 -56l-16 -91q-40 -223 -262 -223q-87 0 -137 32l-32 -32l-59 58l38 39q-13 32 -13 76q0 28 5 57l17 90q22 114 86.5 168.5t175.5 54.5q86 0 136 -32l32 32zM163 215l-3 -19l216 219
q-20 16 -62 16q-58 0 -90.5 -32t-44.5 -98zM399 304l3 20l-216 -220q22 -16 63 -16q113 0 135 130z" />
    <glyph glyph-name="Scommaaccent" unicode="&#x218;" horiz-adv-x="561" 
d="M242 -12q-225 0 -225 161q0 20 5 50h119q-3 -16 -3 -29q0 -79 110 -79q69 0 108 30t39 88q0 32 -29.5 51t-99.5 32q-100 19 -143 55.5t-43 101.5q0 117 72 180t199 63q211 0 211 -157q0 -25 -4 -48h-120q2 10 2 28q0 39 -23.5 56t-72.5 17q-65 0 -103 -30t-38 -83
q0 -30 28.5 -47.5t96.5 -29.5q102 -18 146.5 -56t44.5 -106q0 -123 -72 -185.5t-205 -62.5zM138 -247l9 49q52 0 62 43h-51l16 89h122l-12 -65q-12 -67 -39.5 -91.5t-106.5 -24.5z" />
    <glyph glyph-name="scommaaccent" unicode="&#x219;" horiz-adv-x="501" 
d="M208 -12q-97 0 -146 35t-49 100q0 17 3 33h114q-2 -12 -2 -19q0 -57 88 -57q52 0 82 19t30 55q0 26 -24 39.5t-82 20.5q-85 10 -122.5 41t-37.5 91q0 86 62.5 135.5t168.5 49.5q90 0 136.5 -35.5t46.5 -96.5q0 -15 -3 -31h-115q2 14 2 19q0 52 -75 52q-48 0 -75.5 -19.5
t-27.5 -52.5q0 -25 23.5 -37.5t77.5 -18.5q86 -10 125.5 -42.5t39.5 -95.5q0 -90 -63 -137.5t-177 -47.5zM107 -247l9 49q52 0 62 43h-51l16 89h122l-12 -65q-12 -67 -39.5 -91.5t-106.5 -24.5z" />
    <glyph glyph-name="uni021A" unicode="&#x21a;" horiz-adv-x="517" 
d="M152 0l101 571h-191l19 109h504l-19 -109h-191l-101 -571h-122zM105 -247l9 49q52 0 62 43h-51l16 89h122l-12 -65q-12 -67 -39.5 -91.5t-106.5 -24.5z" />
    <glyph glyph-name="uni021B" unicode="&#x21b;" horiz-adv-x="352" 
d="M197 0q-126 0 -126 115q0 28 5 54l46 257h-82l16 93h84l31 133h110l-23 -133h117l-16 -93h-118l-45 -257q-3 -21 -3 -34q0 -22 11.5 -30t41.5 -8h59l-16 -97h-92zM50 -247l9 49q52 0 62 43h-51l16 89h122l-12 -65q-12 -67 -39.5 -91.5t-106.5 -24.5z" />
    <glyph glyph-name="uni0237" unicode="&#x237;" horiz-adv-x="266" 
d="M-81 -182l17 97h26q28 0 41 12t18 43l97 549h120l-97 -553q-14 -79 -50 -113.5t-107 -34.5h-65z" />
    <glyph glyph-name="uni02BC" unicode="&#x2bc;" horiz-adv-x="168" 
d="M68 524l10 55q50 0 60 46h-48l18 105h120l-15 -88q-11 -64 -41.5 -91t-103.5 -27z" />
    <glyph glyph-name="circumflex" unicode="&#x2c6;" horiz-adv-x="500" 
d="M133 592l142 136h113l93 -136h-105l-52 62l-75 -62h-116z" />
    <glyph glyph-name="caron" unicode="&#x2c7;" horiz-adv-x="500" 
d="M253 592l-93 136h105l52 -62l75 62h116l-142 -136h-113z" />
    <glyph glyph-name="uni02C9" unicode="&#x2c9;" horiz-adv-x="500" 
d="M175 616l15 86h277l-16 -86h-276z" />
    <glyph glyph-name="breve" unicode="&#x2d8;" horiz-adv-x="500" 
d="M314 586q-64 0 -99 33.5t-35 87.5q0 12 1 18h83v-10q0 -48 55 -48q65 0 80 58h85q-13 -66 -58 -102.5t-112 -36.5z" />
    <glyph glyph-name="dotaccent" unicode="&#x2d9;" horiz-adv-x="500" 
d="M249 602l20 113h122l-19 -113h-123z" />
    <glyph glyph-name="ring" unicode="&#x2da;" horiz-adv-x="500" 
d="M316 574q-47 0 -77 28.5t-30 73.5q0 50 36 84.5t88 34.5q47 0 77 -28.5t30 -73.5q0 -51 -35.5 -85t-88.5 -34zM319 641q20 0 33.5 15t13.5 37q0 35 -36 35q-19 0 -32.5 -15t-13.5 -37q0 -16 9.5 -25.5t25.5 -9.5z" />
    <glyph glyph-name="ogonek" unicode="&#x2db;" horiz-adv-x="500" 
d="M198 -204q-110 0 -110 80q0 95 174 171l32 -38q-106 -51 -106 -105q0 -28 38 -28q24 0 56 13l-15 -80q-26 -13 -69 -13z" />
    <glyph glyph-name="tilde" unicode="&#x2dc;" horiz-adv-x="500" 
d="M377 591q-33 0 -74 28q-24 17 -38 17q-29 0 -41 -42h-74q26 129 114 129q39 0 74 -27q22 -17 38 -17q29 0 41 41h74q-26 -129 -114 -129z" />
    <glyph glyph-name="hungarumlaut" unicode="&#x2dd;" horiz-adv-x="500" 
d="M139 592l112 136h135l-139 -136h-108zM334 592l112 136h135l-139 -136h-108z" />
    <glyph glyph-name="gravecomb" unicode="&#x300;" horiz-adv-x="0" 
d="M36 592l-113 136h131l87 -136h-105z" />
    <glyph glyph-name="acutecomb" unicode="&#x301;" horiz-adv-x="0" 
d="M-30 592l136 136h143l-162 -136h-117z" />
    <glyph glyph-name="uni0302" unicode="&#x302;" horiz-adv-x="0" 
d="M-117 592l142 136h113l93 -136h-105l-52 62l-75 -62h-116z" />
    <glyph glyph-name="tildecomb" unicode="&#x303;" horiz-adv-x="0" 
d="M127 591q-33 0 -74 28q-24 17 -38 17q-29 0 -41 -42h-74q26 129 114 129q39 0 74 -27q22 -17 38 -17q29 0 41 41h74q-26 -129 -114 -129z" />
    <glyph glyph-name="uni0304" unicode="&#x304;" horiz-adv-x="0" 
d="M-75 616l15 86h277l-16 -86h-276z" />
    <glyph glyph-name="uni0306" unicode="&#x306;" horiz-adv-x="0" 
d="M64 586q-64 0 -99 33.5t-35 87.5q0 12 1 18h83v-10q0 -48 55 -48q65 0 80 58h85q-13 -66 -58 -102.5t-112 -36.5z" />
    <glyph glyph-name="uni0307" unicode="&#x307;" horiz-adv-x="0" 
d="M-1 602l20 113h122l-19 -113h-123z" />
    <glyph glyph-name="uni0308" unicode="&#x308;" horiz-adv-x="0" 
d="M-95 602l20 113h118l-20 -113h-118zM98 602l20 113h118l-20 -113h-118z" />
    <glyph glyph-name="uni030A" unicode="&#x30a;" horiz-adv-x="0" 
d="M66 574q-47 0 -77 28.5t-30 73.5q0 50 36 84.5t88 34.5q47 0 77 -28.5t30 -73.5q0 -51 -35.5 -85t-88.5 -34zM69 641q20 0 33.5 15t13.5 37q0 35 -36 35q-19 0 -32.5 -15t-13.5 -37q0 -16 9.5 -25.5t25.5 -9.5z" />
    <glyph glyph-name="uni030B" unicode="&#x30b;" horiz-adv-x="0" 
d="M-111 592l112 136h135l-139 -136h-108zM84 592l112 136h135l-139 -136h-108z" />
    <glyph glyph-name="uni030C" unicode="&#x30c;" horiz-adv-x="0" 
d="M3 592l-93 136h105l52 -62l75 62h116l-142 -136h-113z" />
    <glyph glyph-name="uni0312" unicode="&#x312;" horiz-adv-x="0" 
d="M-3 585l12 65q12 67 39.5 91.5t106.5 24.5l-9 -49q-52 0 -62 -43h51l-16 -89h-122z" />
    <glyph glyph-name="uni0326" unicode="&#x326;" horiz-adv-x="0" 
d="M-154 -247l9 49q52 0 62 43h-51l16 89h122l-12 -65q-12 -67 -39.5 -91.5t-106.5 -24.5z" />
    <glyph glyph-name="uni0327" unicode="&#x327;" horiz-adv-x="0" 
d="M-97 -207q-67 0 -112 22l29 51q31 -16 62 -16q54 0 54 32q0 11 -10.5 14.5t-40.5 3.5h-24l65 115h62l-40 -71q90 -1 90 -67q0 -84 -135 -84z" />
    <glyph glyph-name="uni0328" unicode="&#x328;" horiz-adv-x="0" 
d="M-52 -204q-110 0 -110 80q0 95 174 171l32 -38q-106 -51 -106 -105q0 -28 38 -28q24 0 56 13l-15 -80q-26 -13 -69 -13z" />
    <glyph glyph-name="uni0394" unicode="&#x394;" horiz-adv-x="601" 
d="M-41 0l351 680h129l111 -680h-591zM139 105h270l-61 418z" />
    <glyph glyph-name="uni03A9" unicode="&#x3a9;" horiz-adv-x="653" 
d="M16 0l18 104h82q-57 46 -57 140q0 28 6 62l20 115q24 139 100 205t211 66q235 0 235 -199q0 -35 -8 -80l-20 -115q-24 -137 -113 -194h74l-18 -104h-223l17 96q113 34 137 175l25 147q6 33 6 56q0 57 -29.5 84t-92.5 27q-77 0 -120.5 -41t-59.5 -129l-26 -147
q-5 -25 -5 -53q0 -94 81 -119l-17 -96h-223z" />
    <glyph glyph-name="uni03BC" unicode="&#x3bc;" horiz-adv-x="580" 
d="M-5 -182l124 701h120l-58 -332q-4 -20 -4 -35q0 -31 14 -44.5t44 -13.5q79 0 140 95l58 330h120l-92 -519h-102l8 67q-71 -79 -164 -79q-33 0 -57 9l-31 -179h-120z" />
    <glyph glyph-name="pi" unicode="&#x3c0;" horiz-adv-x="598" 
d="M51 0l75 422h-87l17 97h570l-16 -97h-87l-47 -266q-2 -11 -2 -26q0 -19 9.5 -26t34.5 -7h34l-17 -97h-75q-56 0 -82.5 24t-26.5 76q0 30 5 55l47 267h-157l-75 -422h-120z" />
    <glyph glyph-name="Wgrave" unicode="&#x1e80;" horiz-adv-x="871" 
d="M498 746l-113 136h131l87 -136h-105zM136 0l-55 680h123l31 -497l218 497h112l43 -497l206 497h124l-295 -680h-125l-43 483l-212 -483h-127z" />
    <glyph glyph-name="wgrave" unicode="&#x1e81;" horiz-adv-x="788" 
d="M430 592l-113 136h131l87 -136h-105zM118 0l-64 519h123l32 -370l175 370h109l45 -371l163 371h125l-247 -519h-123l-44 357l-169 -357h-125z" />
    <glyph glyph-name="Wacute" unicode="&#x1e82;" horiz-adv-x="871" 
d="M432 746l136 136h143l-162 -136h-117zM136 0l-55 680h123l31 -497l218 497h112l43 -497l206 497h124l-295 -680h-125l-43 483l-212 -483h-127z" />
    <glyph glyph-name="wacute" unicode="&#x1e83;" horiz-adv-x="788" 
d="M364 592l136 136h143l-162 -136h-117zM118 0l-64 519h123l32 -370l175 370h109l45 -371l163 371h125l-247 -519h-123l-44 357l-169 -357h-125z" />
    <glyph glyph-name="Wdieresis" unicode="&#x1e84;" horiz-adv-x="871" 
d="M367 756l20 113h118l-20 -113h-118zM560 756l20 113h118l-20 -113h-118zM136 0l-55 680h123l31 -497l218 497h112l43 -497l206 497h124l-295 -680h-125l-43 483l-212 -483h-127z" />
    <glyph glyph-name="wdieresis" unicode="&#x1e85;" horiz-adv-x="788" 
d="M299 602l20 113h118l-20 -113h-118zM492 602l20 113h118l-20 -113h-118zM118 0l-64 519h123l32 -370l175 370h109l45 -371l163 371h125l-247 -519h-123l-44 357l-169 -357h-125z" />
    <glyph glyph-name="uni1E9E" unicode="&#x1e9e;" horiz-adv-x="638" 
d="M24 0l82 467q19 112 83.5 162.5t185.5 50.5h260l-17 -95l-172 -193q84 -9 120.5 -48t36.5 -117q0 -112 -69 -169.5t-204 -57.5h-113l18 106h98q147 0 147 112q0 43 -25.5 58t-95.5 15h-74l16 91l168 192h-96q-126 0 -146 -113l-81 -461h-122z" />
    <glyph glyph-name="Ygrave" unicode="&#x1ef2;" horiz-adv-x="546" 
d="M336 746l-113 136h131l87 -136h-105zM166 0l51 287l-162 393h133l109 -271l203 271h138l-299 -393l-51 -287h-122z" />
    <glyph glyph-name="ygrave" unicode="&#x1ef3;" horiz-adv-x="486" 
d="M278 592l-113 136h131l87 -136h-105zM-19 -182l17 97h50q27 0 41 10.5t28 37.5l28 55l-93 501h124l54 -353l170 353h125l-295 -576q-38 -75 -75 -100t-106 -25h-68z" />
    <glyph glyph-name="uni2002" unicode="&#x2002;" horiz-adv-x="500" 
 />
    <glyph glyph-name="uni2003" unicode="&#x2003;" horiz-adv-x="900" 
 />
    <glyph glyph-name="uni2007" unicode="&#x2007;" horiz-adv-x="599" 
 />
    <glyph glyph-name="uni2008" unicode="&#x2008;" horiz-adv-x="286" 
 />
    <glyph glyph-name="uni200B" unicode="&#x200b;" horiz-adv-x="0" 
 />
    <glyph glyph-name="figuredash" unicode="&#x2012;" horiz-adv-x="599" 
d="M28 247l17 97h539l-17 -97h-539z" />
    <glyph glyph-name="endash" unicode="&#x2013;" horiz-adv-x="500" 
d="M28 247l17 97h440l-17 -97h-440z" />
    <glyph glyph-name="emdash" unicode="&#x2014;" horiz-adv-x="900" 
d="M28 247l17 97h840l-17 -97h-840z" />
    <glyph glyph-name="quoteleft" unicode="&#x2018;" horiz-adv-x="263" 
d="M91 409l23 130q14 80 51.5 116t110.5 37l-13 -68q-24 -1 -42 -18t-24 -47l-4 -22h49l-22 -128h-129z" />
    <glyph glyph-name="quoteright" unicode="&#x2019;" horiz-adv-x="263" 
d="M87 397l13 67q24 1 42 18.5t24 47.5l4 22h-49l22 128h129l-23 -130q-14 -80 -51.5 -116t-110.5 -37z" />
    <glyph glyph-name="quotesinglbase" unicode="&#x201a;" horiz-adv-x="263" 
d="M-10 -155l13 67q24 1 42 18.5t24 47.5l4 22h-49l22 128h129l-23 -130q-14 -80 -51.5 -116t-110.5 -37z" />
    <glyph glyph-name="quotedblleft" unicode="&#x201c;" horiz-adv-x="475" 
d="M91 409l23 130q14 80 51.5 116t110.5 37l-13 -68q-24 -1 -42 -18t-24 -47l-4 -22h49l-22 -128h-129zM303 409l23 130q14 80 51.5 116t110.5 37l-13 -68q-24 -1 -42 -18t-24 -47l-4 -22h49l-22 -128h-129z" />
    <glyph glyph-name="quotedblright" unicode="&#x201d;" horiz-adv-x="475" 
d="M87 397l13 67q24 1 42 18.5t24 47.5l4 22h-49l22 128h129l-23 -130q-14 -80 -51.5 -116t-110.5 -37zM299 397l13 67q24 1 42 18.5t24 47.5l4 22h-49l22 128h129l-23 -130q-14 -80 -51.5 -116t-110.5 -37z" />
    <glyph glyph-name="quotedblbase" unicode="&#x201e;" horiz-adv-x="475" 
d="M-10 -155l13 67q24 1 42 18.5t24 47.5l4 22h-49l22 128h129l-23 -130q-14 -80 -51.5 -116t-110.5 -37zM202 -155l13 67q24 1 42 18.5t24 47.5l4 22h-49l22 128h129l-23 -130q-14 -80 -51.5 -116t-110.5 -37z" />
    <glyph glyph-name="dagger" unicode="&#x2020;" horiz-adv-x="603" 
d="M163 -182l93 528l-205 -9l20 116l202 -9l42 236h119l-42 -236l206 9l-20 -116l-203 9l-93 -528h-119z" />
    <glyph glyph-name="daggerdbl" unicode="&#x2021;" horiz-adv-x="603" 
d="M163 -182l38 215l-204 -8l20 116l201 -9l42 234l-205 -9l20 116l202 -8l38 215h119l-38 -216l207 9l-21 -116l-203 9l-42 -234l207 9l-20 -116l-204 9l-38 -216h-119z" />
    <glyph glyph-name="bullet" unicode="&#x2022;" horiz-adv-x="500" 
d="M118 175l42 240h236l-42 -240h-236z" />
    <glyph glyph-name="ellipsis" unicode="&#x2026;" horiz-adv-x="900" 
d="M40 0l22 130h131l-23 -130h-130zM340 0l22 130h131l-23 -130h-130zM640 0l22 130h131l-23 -130h-130z" />
    <glyph glyph-name="perthousand" unicode="&#x2030;" horiz-adv-x="1124" 
d="M202 312q-67 0 -101.5 27.5t-34.5 79.5q0 15 3 31l20 111q24 131 164 131q135 0 135 -107q0 -15 -3 -32l-19 -111q-22 -130 -164 -130zM92 -12l529 704h94l-529 -704h-94zM204 389q62 0 72 60l18 105q2 12 2 22q0 39 -47 39q-61 0 -71 -60l-19 -106q-2 -12 -2 -21
q0 -39 47 -39zM553 -12q-67 0 -101.5 27.5t-34.5 79.5q0 15 3 32l20 110q24 131 164 131q135 0 135 -107q0 -15 -3 -31l-19 -112q-22 -130 -164 -130zM899 -12q-67 0 -101.5 27.5t-34.5 79.5q0 15 3 32l20 110q24 131 164 131q135 0 135 -107q0 -15 -3 -31l-19 -112
q-22 -130 -164 -130zM556 65q62 0 72 60l18 106q2 12 2 21q0 39 -47 39q-61 0 -71 -60l-19 -105q-2 -12 -2 -22q0 -39 47 -39zM902 65q62 0 72 60l18 106q2 12 2 21q0 39 -47 39q-61 0 -71 -60l-19 -105q-2 -12 -2 -22q0 -39 47 -39z" />
    <glyph glyph-name="guilsinglleft" unicode="&#x2039;" horiz-adv-x="293" 
d="M126 82l-107 181l164 176h132l-175 -188l100 -169h-114z" />
    <glyph glyph-name="guilsinglright" unicode="&#x203a;" horiz-adv-x="293" 
d="M-22 80l176 188l-101 169h114l108 -181l-164 -176h-133z" />
    <glyph glyph-name="fraction" unicode="&#x2044;" horiz-adv-x="111" 
d="M-222 -12l490 704h92l-490 -704h-92z" />
    <glyph glyph-name="uni2070" unicode="&#x2070;" 
d="M215 404q-65 0 -99 27.5t-34 79.5q0 15 3 32l27 150q23 129 163 129q65 0 99.5 -27.5t34.5 -79.5q0 -15 -3 -32l-27 -150q-23 -129 -164 -129zM219 481q59 0 70 62l25 142q2 12 2 19q0 41 -45 41q-60 0 -71 -62l-25 -142q-2 -12 -2 -19q0 -41 46 -41z" />
    <glyph glyph-name="uni2074" unicode="&#x2074;" 
d="M241 416l15 83h-188l13 79l224 232h96l-42 -238h44l-14 -73h-42l-15 -83h-91zM169 572h99l23 130z" />
    <glyph glyph-name="uni2075" unicode="&#x2075;" 
d="M213 404q-64 0 -98 26.5t-34 71.5q0 6 2 20h86v-5q0 -36 49 -36q36 0 56.5 20t20.5 52q0 44 -47 44q-40 0 -66 -21h-77l54 234h253l-14 -79h-179l-19 -78q34 18 77 18q109 0 109 -109q0 -73 -45 -115.5t-128 -42.5z" />
    <glyph glyph-name="uni2076" unicode="&#x2076;" 
d="M217 404q-64 0 -98.5 28.5t-34.5 78.5q0 15 3 31l26 147q23 133 166 133q65 0 98.5 -26.5t33.5 -67.5q0 -10 -2 -22h-86v6q0 33 -45 33q-64 0 -76 -66l-6 -35q35 26 85 26q105 0 105 -108q0 -72 -44.5 -115t-124.5 -43zM223 481q35 0 53.5 22.5t18.5 55.5q0 20 -9 29
t-31 9q-48 0 -75 -42l-3 -14q-2 -12 -2 -18q0 -42 48 -42z" />
    <glyph glyph-name="uni2077" unicode="&#x2077;" 
d="M114 416q44 198 202 314h-202l14 80h303l-15 -84q-87 -68 -136 -141.5t-70 -168.5h-96z" />
    <glyph glyph-name="uni2078" unicode="&#x2078;" 
d="M212 404q-141 0 -141 105q0 84 83 113v2q-39 21 -39 74q0 59 44 91.5t118 32.5q132 0 132 -102q0 -74 -70 -101v-2q47 -22 47 -85q0 -62 -46.5 -95t-127.5 -33zM248 653q34 0 52.5 16t18.5 41q0 35 -47 35q-34 0 -52.5 -15t-18.5 -41q0 -36 47 -36zM217 481q80 0 80 58
q0 39 -54 39q-38 0 -59 -16t-21 -44q0 -37 54 -37z" />
    <glyph glyph-name="uni2079" unicode="&#x2079;" 
d="M210 404q-65 0 -98 26t-33 68q0 10 2 22h86v-6q0 -33 45 -33q64 0 76 66l6 35q-35 -26 -85 -26q-105 0 -105 108q0 72 44.5 115t124.5 43q64 0 98.5 -28.5t34.5 -78.5q0 -15 -3 -31l-26 -147q-23 -133 -167 -133zM235 629q47 0 74 40l3 16q2 12 2 18q0 42 -48 42
q-35 0 -53.5 -22.5t-18.5 -55.5q0 -38 41 -38z" />
    <glyph glyph-name="uni2080" unicode="&#x2080;" 
d="M121 -132q-65 0 -99 27.5t-34 79.5q0 15 3 32l27 150q23 129 163 129q65 0 99.5 -27.5t34.5 -79.5q0 -15 -3 -32l-27 -150q-23 -129 -164 -129zM125 -55q59 0 70 62l25 142q2 12 2 19q0 41 -45 41q-60 0 -71 -62l-25 -142q-2 -12 -2 -19q0 -41 46 -41z" />
    <glyph glyph-name="uni2081" unicode="&#x2081;" 
d="M4 -120l13 77h91l37 209q-38 -12 -105 -12l12 69q77 3 117 51h86l-56 -317h88l-13 -77h-270z" />
    <glyph glyph-name="uni2082" unicode="&#x2082;" 
d="M-31 -120l8 47q10 56 46.5 95t107.5 68q92 38 92 84q0 35 -44 35q-60 0 -70 -59l-1 -6h-85l3 19q19 123 159 123q128 0 128 -106q0 -53 -36.5 -91.5t-116.5 -73.5q-42 -18 -60.5 -30t-24.5 -26h200l-13 -79h-293z" />
    <glyph glyph-name="uni2083" unicode="&#x2083;" 
d="M121 -132q-65 0 -99.5 25.5t-34.5 69.5q0 17 2 26l2 12h86l-1 -6q-1 -6 -1 -10q0 -40 49 -40q36 0 55 17t19 44q0 20 -13 28t-44 8h-45l13 74h40q32 0 51.5 15.5t19.5 41.5q0 36 -43 36q-28 0 -45.5 -12.5t-21.5 -34.5l-1 -6h-85l3 15q21 115 156 115q128 0 128 -102
q0 -75 -67 -100v-2q45 -20 45 -80q0 -62 -44.5 -98t-123.5 -36z" />
    <glyph glyph-name="uni2084" unicode="&#x2084;" 
d="M146 -120l15 83h-188l13 79l224 232h96l-42 -238h44l-14 -73h-42l-15 -83h-91zM74 36h99l23 130z" />
    <glyph glyph-name="uni2085" unicode="&#x2085;" 
d="M118 -132q-64 0 -98 26.5t-34 71.5q0 6 2 20h86v-5q0 -36 49 -36q36 0 56.5 20t20.5 52q0 44 -47 44q-40 0 -66 -21h-77l54 234h253l-14 -79h-179l-19 -78q35 18 77 18q109 0 109 -109q0 -73 -45 -115.5t-128 -42.5z" />
    <glyph glyph-name="uni2086" unicode="&#x2086;" 
d="M123 -132q-64 0 -98.5 28.5t-34.5 78.5q0 15 3 31l26 147q23 133 166 133q65 0 98.5 -26.5t33.5 -67.5q0 -10 -2 -22h-86v6q0 33 -45 33q-64 0 -76 -66l-6 -35q35 26 85 26q105 0 105 -108q0 -72 -44.5 -115t-124.5 -43zM129 -55q35 0 53.5 22.5t18.5 55.5q0 20 -9 29
t-31 9q-48 0 -75 -42l-3 -14q-2 -12 -2 -18q0 -42 48 -42z" />
    <glyph glyph-name="uni2087" unicode="&#x2087;" 
d="M19 -120q44 198 202 314h-202l14 80h303l-15 -84q-87 -68 -136 -141.5t-70 -168.5h-96z" />
    <glyph glyph-name="uni2088" unicode="&#x2088;" 
d="M118 -132q-141 0 -141 105q0 84 83 113v2q-39 21 -39 74q0 59 44 91.5t118 32.5q132 0 132 -102q0 -74 -70 -101v-2q47 -22 47 -85q0 -62 -46.5 -95t-127.5 -33zM154 117q34 0 52.5 16t18.5 41q0 35 -47 35q-34 0 -52.5 -15t-18.5 -41q0 -36 47 -36zM123 -55q80 0 80 58
q0 39 -54 39q-38 0 -59 -16t-21 -44q0 -37 54 -37z" />
    <glyph glyph-name="uni2089" unicode="&#x2089;" 
d="M116 -132q-65 0 -98 26t-33 68q0 10 2 22h86v-6q0 -33 45 -33q64 0 76 66l6 35q-35 -26 -85 -26q-105 0 -105 108q0 72 44.5 115t124.5 43q64 0 98.5 -28.5t34.5 -78.5q0 -15 -3 -31l-26 -147q-23 -133 -167 -133zM141 93q47 0 74 40l3 16q2 12 2 18q0 42 -48 42
q-35 0 -53.5 -22.5t-18.5 -55.5q0 -38 41 -38z" />
    <glyph glyph-name="Euro" unicode="&#x20ac;" horiz-adv-x="599" 
d="M285 -12q-207 0 -207 179q0 29 5 56l1 6h-48l14 79h48l12 64h-49l14 79h49l2 14q40 227 269 227q200 0 200 -173q0 -27 -2 -42h-113q2 18 2 26q0 85 -95 85q-121 0 -144 -127l-2 -10h192l-28 -79h-178l-11 -64h166l-27 -79h-153l-2 -12q-3 -21 -3 -37q0 -88 97 -88
q113 0 137 111h113q-43 -215 -259 -215z" />
    <glyph glyph-name="uni20B9" unicode="&#x20b9;" horiz-adv-x="599" 
d="M310 0l-244 255l14 78h111q139 0 174 98h-282l32 85h260q-3 43 -31.5 61t-93.5 18h-138l32 85h495l-32 -85h-148q27 -30 33 -79h118l-32 -85h-90q-34 -167 -257 -182l239 -249h-160z" />
    <glyph glyph-name="uni2113" unicode="&#x2113;" horiz-adv-x="477" 
d="M224 -12q-171 0 -171 152q0 28 6 59l60 345q34 198 214 198q151 0 151 -142q0 -212 -304 -389l-3 -17q-3 -18 -3 -31q0 -69 77 -69q59 0 124 47l31 -94q-79 -59 -182 -59zM202 338q173 118 173 247q0 26 -10 39.5t-38 13.5q-72 0 -90 -103z" />
    <glyph glyph-name="uni2116" unicode="&#x2116;" horiz-adv-x="1072" 
d="M37 0l120 680h130l189 -484l85 484h116l-120 -680h-116l-198 509l-90 -509h-116zM843 151q-147 0 -147 121q0 22 4 42l11 62q14 81 58.5 119.5t125.5 38.5q147 0 147 -122q0 -21 -4 -41l-11 -63q-14 -81 -58.5 -119t-125.5 -38zM846 228q72 0 87 83l12 65q3 17 3 29
q0 52 -56 52q-72 0 -87 -83l-12 -66q-3 -15 -3 -28q0 -52 56 -52zM647 0l14 78h322l-14 -78h-322z" />
    <glyph glyph-name="uni2117" unicode="&#x2117;" horiz-adv-x="766" 
d="M396 -12q-153 0 -252.5 99.5t-99.5 252.5t99.5 252.5t252.5 99.5t252.5 -99.5t99.5 -252.5t-99.5 -252.5t-252.5 -99.5zM396 67q119 0 192 75t73 198t-73 198t-192 75q-120 0 -192.5 -75t-72.5 -198t72.5 -198t192.5 -75zM271 162v356h153q73 0 106 -28.5t33 -90.5
t-33 -90.5t-106 -28.5h-63v-118h-90zM361 353h54q31 0 44.5 10.5t13.5 35.5t-13.5 35.5t-44.5 10.5h-54v-92z" />
    <glyph glyph-name="uni2120" unicode="&#x2120;" horiz-adv-x="708" 
d="M156 344q-111 0 -111 80q0 11 2 25h76q-1 -5 -1 -14q0 -30 37 -30q26 0 41 11.5t15 29.5q0 15 -11 23t-43 16q-48 13 -67.5 32.5t-19.5 54.5q0 53 34.5 84.5t97.5 31.5q51 0 78 -21t27 -60q0 -14 -1 -21h-76q1 4 1 12q0 29 -33 29q-23 0 -36.5 -11t-13.5 -30
q0 -15 11 -23.5t42 -15.5q48 -11 68 -31.5t20 -57.5q0 -55 -35 -84.5t-102 -29.5zM336 352l58 328h109l29 -207l100 207h118l-58 -328h-78l42 237l-117 -237h-54l-34 240l-42 -240h-73z" />
    <glyph glyph-name="trademark" unicode="&#x2122;" horiz-adv-x="688" 
d="M102 352l46 262h-86l12 66h249l-11 -66h-86l-46 -262h-78zM317 352l58 328h109l29 -205l99 205h118l-58 -328h-78l42 237l-117 -237h-53l-34 240l-42 -240h-73z" />
    <glyph glyph-name="uni2126" unicode="&#x2126;" horiz-adv-x="653" 
d="M16 0l18 104h82q-57 46 -57 140q0 28 6 62l20 115q24 139 100 205t211 66q235 0 235 -199q0 -35 -8 -80l-20 -115q-24 -137 -113 -194h74l-18 -104h-223l17 96q113 34 137 175l25 147q6 33 6 56q0 57 -29.5 84t-92.5 27q-77 0 -120.5 -41t-59.5 -129l-26 -147
q-5 -25 -5 -53q0 -94 81 -119l-17 -96h-223z" />
    <glyph glyph-name="estimated" unicode="&#x212e;" horiz-adv-x="796" 
d="M419 -12q-154 0 -262.5 103t-108.5 249t108.5 249t262.5 103t262.5 -103t108.5 -249v-9h-601q-5 0 -5 -5v-191q0 -10 9 -21q89 -105 228 -105q69 0 132 31.5t107 85.5h54q-52 -64 -129.5 -101t-165.5 -37zM189 351h461q6 0 6 6v193q0 12 -10 22q-94 99 -225 99
q-135 0 -228 -103q-9 -11 -9 -22v-190q0 -5 5 -5z" />
    <glyph glyph-name="uni2153" unicode="&#x2153;" horiz-adv-x="843" 
d="M144 -12l490 704h92l-490 -704h-92zM76 286l13 77h91l37 209q-38 -12 -105 -12l12 69q77 3 117 51h86l-56 -317h88l-13 -77h-270zM619 -12q-65 0 -99.5 25.5t-34.5 69.5q0 17 2 26l2 12h86l-1 -6q-1 -6 -1 -10q0 -40 49 -40q36 0 55 17t19 44q0 20 -13 28t-44 8h-45
l13 74h40q32 0 51.5 15.5t19.5 41.5q0 36 -43 36q-28 0 -45.5 -12.5t-21.5 -34.5l-1 -6h-85l3 15q21 115 156 115q128 0 128 -102q0 -75 -67 -100v-2q45 -20 45 -80q0 -62 -44.5 -98t-123.5 -36z" />
    <glyph glyph-name="uni2154" unicode="&#x2154;" horiz-adv-x="843" 
d="M41 286l8 47q10 56 46.5 95t107.5 68q92 38 92 84q0 35 -44 35q-60 0 -70 -59l-1 -6h-85l3 19q19 123 159 123q128 0 128 -106q0 -53 -36.5 -91.5t-116.5 -73.5q-42 -18 -60.5 -30t-24.5 -26h200l-13 -79h-293zM144 -12l490 704h92l-490 -704h-92zM619 -12
q-65 0 -99.5 25.5t-34.5 69.5q0 17 2 26l2 12h86l-1 -6q-1 -6 -1 -10q0 -40 49 -40q36 0 55 17t19 44q0 20 -13 28t-44 8h-45l13 74h40q32 0 51.5 15.5t19.5 41.5q0 36 -43 36q-28 0 -45.5 -12.5t-21.5 -34.5l-1 -6h-85l3 15q21 115 156 115q128 0 128 -102q0 -75 -67 -100
v-2q45 -20 45 -80q0 -62 -44.5 -98t-123.5 -36z" />
    <glyph glyph-name="uni2155" unicode="&#x2155;" horiz-adv-x="843" 
d="M144 -12l490 704h92l-490 -704h-92zM76 286l13 77h91l37 209q-38 -12 -105 -12l12 69q77 3 117 51h86l-56 -317h88l-13 -77h-270zM616 -12q-64 0 -98 26.5t-34 71.5q0 6 2 20h86v-5q0 -36 49 -36q36 0 56.5 20t20.5 52q0 44 -47 44q-40 0 -66 -21h-77l54 234h253l-14 -79
h-179l-19 -78q35 18 77 18q109 0 109 -109q0 -73 -45 -115.5t-128 -42.5z" />
    <glyph glyph-name="uni2156" unicode="&#x2156;" horiz-adv-x="843" 
d="M41 286l8 47q10 56 46.5 95t107.5 68q92 38 92 84q0 35 -44 35q-60 0 -70 -59l-1 -6h-85l3 19q19 123 159 123q128 0 128 -106q0 -53 -36.5 -91.5t-116.5 -73.5q-42 -18 -60.5 -30t-24.5 -26h200l-13 -79h-293zM144 -12l490 704h92l-490 -704h-92zM616 -12
q-64 0 -98 26.5t-34 71.5q0 6 2 20h86v-5q0 -36 49 -36q36 0 56.5 20t20.5 52q0 44 -47 44q-40 0 -66 -21h-77l54 234h253l-14 -79h-179l-19 -78q35 18 77 18q109 0 109 -109q0 -73 -45 -115.5t-128 -42.5z" />
    <glyph glyph-name="uni2157" unicode="&#x2157;" horiz-adv-x="843" 
d="M192 274q-65 0 -99.5 25.5t-34.5 69.5q0 17 2 26l2 12h86l-1 -6q-1 -6 -1 -10q0 -40 49 -40q36 0 55 17t19 44q0 20 -13 28t-44 8h-45l13 74h40q32 0 51.5 15.5t19.5 41.5q0 36 -43 36q-28 0 -45.5 -12.5t-21.5 -34.5l-1 -6h-85l3 15q21 115 156 115q128 0 128 -102
q0 -75 -67 -100v-2q45 -20 45 -80q0 -62 -44.5 -98t-123.5 -36zM144 -12l490 704h92l-490 -704h-92zM616 -12q-64 0 -98 26.5t-34 71.5q0 6 2 20h86v-5q0 -36 49 -36q36 0 56.5 20t20.5 52q0 44 -47 44q-40 0 -66 -21h-77l54 234h253l-14 -79h-179l-19 -78q35 18 77 18
q109 0 109 -109q0 -73 -45 -115.5t-128 -42.5z" />
    <glyph glyph-name="uni2158" unicode="&#x2158;" horiz-adv-x="843" 
d="M144 -12l490 704h92l-490 -704h-92zM218 286l15 83h-188l13 79l224 232h96l-42 -238h44l-14 -73h-42l-15 -83h-91zM146 442h99l23 130zM616 -12q-64 0 -98 26.5t-34 71.5q0 6 2 20h86v-5q0 -36 49 -36q36 0 56.5 20t20.5 52q0 44 -47 44q-40 0 -66 -21h-77l54 234h253
l-14 -79h-179l-19 -78q35 18 77 18q109 0 109 -109q0 -73 -45 -115.5t-128 -42.5z" />
    <glyph glyph-name="uni2159" unicode="&#x2159;" horiz-adv-x="843" 
d="M144 -12l490 704h92l-490 -704h-92zM76 286l13 77h91l37 209q-38 -12 -105 -12l12 69q77 3 117 51h86l-56 -317h88l-13 -77h-270zM621 -12q-64 0 -98.5 28.5t-34.5 78.5q0 15 3 31l26 147q23 133 166 133q65 0 98.5 -26.5t33.5 -67.5q0 -10 -2 -22h-86v6q0 33 -45 33
q-64 0 -76 -66l-6 -35q35 26 85 26q105 0 105 -108q0 -72 -44.5 -115t-124.5 -43zM627 65q35 0 53.5 22.5t18.5 55.5q0 20 -9 29t-31 9q-48 0 -75 -42l-3 -14q-2 -12 -2 -18q0 -42 48 -42z" />
    <glyph glyph-name="uni215A" unicode="&#x215a;" horiz-adv-x="843" 
d="M144 -12l490 704h92l-490 -704h-92zM190 274q-64 0 -98 26.5t-34 71.5q0 6 2 20h86v-5q0 -36 49 -36q36 0 56.5 20t20.5 52q0 44 -47 44q-40 0 -66 -21h-77l54 234h253l-14 -79h-179l-19 -78q34 18 77 18q109 0 109 -109q0 -73 -45 -115.5t-128 -42.5zM621 -12
q-64 0 -98.5 28.5t-34.5 78.5q0 15 3 31l26 147q23 133 166 133q65 0 98.5 -26.5t33.5 -67.5q0 -10 -2 -22h-86v6q0 33 -45 33q-64 0 -76 -66l-6 -35q35 26 85 26q105 0 105 -108q0 -72 -44.5 -115t-124.5 -43zM627 65q35 0 53.5 22.5t18.5 55.5q0 20 -9 29t-31 9
q-48 0 -75 -42l-3 -14q-2 -12 -2 -18q0 -42 48 -42z" />
    <glyph glyph-name="oneeighth" unicode="&#x215b;" horiz-adv-x="843" 
d="M144 -12l490 704h92l-490 -704h-92zM76 286l13 77h91l37 209q-38 -12 -105 -12l12 69q77 3 117 51h86l-56 -317h88l-13 -77h-270zM616 -12q-141 0 -141 105q0 84 83 113v2q-39 21 -39 74q0 59 44 91.5t118 32.5q132 0 132 -102q0 -74 -70 -101v-2q47 -22 47 -85
q0 -62 -46.5 -95t-127.5 -33zM652 237q34 0 52.5 16t18.5 41q0 35 -47 35q-34 0 -52.5 -15t-18.5 -41q0 -36 47 -36zM621 65q80 0 80 58q0 39 -54 39q-38 0 -59 -16t-21 -44q0 -37 54 -37z" />
    <glyph glyph-name="threeeighths" unicode="&#x215c;" horiz-adv-x="843" 
d="M192 274q-65 0 -99.5 25.5t-34.5 69.5q0 17 2 26l2 12h86l-1 -6q-1 -6 -1 -10q0 -40 49 -40q36 0 55 17t19 44q0 20 -13 28t-44 8h-45l13 74h40q32 0 51.5 15.5t19.5 41.5q0 36 -43 36q-28 0 -45.5 -12.5t-21.5 -34.5l-1 -6h-85l3 15q21 115 156 115q128 0 128 -102
q0 -75 -67 -100v-2q45 -20 45 -80q0 -62 -44.5 -98t-123.5 -36zM144 -12l490 704h92l-490 -704h-92zM616 -12q-141 0 -141 105q0 84 83 113v2q-39 21 -39 74q0 59 44 91.5t118 32.5q132 0 132 -102q0 -74 -70 -101v-2q47 -22 47 -85q0 -62 -46.5 -95t-127.5 -33zM652 237
q34 0 52.5 16t18.5 41q0 35 -47 35q-34 0 -52.5 -15t-18.5 -41q0 -36 47 -36zM621 65q80 0 80 58q0 39 -54 39q-38 0 -59 -16t-21 -44q0 -37 54 -37z" />
    <glyph glyph-name="fiveeighths" unicode="&#x215d;" horiz-adv-x="843" 
d="M144 -12l490 704h92l-490 -704h-92zM190 274q-64 0 -98 26.5t-34 71.5q0 6 2 20h86v-5q0 -36 49 -36q36 0 56.5 20t20.5 52q0 44 -47 44q-40 0 -66 -21h-77l54 234h253l-14 -79h-179l-19 -78q34 18 77 18q109 0 109 -109q0 -73 -45 -115.5t-128 -42.5zM616 -12
q-141 0 -141 105q0 84 83 113v2q-39 21 -39 74q0 59 44 91.5t118 32.5q132 0 132 -102q0 -74 -70 -101v-2q47 -22 47 -85q0 -62 -46.5 -95t-127.5 -33zM652 237q34 0 52.5 16t18.5 41q0 35 -47 35q-34 0 -52.5 -15t-18.5 -41q0 -36 47 -36zM621 65q80 0 80 58q0 39 -54 39
q-38 0 -59 -16t-21 -44q0 -37 54 -37z" />
    <glyph glyph-name="seveneighths" unicode="&#x215e;" horiz-adv-x="843" 
d="M117 -12l490 704h92l-490 -704h-92zM91 286q44 198 202 314h-202l14 80h303l-15 -84q-87 -68 -136 -141.5t-70 -168.5h-96zM616 -12q-141 0 -141 105q0 84 83 113v2q-39 21 -39 74q0 59 44 91.5t118 32.5q132 0 132 -102q0 -74 -70 -101v-2q47 -22 47 -85
q0 -62 -46.5 -95t-127.5 -33zM652 237q34 0 52.5 16t18.5 41q0 35 -47 35q-34 0 -52.5 -15t-18.5 -41q0 -36 47 -36zM621 65q80 0 80 58q0 39 -54 39q-38 0 -59 -16t-21 -44q0 -37 54 -37z" />
    <glyph glyph-name="arrowleft" unicode="&#x2190;" horiz-adv-x="800" 
d="M385 22l-318 318l318 318l66 -66l-203 -200h511v-104h-511l203 -200z" />
    <glyph glyph-name="arrowup" unicode="&#x2191;" horiz-adv-x="800" 
d="M361 0v508l-203 -206l-66 66l324 324l324 -324l-66 -66l-204 207v-509h-109z" />
    <glyph glyph-name="arrowright" unicode="&#x2192;" horiz-adv-x="800" 
d="M442 23l-66 66l203 200h-511v104h511l-203 200l66 66l318 -318z" />
    <glyph glyph-name="arrowdown" unicode="&#x2193;" horiz-adv-x="800" 
d="M413 -12l-324 324l66 66l203 -206v508h109v-509l204 207l66 -66z" />
    <glyph glyph-name="arrowboth" unicode="&#x2194;" horiz-adv-x="1000" 
d="M364 42l-297 298l297 298l66 -66l-182 -180h530l-182 180l66 66l297 -298l-297 -298l-66 66l182 180h-530l182 -180z" />
    <glyph glyph-name="arrowupdn" unicode="&#x2195;" horiz-adv-x="800" 
d="M414 -84l-295 295l66 66l174 -176v478l-174 -176l-66 66l295 295l295 -295l-66 -66l-175 177v-480l175 177l66 -66z" />
    <glyph glyph-name="uni2196" unicode="&#x2196;" horiz-adv-x="800" 
d="M634 44l-395 396l2 -281h-96v449h448v-90l-285 1l401 -401z" />
    <glyph glyph-name="uni2197" unicode="&#x2197;" horiz-adv-x="800" 
d="M188 44l-74 74l400 401l-285 -1v90h449v-449h-96l2 281z" />
    <glyph glyph-name="uni2198" unicode="&#x2198;" horiz-adv-x="800" 
d="M234 72v90l285 -1l-400 401l74 74l396 -396l-2 281h96v-449h-449z" />
    <glyph glyph-name="uni2199" unicode="&#x2199;" horiz-adv-x="800" 
d="M150 72v449h96l-2 -281l395 396l75 -74l-401 -401l285 1v-90h-448z" />
    <glyph glyph-name="partialdiff" unicode="&#x2202;" horiz-adv-x="602" 
d="M214 -12q-90 0 -138.5 48.5t-48.5 136.5q0 121 80 209.5t201 88.5q104 0 148 -75q8 53 8 96q0 77 -28.5 113.5t-104.5 36.5q-77 0 -142 -41l19 106q58 35 154 35q123 0 172.5 -59t49.5 -180q0 -93 -24 -183t-69 -165t-117 -121t-160 -46zM231 88q64 0 113.5 51t80.5 134
q-7 47 -35 72.5t-74 25.5q-74 0 -121.5 -59.5t-47.5 -132.5q0 -91 84 -91z" />
    <glyph glyph-name="emptyset" unicode="&#x2205;" horiz-adv-x="823" 
d="M142 -12l-70 70l68 68q-68 93 -68 214q0 151 101 251.5t252 100.5q121 0 213 -68l68 68l71 -70l-68 -68q68 -92 68 -214q0 -151 -100.5 -251.5t-251.5 -100.5q-122 0 -215 68zM213 199l354 354q-61 41 -142 41q-110 0 -180 -71t-70 -183q0 -79 38 -141zM425 86
q110 0 180 71t70 183q0 79 -38 142l-356 -355q63 -41 144 -41z" />
    <glyph glyph-name="uni2206" unicode="&#x2206;" horiz-adv-x="601" 
d="M-41 0l351 680h129l111 -680h-591zM139 105h270l-61 418z" />
    <glyph glyph-name="product" unicode="&#x220f;" horiz-adv-x="773" 
d="M9 -183l168 954h599l-168 -954h-114l150 850h-371l-150 -850h-114z" />
    <glyph glyph-name="summation" unicode="&#x2211;" horiz-adv-x="624" 
d="M-54 -183l19 107l363 371l-233 369l19 107h577l-17 -103h-443l240 -383l-356 -365h427l-18 -103h-578z" />
    <glyph glyph-name="minus" unicode="&#x2212;" horiz-adv-x="599" 
d="M54 260l18 98h491l-18 -98h-491z" />
    <glyph glyph-name="uni2215" unicode="&#x2215;" horiz-adv-x="411" 
d="M-59 -12l439 704h119l-439 -704h-119z" />
    <glyph glyph-name="uni2219" unicode="&#x2219;" horiz-adv-x="286" 
d="M75 243l23 130h131l-23 -130h-131z" />
    <glyph glyph-name="radical" unicode="&#x221a;" horiz-adv-x="599" 
d="M156 -183l-41 330h-81l18 98h149l31 -266l364 792h110l-444 -954h-106z" />
    <glyph glyph-name="infinity" unicode="&#x221e;" horiz-adv-x="913" 
d="M232 102q-85 0 -130 47.5t-45 131.5q0 106 67.5 180t175.5 74q72 0 113.5 -34t69.5 -93q57 69 107 98t113 29q83 0 128.5 -46.5t45.5 -131.5q0 -106 -67 -180.5t-175 -74.5q-72 0 -114 33.5t-70 92.5q-56 -69 -106 -97.5t-113 -28.5zM641 202q57 0 94 45t37 103
q0 88 -92 88q-44 0 -79.5 -25.5t-82.5 -91.5q24 -59 50 -89t73 -30zM254 200q45 0 79.5 24.5t82.5 91.5q-24 59 -50 89t-73 30q-58 0 -94.5 -45t-36.5 -104q0 -86 92 -86z" />
    <glyph glyph-name="integral" unicode="&#x222b;" horiz-adv-x="316" 
d="M-16 -194q-33 0 -71 10l16 95q20 -10 43 -10q37 0 58 23.5t31 76.5l106 600q18 99 61 141.5t116 42.5q27 0 72 -9l-17 -96q-21 10 -43 10q-72 0 -90 -100l-106 -600q-17 -96 -60 -140t-116 -44z" />
    <glyph glyph-name="approxequal" unicode="&#x2248;" horiz-adv-x="599" 
d="M421 321q-65 0 -124 52q-41 36 -73 36q-60 0 -77 -76h-88q33 175 175 175q63 0 123 -52q41 -36 73 -36q61 0 78 76h87q-32 -175 -174 -175zM379 89q-65 0 -124 52q-41 36 -73 36q-60 0 -77 -76h-88q33 175 175 175q63 0 123 -52q41 -36 73 -36q61 0 78 76h87
q-32 -175 -174 -175z" />
    <glyph glyph-name="notequal" unicode="&#x2260;" horiz-adv-x="599" 
d="M594 600l-100 -128h89l-18 -98h-148l-102 -130h228l-18 -98h-287l-101 -129h-116l101 129h-88l18 98h147l102 130h-227l18 98h286l101 128h115z" />
    <glyph glyph-name="lessequal" unicode="&#x2264;" horiz-adv-x="599" 
d="M524 140l-461 175l17 94l522 176l-20 -111l-358 -116l317 -117zM8 0l18 98h491l-18 -98h-491z" />
    <glyph glyph-name="greaterequal" unicode="&#x2265;" horiz-adv-x="599" 
d="M32 140l20 110l359 117l-317 116l17 102l461 -176l-17 -94zM7 0l18 98h491l-18 -98h-491z" />
    <glyph glyph-name="lozenge" unicode="&#x25ca;" horiz-adv-x="599" 
d="M250 -32l-209 372l336 372l208 -372zM272 135l193 214l-110 197l-193 -216z" />
    <glyph glyph-name="uniF8FF" unicode="&#xf8ff;" horiz-adv-x="649" 
d="M275 50q-101 0 -163 61t-62 163q0 101 64.5 163t185.5 62h50v116h157v-116h132v-149h-132v-51q0 -116 -63.5 -182.5t-168.5 -66.5zM278 205q72 0 72 92v53h-49q-89 0 -89 -76q0 -32 17.5 -50.5t48.5 -18.5z" />
    <glyph glyph-name="Iacute_J.loclNLD" horiz-adv-x="839" 
d="M141 746l136 136h143l-162 -136h-117zM708 746l136 136h143l-162 -136h-117zM37 0l120 680h122l-120 -680h-122zM494 -12q-105 0 -153.5 41t-48.5 132q0 32 7 67l2 12h117l-3 -17q-5 -28 -5 -47q0 -42 21.5 -61.5t70.5 -19.5q63 0 96.5 32.5t46.5 105.5l79 447h122
l-81 -459q-22 -124 -85.5 -178.5t-185.5 -54.5z" />
    <glyph glyph-name="iacute_j.loclNLD" horiz-adv-x="532" 
d="M102 592l136 136h143l-162 -136h-117zM367 592l136 136h143l-162 -136h-117zM27 0l92 519h120l-92 -519h-120zM185 -182l17 97h26q28 0 41 12t18 43l97 549h120l-97 -553q-14 -79 -50 -113.5t-107 -34.5h-65z" />
    <glyph glyph-name="i.loclTRK" horiz-adv-x="266" 
d="M128 602l20 113h128l-20 -113h-128zM27 0l92 519h120l-92 -519h-120z" />
    <glyph glyph-name="germandbls.calt" horiz-adv-x="638" 
d="M24 0l82 467q19 112 83.5 162.5t185.5 50.5h260l-17 -95l-172 -193q84 -9 120.5 -48t36.5 -117q0 -112 -69 -169.5t-204 -57.5h-113l18 106h98q147 0 147 112q0 43 -25.5 58t-95.5 15h-74l16 91l168 192h-96q-126 0 -146 -113l-81 -461h-122z" />
    <glyph glyph-name="zero.pf" horiz-adv-x="625" 
d="M272 -12q-103 0 -157.5 44.5t-54.5 130.5q0 31 5 59l43 246q39 224 273 224q103 0 157.5 -44.5t54.5 -130.5q0 -31 -5 -59l-43 -246q-39 -224 -273 -224zM280 92q64 0 99 32t47 100l42 235q4 23 4 42q0 87 -99 87q-63 0 -98.5 -32t-47.5 -100l-41 -235q-5 -28 -5 -42
q0 -87 99 -87z" />
    <glyph glyph-name="one.pf" horiz-adv-x="443" 
d="M183 0l93 526q-68 -29 -191 -31l17 97q128 4 206 88h115l-120 -680h-120z" />
    <glyph glyph-name="two.pf" horiz-adv-x="571" 
d="M1 0l12 66q18 97 76 158t186 116q94 40 135.5 80t41.5 90q0 78 -97 78q-63 0 -101 -31t-46 -90l-2 -14h-115l6 34q18 101 86 153t182 52q207 0 207 -171q0 -90 -61 -156t-196 -125q-86 -37 -124 -66t-51 -68h360l-18 -106h-481z" />
    <glyph glyph-name="three.pf" horiz-adv-x="596" 
d="M256 -12q-106 0 -161.5 41t-55.5 115q0 12 4 40l5 28h116l-3 -17q-2 -16 -2 -27q0 -76 107 -76q70 0 110 33t40 89q0 42 -26.5 60.5t-88.5 18.5h-71l17 104h67q66 0 102.5 31t36.5 83q0 77 -93 77q-122 0 -140 -106l-2 -9h-115l4 22q36 197 265 197q202 0 202 -164
q0 -128 -118 -175v-2q80 -34 80 -135q0 -107 -75 -167.5t-205 -60.5z" />
    <glyph glyph-name="four.pf" horiz-adv-x="596" 
d="M324 0l26 147h-333l19 109l396 424h132l-76 -431h74l-18 -102h-74l-26 -147h-120zM165 249h203l48 272z" />
    <glyph glyph-name="five.pf" horiz-adv-x="573" 
d="M244 -12q-102 0 -158 42t-56 118q0 17 3 35h115v-13q0 -38 27 -58t77 -20q76 0 118.5 44t42.5 112q0 97 -102 97q-69 0 -130 -46h-106l91 381h415l-20 -106h-311l-39 -165q58 39 140 39q184 0 184 -185q0 -125 -77 -200t-214 -75z" />
    <glyph glyph-name="six.pf" horiz-adv-x="622" 
d="M278 -12q-104 0 -159 44.5t-55 132.5q0 31 5 58l42 241q20 115 92 171.5t188 56.5q102 0 154 -42t52 -117q0 -21 -2 -32h-116v11q0 76 -96 76q-129 0 -154 -137l-13 -73q68 58 163 58q87 0 132 -43t45 -123q0 -131 -73 -206.5t-205 -75.5zM287 92q70 0 109 44.5t39 114.5
q0 81 -91 81q-96 0 -152 -92l-4 -20q-3 -14 -3 -36q0 -92 102 -92z" />
    <glyph glyph-name="seven.pf" horiz-adv-x="539" 
d="M75 0q74 345 359 571h-358l19 109h492l-19 -112q-151 -126 -239.5 -262.5t-125.5 -305.5h-128z" />
    <glyph glyph-name="eight.pf" horiz-adv-x="615" 
d="M261 -12q-225 0 -225 172q0 72 38 122t107 72v2q-71 35 -71 124q0 95 73 153.5t199 58.5q101 0 155 -41.5t54 -124.5q0 -127 -122 -173v-2q84 -37 84 -140q0 -105 -79 -164t-213 -59zM326 398q68 0 106 32t38 83q0 76 -98 76q-68 0 -107 -31.5t-39 -82.5q0 -77 100 -77z
M270 91q77 0 120.5 31.5t43.5 88.5q0 84 -112 84q-77 0 -121 -32.5t-44 -89.5q0 -82 113 -82z" />
    <glyph glyph-name="nine.pf" horiz-adv-x="622" 
d="M372 692q104 0 159.5 -44.5t55.5 -132.5q0 -31 -5 -58l-43 -241q-41 -228 -280 -228q-101 0 -153 42t-52 117q0 21 2 32h116q-1 -3 -1 -11q0 -76 97 -76q129 0 154 137l13 73q-68 -58 -163 -58q-87 0 -132 43t-45 123q0 131 73 206.5t204 75.5zM307 348q97 0 152 94l3 16
q4 19 4 38q0 92 -102 92q-70 0 -109 -44.5t-39 -114.5q0 -81 91 -81z" />
    <glyph glyph-name="zero.numr" 
d="M192 274q-65 0 -99 27.5t-34 79.5q0 15 3 32l27 150q23 129 163 129q65 0 99.5 -27.5t34.5 -79.5q0 -15 -3 -32l-27 -150q-23 -129 -164 -129zM196 351q59 0 70 62l25 142q2 12 2 19q0 41 -45 41q-60 0 -71 -62l-25 -142q-2 -12 -2 -19q0 -41 46 -41z" />
    <glyph glyph-name="one.numr" 
d="M76 286l13 77h91l37 209q-38 -12 -105 -12l12 69q77 3 117 51h86l-56 -317h88l-13 -77h-270z" />
    <glyph glyph-name="two.numr" 
d="M41 286l8 47q10 56 46.5 95t107.5 68q92 38 92 84q0 35 -44 35q-60 0 -70 -59l-1 -6h-85l3 19q19 123 159 123q128 0 128 -106q0 -53 -36.5 -91.5t-116.5 -73.5q-42 -18 -60.5 -30t-24.5 -26h200l-13 -79h-293z" />
    <glyph glyph-name="three.numr" 
d="M192 274q-65 0 -99.5 25.5t-34.5 69.5q0 17 2 26l2 12h86l-1 -6q-1 -6 -1 -10q0 -40 49 -40q36 0 55 17t19 44q0 20 -13 28t-44 8h-45l13 74h40q32 0 51.5 15.5t19.5 41.5q0 36 -43 36q-28 0 -45.5 -12.5t-21.5 -34.5l-1 -6h-85l3 15q21 115 156 115q128 0 128 -102
q0 -75 -67 -100v-2q45 -20 45 -80q0 -62 -44.5 -98t-123.5 -36z" />
    <glyph glyph-name="four.numr" 
d="M218 286l15 83h-188l13 79l224 232h96l-42 -238h44l-14 -73h-42l-15 -83h-91zM146 442h99l23 130z" />
    <glyph glyph-name="five.numr" 
d="M190 274q-64 0 -98 26.5t-34 71.5q0 6 2 20h86v-5q0 -36 49 -36q36 0 56.5 20t20.5 52q0 44 -47 44q-40 0 -66 -21h-77l54 234h253l-14 -79h-179l-19 -78q34 18 77 18q109 0 109 -109q0 -73 -45 -115.5t-128 -42.5z" />
    <glyph glyph-name="six.numr" 
d="M194 274q-64 0 -98.5 28.5t-34.5 78.5q0 15 3 31l26 147q23 133 166 133q65 0 98.5 -26.5t33.5 -67.5q0 -10 -2 -22h-86v6q0 33 -45 33q-64 0 -76 -66l-6 -35q35 26 85 26q105 0 105 -108q0 -72 -44.5 -115t-124.5 -43zM200 351q35 0 53.5 22.5t18.5 55.5q0 20 -9 29
t-31 9q-48 0 -75 -42l-3 -14q-2 -12 -2 -18q0 -42 48 -42z" />
    <glyph glyph-name="seven.numr" 
d="M91 286q44 198 202 314h-202l14 80h303l-15 -84q-87 -68 -136 -141.5t-70 -168.5h-96z" />
    <glyph glyph-name="eight.numr" 
d="M190 274q-141 0 -141 105q0 84 83 113v2q-39 21 -39 74q0 59 44 91.5t118 32.5q132 0 132 -102q0 -74 -70 -101v-2q47 -22 47 -85q0 -62 -46.5 -95t-127.5 -33zM226 523q34 0 52.5 16t18.5 41q0 35 -47 35q-34 0 -52.5 -15t-18.5 -41q0 -36 47 -36zM195 351q80 0 80 58
q0 39 -54 39q-38 0 -59 -16t-21 -44q0 -37 54 -37z" />
    <glyph glyph-name="nine.numr" 
d="M187 274q-65 0 -98 26t-33 68q0 10 2 22h86v-6q0 -33 45 -33q64 0 76 66l6 35q-35 -26 -85 -26q-105 0 -105 108q0 72 44.5 115t124.5 43q64 0 98.5 -28.5t34.5 -78.5q0 -15 -3 -31l-26 -147q-23 -133 -167 -133zM212 499q47 0 74 40l3 16q2 12 2 18q0 42 -48 42
q-35 0 -53.5 -22.5t-18.5 -55.5q0 -38 41 -38z" />
    <glyph glyph-name="zero.dnom" 
d="M142 -12q-65 0 -99 27.5t-34 79.5q0 15 3 32l27 150q23 129 163 129q65 0 99.5 -27.5t34.5 -79.5q0 -15 -3 -32l-27 -150q-23 -129 -164 -129zM146 65q59 0 70 62l25 142q2 12 2 19q0 41 -45 41q-60 0 -71 -62l-25 -142q-2 -12 -2 -19q0 -41 46 -41z" />
    <glyph glyph-name="one.dnom" 
d="M25 0l13 77h91l37 209q-38 -12 -105 -12l12 69q77 3 117 51h86l-56 -317h88l-13 -77h-270z" />
    <glyph glyph-name="two.dnom" 
d="M-10 0l8 47q10 56 46.5 95t107.5 68q92 38 92 84q0 35 -44 35q-60 0 -70 -59l-1 -6h-85l3 19q19 123 159 123q128 0 128 -106q0 -53 -36.5 -91.5t-116.5 -73.5q-42 -18 -60.5 -30t-24.5 -26h200l-13 -79h-293z" />
    <glyph glyph-name="three.dnom" 
d="M142 -12q-65 0 -99.5 25.5t-34.5 69.5q0 17 2 26l2 12h86l-1 -6q-1 -6 -1 -10q0 -40 49 -40q36 0 55 17t19 44q0 20 -13 28t-44 8h-45l13 74h40q32 0 51.5 15.5t19.5 41.5q0 36 -43 36q-28 0 -45.5 -12.5t-21.5 -34.5l-1 -6h-85l3 15q21 115 156 115q128 0 128 -102
q0 -75 -67 -100v-2q45 -20 45 -80q0 -62 -44.5 -98t-123.5 -36z" />
    <glyph glyph-name="four.dnom" 
d="M167 0l15 83h-188l13 79l224 232h96l-42 -238h44l-14 -73h-42l-15 -83h-91zM95 156h99l23 130z" />
    <glyph glyph-name="five.dnom" 
d="M139 -12q-64 0 -98 26.5t-34 71.5q0 6 2 20h86v-5q0 -36 49 -36q36 0 56.5 20t20.5 52q0 44 -47 44q-40 0 -66 -21h-77l54 234h253l-14 -79h-179l-19 -78q35 18 77 18q109 0 109 -109q0 -73 -45 -115.5t-128 -42.5z" />
    <glyph glyph-name="six.dnom" 
d="M144 -12q-64 0 -98.5 28.5t-34.5 78.5q0 15 3 31l26 147q23 133 166 133q65 0 98.5 -26.5t33.5 -67.5q0 -10 -2 -22h-86v6q0 33 -45 33q-64 0 -76 -66l-6 -35q35 26 85 26q105 0 105 -108q0 -72 -44.5 -115t-124.5 -43zM150 65q35 0 53.5 22.5t18.5 55.5q0 20 -9 29
t-31 9q-48 0 -75 -42l-3 -14q-2 -12 -2 -18q0 -42 48 -42z" />
    <glyph glyph-name="seven.dnom" 
d="M40 0q44 198 202 314h-202l14 80h303l-15 -84q-87 -68 -136 -141.5t-70 -168.5h-96z" />
    <glyph glyph-name="eight.dnom" 
d="M139 -12q-141 0 -141 105q0 84 83 113v2q-39 21 -39 74q0 59 44 91.5t118 32.5q132 0 132 -102q0 -74 -70 -101v-2q47 -22 47 -85q0 -62 -46.5 -95t-127.5 -33zM175 237q34 0 52.5 16t18.5 41q0 35 -47 35q-34 0 -52.5 -15t-18.5 -41q0 -36 47 -36zM144 65q80 0 80 58
q0 39 -54 39q-38 0 -59 -16t-21 -44q0 -37 54 -37z" />
    <glyph glyph-name="nine.dnom" 
d="M137 -12q-65 0 -98 26t-33 68q0 10 2 22h86v-6q0 -33 45 -33q64 0 76 66l6 35q-35 -26 -85 -26q-105 0 -105 108q0 72 44.5 115t124.5 43q64 0 98.5 -28.5t34.5 -78.5q0 -15 -3 -31l-26 -147q-23 -133 -167 -133zM162 213q47 0 74 40l3 16q2 12 2 18q0 42 -48 42
q-35 0 -53.5 -22.5t-18.5 -55.5q0 -38 41 -38z" />
    <glyph glyph-name="exclamdown.case" horiz-adv-x="301" 
d="M137 550l22 130h131l-23 -130h-130zM42 0l35 188l67 278h87l-33 -278l-30 -188h-126z" />
    <glyph glyph-name="questiondown.case" horiz-adv-x="453" 
d="M232 550l22 130h130l-22 -130h-130zM188 -12q-89 0 -137.5 38t-48.5 107q0 67 29.5 112.5t97.5 86.5q47 28 68 53.5t29 61.5l4 19h104l-6 -30q-12 -60 -39 -98.5t-84 -73.5q-46 -28 -64 -53.5t-18 -61.5q0 -58 73 -58q99 0 116 103h114q-36 -206 -238 -206z" />
    <glyph glyph-name="at.case" horiz-adv-x="755" 
d="M395 -21q-163 0 -256.5 86.5t-93.5 238.5q0 170 111.5 283.5t287.5 113.5q143 0 231 -78t88 -210q0 -102 -52.5 -175t-148.5 -73q-82 0 -102 57q-50 -57 -120 -57q-52 0 -79 26.5t-27 73.5q0 19 3 38l13 74q23 130 136 130q73 0 105 -56l13 44h79l-35 -201q-2 -10 -2 -19
q0 -29 29 -29q45 0 68.5 53t23.5 116q0 95 -59.5 147.5t-160.5 52.5q-135 0 -219 -89t-84 -221q0 -114 65.5 -177t182.5 -63q108 0 184 52l33 -86q-89 -52 -214 -52zM370 247q44 0 78 47l15 88q-12 43 -56 43q-51 0 -60 -58l-11 -66q-2 -10 -2 -18q0 -36 36 -36z" />
    <glyph glyph-name="parenleft.case" horiz-adv-x="341" 
d="M261 -96q-197 60 -197 325q0 123 39 236.5t120.5 199.5t190.5 111l-17 -98q-107 -49 -166 -189t-59 -283q0 -86 25 -138t78 -78z" />
    <glyph glyph-name="parenright.case" horiz-adv-x="341" 
d="M-44 -96l17 98q107 49 166 189t59 283q0 86 -25 138t-78 78l14 86q197 -60 197 -325q0 -123 -39 -236.5t-120.5 -199.5t-190.5 -111z" />
    <glyph glyph-name="braceleft.case" horiz-adv-x="341" 
d="M196 -84q-69 0 -101 29t-32 92q0 30 5 59l23 128q3 16 3 29q0 24 -14.5 33.5t-48.5 9.5l15 88q40 0 59.5 16.5t26.5 58.5l24 132q18 97 59.5 135t122.5 38h74l-16 -89h-41q-40 0 -60 -19.5t-29 -71.5l-21 -125q-17 -102 -92 -120v-2q52 -18 52 -84q0 -20 -4 -41l-21 -120
q-4 -23 -4 -40q0 -26 12.5 -36.5t45.5 -10.5h44l-16 -89h-66z" />
    <glyph glyph-name="braceright.case" horiz-adv-x="341" 
d="M-42 -84l15 89h41q41 0 60.5 19.5t28.5 71.5l22 125q19 103 91 120v2q-51 17 -51 84q0 20 4 41l21 120q4 23 4 40q0 26 -13 36.5t-46 10.5h-44l16 89h67q69 0 101 -29t32 -92q0 -25 -6 -59l-23 -128q-3 -16 -3 -29q0 -24 14.5 -33.5t48.5 -9.5l-15 -88q-40 0 -59.5 -16.5
t-26.5 -58.5l-23 -132q-17 -96 -59.5 -134.5t-123.5 -38.5h-73z" />
    <glyph glyph-name="bracketleft.case" horiz-adv-x="341" 
d="M21 -84l150 848h241l-16 -89h-129l-117 -670h129l-16 -89h-242z" />
    <glyph glyph-name="bracketright.case" horiz-adv-x="341" 
d="M-42 -84l15 89h129l118 670h-129l16 89h241l-149 -848h-241z" />
    <glyph glyph-name="bar.case" horiz-adv-x="290" 
d="M22 -160l176 1000h99l-176 -1000h-99z" />
    <glyph glyph-name="brokenbar.case" horiz-adv-x="290" 
d="M127 440l70 400h99l-70 -400h-99zM21 -160l71 400h99l-71 -400h-99z" />
    <glyph glyph-name="periodcentered.case" horiz-adv-x="286" 
d="M80 274l23 130h131l-23 -130h-131z" />
    <glyph glyph-name="bullet.case" horiz-adv-x="500" 
d="M126 219l42 240h236l-42 -240h-236z" />
    <glyph glyph-name="hyphen.case" horiz-adv-x="377" 
d="M38 285l19 109h310l-19 -109h-310z" />
    <glyph glyph-name="uni00AD.case" horiz-adv-x="377" 
d="M38 285l19 109h310l-19 -109h-310z" />
    <glyph glyph-name="figuredash.case" horiz-adv-x="599" 
d="M36 291l17 97h539l-17 -97h-539z" />
    <glyph glyph-name="endash.case" horiz-adv-x="500" 
d="M36 291l17 97h440l-17 -97h-440z" />
    <glyph glyph-name="emdash.case" horiz-adv-x="900" 
d="M36 291l17 97h840l-17 -97h-840z" />
    <glyph glyph-name="guillemotleft.case" horiz-adv-x="522" 
d="M140 161l-107 181l164 176h132l-175 -188l100 -169h-114zM369 161l-107 181l164 176h132l-175 -188l100 -169h-114z" />
    <glyph glyph-name="guillemotright.case" horiz-adv-x="522" 
d="M-8 161l176 188l-101 169h114l108 -181l-164 -176h-133zM221 161l176 188l-101 169h114l108 -181l-164 -176h-133z" />
    <glyph glyph-name="guilsinglleft.case" horiz-adv-x="293" 
d="M140 161l-107 181l164 176h132l-175 -188l100 -169h-114z" />
    <glyph glyph-name="guilsinglright.case" horiz-adv-x="293" 
d="M-8 161l176 188l-101 169h114l108 -181l-164 -176h-133z" />
    <glyph glyph-name="caron.alt" horiz-adv-x="169" 
d="M61 515l77 215h121l-114 -215h-84z" />
    <glyph glyph-name="ringacute" horiz-adv-x="500" 
d="M259 812l136 136h143l-162 -136h-117zM314 563q-47 0 -77 28.5t-30 73.5q0 50 36 84.5t88 34.5q47 0 77 -28.5t30 -73.5q0 -51 -35.5 -85t-88.5 -34zM317 630q20 0 33.5 15t13.5 37q0 35 -36 35q-19 0 -32.5 -15t-13.5 -37q0 -16 9.5 -25.5t25.5 -9.5z" />
    <glyph glyph-name="NULL" horiz-adv-x="0" 
 />
    </font>
</defs>
</svg>
