<?xml version="1.0" standalone="no"?>
<!DOCTYPE svg PUBLIC "-//W3C//DTD SVG 1.1//EN" "http://www.w3.org/Graphics/SVG/1.1/DTD/svg11.dtd" >
<svg xmlns="http://www.w3.org/2000/svg" xmlns:xlink="http://www.w3.org/1999/xlink" version="1.1">
<metadata>
Created by FontForge 20170731 at Fri Feb  5 17:50:21 2016
 By Aleksey,,,
Copyright (c) 2014-2015 by Ryoichi Tsunekawa. All rights reserved.
</metadata>
<defs>
<font id="BioSans-Regular" horiz-adv-x="366" >
  <font-face 
    font-family="Bio Sans"
    font-weight="400"
    font-stretch="normal"
    units-per-em="1000"
    panose-1="2 11 5 6 2 2 2 4 2 4"
    ascent="800"
    descent="-200"
    x-height="516"
    cap-height="680"
    bbox="-166 -238 1069 1087"
    underline-thickness="50"
    underline-position="-200"
    unicode-range="U+000D-FB02"
  />
<missing-glyph horiz-adv-x="689" 
d="M90 0v680h509v-680h-509zM345 395l154 226h-309zM149 110l157 230l-157 230v-460zM540 110v460l-157 -230zM190 59h309l-154 226z" />
    <glyph glyph-name="fi" unicode="fi" horiz-adv-x="595" 
d="M107 0v444h-94v72h94v53q0 161 143 161h83v-74h-64q-41 0 -57.5 -19t-16.5 -65v-56h134v-72h-134v-444h-88zM420 609v98h96v-98h-96zM424 0v516h88v-516h-88z" />
    <glyph glyph-name="fl" unicode="fl" horiz-adv-x="595" 
d="M107 0v444h-94v72h94v53q0 161 143 161h83v-74h-64q-41 0 -57.5 -19t-16.5 -65v-56h134v-72h-134v-444h-88zM424 0v730h88v-730h-88z" />
    <glyph glyph-name=".notdef" horiz-adv-x="689" 
d="M90 0v680h509v-680h-509zM345 395l154 226h-309zM149 110l157 230l-157 230v-460zM540 110v460l-157 -230zM190 59h309l-154 226z" />
    <glyph glyph-name=".null" horiz-adv-x="0" 
 />
    <glyph glyph-name="nonmarkingreturn" horiz-adv-x="333" 
 />
    <glyph glyph-name="CR" unicode="&#xd;" horiz-adv-x="264" 
 />
    <glyph glyph-name="space" unicode=" " horiz-adv-x="264" 
 />
    <glyph glyph-name="exclam" unicode="!" horiz-adv-x="292" 
d="M114 202l-12 298l-2 180h92l-2 -180l-12 -298h-64zM95 0v102h102v-102h-102z" />
    <glyph glyph-name="quotedbl" unicode="&#x22;" horiz-adv-x="404" 
d="M78 443l-13 237h95l-13 -237h-69zM257 443l-13 237h95l-13 -237h-69z" />
    <glyph glyph-name="numbersign" unicode="#" horiz-adv-x="602" 
d="M108 0l22 176h-88v71h97l24 196h-87v71h96l21 166h79l-21 -166h143l21 166h79l-21 -166h87v-71h-96l-24 -196h86v-71h-95l-22 -176h-79l22 176h-143l-22 -176h-79zM218 247h143l24 196h-143z" />
    <glyph glyph-name="dollar" unicode="$" horiz-adv-x="602" 
d="M263 -72v73q-201 14 -201 192h81q0 -101 120 -112v225q-104 18 -148 60t-44 123q0 85 49 133.5t143 56.5v73h75v-74q182 -15 182 -186h-81q0 92 -101 106v-217q106 -17 151.5 -61t45.5 -128q0 -174 -197 -191v-73h-75zM263 395v204q-105 -12 -105 -99q0 -41 24.5 -66
t80.5 -39zM338 81q110 12 110 101q0 44 -25.5 70t-84.5 40v-211z" />
    <glyph glyph-name="percent" unicode="%" horiz-adv-x="769" 
d="M186 314q-71 0 -108.5 34.5t-37.5 100.5v108q0 66 37.5 100.5t108.5 34.5t108.5 -34.5t37.5 -100.5v-108q0 -66 -37.5 -100.5t-108.5 -34.5zM146 -12l402 704h76l-402 -704h-76zM186 379q73 0 73 74v101q0 73 -73 73t-73 -73v-101q0 -74 73 -74zM583 -12
q-71 0 -108.5 34.5t-37.5 100.5v108q0 66 37.5 100.5t108.5 34.5t108.5 -34.5t37.5 -100.5v-108q0 -66 -37.5 -100.5t-108.5 -34.5zM583 53q73 0 73 74v101q0 73 -73 73t-73 -73v-101q0 -74 73 -74z" />
    <glyph glyph-name="ampersand" unicode="&#x26;" horiz-adv-x="665" 
d="M275 -12q-107 0 -167 50t-60 138q0 63 32.5 110.5t105.5 89.5q-63 75 -63 148q0 77 49 122.5t133 45.5q79 0 124.5 -39.5t45.5 -108.5q0 -59 -35.5 -101t-120.5 -85l151 -164q25 59 31 145h90q-9 -129 -59 -212l117 -127h-119l-53 58q-79 -70 -202 -70zM266 417
q68 33 96 61.5t28 64.5q0 34 -23 53.5t-64 19.5q-44 0 -68.5 -23.5t-24.5 -66.5q0 -27 12 -50.5t44 -58.5zM281 66q85 0 140 53l-182 199q-56 -32 -79 -63t-23 -72q0 -54 38.5 -85.5t105.5 -31.5z" />
    <glyph glyph-name="quotesingle" unicode="'" horiz-adv-x="225" 
d="M78 443l-13 237h95l-13 -237h-69z" />
    <glyph glyph-name="parenleft" unicode="(" horiz-adv-x="339" 
d="M318 -130q-119 38 -184 151t-65 285t65 285t184 151v-72q-165 -77 -165 -364t165 -364v-72z" />
    <glyph glyph-name="parenright" unicode=")" horiz-adv-x="339" 
d="M21 -130v72q165 77 165 364t-165 364v72q119 -38 184 -151t65 -285t-65 -285t-184 -151z" />
    <glyph glyph-name="asterisk" unicode="*" horiz-adv-x="407" 
d="M120 300l-58 43l97 125l-149 38l22 73l144 -57l-8 158h71l-8 -158l144 57l22 -73l-149 -38l97 -125l-58 -43l-83 134z" />
    <glyph glyph-name="plus" unicode="+" horiz-adv-x="602" 
d="M262 53v218h-206v76h206v218h78v-218h206v-76h-206v-218h-78z" />
    <glyph glyph-name="comma" unicode="," horiz-adv-x="278" 
d="M79 -134v56q22 1 35.5 17t13.5 44v17h-40v102h102v-97q0 -136 -111 -139z" />
    <glyph glyph-name="hyphen" unicode="-" horiz-adv-x="370" 
d="M34 250v87h302v-87h-302z" />
    <glyph glyph-name="period" unicode="." horiz-adv-x="278" 
d="M88 0v102h102v-102h-102z" />
    <glyph glyph-name="slash" unicode="/" horiz-adv-x="445" 
d="M7 -140l347 870h84l-347 -870h-84z" />
    <glyph glyph-name="zero" unicode="0" horiz-adv-x="602" 
d="M301 -12q-114 0 -174 58t-60 168v252q0 110 60 168t174 58t174 -58t60 -168v-252q0 -110 -60 -168t-174 -58zM301 68q146 0 146 152v240q0 152 -146 152t-146 -152v-240q0 -152 146 -152z" />
    <glyph glyph-name="one" unicode="1" horiz-adv-x="602" 
d="M125 0v83h167v481q-65 -45 -187 -49v78q127 4 191 87h84v-597h167v-83h-422z" />
    <glyph glyph-name="two" unicode="2" horiz-adv-x="602" 
d="M67 0v51q0 94 50 156.5t169 117.5q90 41 126 79.5t36 91.5q0 55 -35 85.5t-104 30.5q-146 0 -146 -136v-14h-86v23q0 100 60.5 153.5t172.5 53.5q109 0 167.5 -51.5t58.5 -142.5q0 -81 -47.5 -136t-160.5 -106q-94 -42 -132.5 -80t-41.5 -93h380v-83h-467z" />
    <glyph glyph-name="three" unicode="3" horiz-adv-x="602" 
d="M304 -12q-117 0 -178 49t-61 143v25h86v-13q0 -124 153 -124q151 0 151 121q0 118 -153 118h-75v80h76q136 0 136 110q0 56 -35.5 85.5t-101.5 29.5q-69 0 -105.5 -32t-36.5 -91v-9h-85v15q0 94 60.5 145.5t169.5 51.5q105 0 163 -48.5t58 -138.5q0 -112 -92 -151v-2
q109 -37 109 -166q0 -198 -239 -198z" />
    <glyph glyph-name="four" unicode="4" horiz-adv-x="602" 
d="M394 0v156h-350v85l338 439h100v-444h80v-80h-80v-156h-88zM143 236h251v330z" />
    <glyph glyph-name="five" unicode="5" horiz-adv-x="602" 
d="M302 -12q-112 0 -173 49.5t-63 138.5h86q2 -51 41.5 -79.5t107.5 -28.5q157 0 157 148q0 72 -39 110t-111 38q-80 0 -139 -52h-81l23 368h404v-83h-325l-13 -201q60 48 151 48q104 0 161 -58.5t57 -167.5q0 -114 -63 -172t-181 -58z" />
    <glyph glyph-name="six" unicode="6" horiz-adv-x="602" 
d="M310 -12q-115 0 -176.5 59t-61.5 172v241q0 113 61.5 172.5t178.5 59.5q105 0 162 -47t61 -137h-86q-9 104 -136 104q-153 0 -153 -157v-96q63 73 176 73q100 0 154 -55.5t54 -161.5q0 -110 -59.5 -168.5t-174.5 -58.5zM310 68q145 0 145 145q0 139 -135 139
q-116 0 -160 -108v-23q0 -153 150 -153z" />
    <glyph glyph-name="seven" unicode="7" horiz-adv-x="602" 
d="M168 0q15 351 271 596h-381v84h483v-87q-265 -254 -279 -593h-94z" />
    <glyph glyph-name="eight" unicode="8" horiz-adv-x="602" 
d="M301 -12q-122 0 -186.5 50t-64.5 145q0 129 117 169v2q-97 38 -97 150q0 89 61 138.5t171 49.5t170.5 -49.5t60.5 -138.5q0 -112 -98 -150v-2q117 -41 117 -169q0 -95 -64.5 -145t-186.5 -50zM301 388q71 0 108 28.5t37 82.5q0 55 -37.5 84t-107.5 29q-69 0 -106.5 -29
t-37.5 -84q0 -54 37 -82.5t107 -28.5zM301 68q163 0 163 120t-163 120t-163 -120t163 -120z" />
    <glyph glyph-name="nine" unicode="9" horiz-adv-x="602" 
d="M290 -12q-105 0 -162 47t-61 137h86q9 -104 136 -104q153 0 153 157v96q-63 -73 -176 -73q-100 0 -154 55.5t-54 161.5q0 110 59.5 168.5t174.5 58.5t176.5 -59t61.5 -172v-241q0 -113 -61.5 -172.5t-178.5 -59.5zM282 328q116 0 160 108v23q0 153 -150 153
q-145 0 -145 -145q0 -139 135 -139z" />
    <glyph glyph-name="colon" unicode=":" horiz-adv-x="278" 
d="M88 376v102h102v-102h-102zM88 0v102h102v-102h-102z" />
    <glyph glyph-name="semicolon" unicode=";" horiz-adv-x="278" 
d="M88 376v102h102v-102h-102zM79 -134v56q22 1 35.5 17t13.5 44v17h-40v102h102v-97q0 -136 -111 -139z" />
    <glyph glyph-name="less" unicode="&#x3c;" horiz-adv-x="602" 
d="M546 64l-490 206v74l490 206v-82l-386 -161l386 -161v-82z" />
    <glyph glyph-name="equal" unicode="=" horiz-adv-x="602" 
d="M56 384v76h490v-76h-490zM56 158v76h490v-76h-490z" />
    <glyph glyph-name="greater" unicode="&#x3e;" horiz-adv-x="602" 
d="M56 66v82l386 161l-386 161v82l490 -206v-74z" />
    <glyph glyph-name="question" unicode="?" horiz-adv-x="436" 
d="M161 202v29q0 58 21.5 97.5t72.5 75.5q40 28 55 52t15 59q0 48 -28.5 74t-80.5 26q-56 0 -86 -31t-30 -90h-85q0 96 51.5 147t148.5 51q94 0 145.5 -46t51.5 -129q0 -53 -21 -89t-73 -71q-46 -31 -63.5 -59t-17.5 -70v-26h-76zM148 0v102h102v-102h-102z" />
    <glyph glyph-name="at" unicode="@" horiz-adv-x="758" 
d="M413 -68q-171 0 -274 98t-103 261q0 161 99.5 261t262.5 100q155 0 248.5 -90t93.5 -236q0 -100 -44 -155t-121 -55q-80 0 -104 62q-41 -62 -118 -62q-59 0 -90 35t-31 100v75q0 66 31 100.5t90 34.5q73 0 114 -56l4 44h69v-206q0 -54 43 -54q35 0 54.5 34t19.5 97
q0 120 -68.5 188.5t-188.5 68.5q-129 0 -203.5 -78t-74.5 -206q0 -131 78.5 -208.5t211.5 -77.5q107 0 184 50l28 -70q-82 -55 -211 -55zM373 189q53 0 81 57v85q-27 57 -82 57q-54 0 -54 -68v-65q0 -66 55 -66z" />
    <glyph glyph-name="A" unicode="A" horiz-adv-x="605" 
d="M9 0l248 680h91l248 -680h-96l-62 174h-274l-62 -174h-93zM193 256h216l-108 309z" />
    <glyph glyph-name="B" unicode="B" horiz-adv-x="640" 
d="M92 0v680h263q110 0 163 -43t53 -133q0 -114 -89 -147v-2q112 -34 112 -167q0 -96 -53.5 -142t-165.5 -46h-283zM182 388h167q71 0 102 24t31 80q0 57 -31.5 81.5t-102.5 24.5h-166v-210zM182 82h180q76 0 109 26t33 86q0 61 -35 86.5t-118 25.5h-169v-224z" />
    <glyph glyph-name="C" unicode="C" horiz-adv-x="614" 
d="M317 -12q-254 0 -254 269v166q0 269 254 269q239 0 248 -236h-88q-4 79 -43 116.5t-117 37.5q-85 0 -124.5 -45.5t-39.5 -143.5v-162q0 -98 39.5 -143.5t124.5 -45.5q153 0 160 153h88q-9 -235 -248 -235z" />
    <glyph glyph-name="D" unicode="D" horiz-adv-x="646" 
d="M92 0v680h234q133 0 195.5 -64t62.5 -200v-152q0 -136 -62.5 -200t-195.5 -64h-234zM182 82h133q96 0 137.5 42.5t41.5 140.5v150q0 98 -41.5 140.5t-137.5 42.5h-133v-516z" />
    <glyph glyph-name="E" unicode="E" horiz-adv-x="583" 
d="M92 0v680h445v-82h-355v-209h305v-82h-305v-225h365v-82h-455z" />
    <glyph glyph-name="F" unicode="F" horiz-adv-x="547" 
d="M92 0v680h436v-82h-346v-209h296v-82h-296v-307h-90z" />
    <glyph glyph-name="G" unicode="G" horiz-adv-x="636" 
d="M324 -12q-128 0 -194.5 67t-66.5 196v178q0 128 66 195.5t191 67.5q115 0 180 -57t69 -165h-88q-4 67 -44.5 103.5t-117.5 36.5q-166 0 -166 -186v-168q0 -95 42 -140.5t130 -45.5q85 0 124 42.5t39 135.5v37h-145v83h233v-120q0 -260 -252 -260z" />
    <glyph glyph-name="H" unicode="H" horiz-adv-x="693" 
d="M92 0v680h90v-290h329v290h90v-680h-90v306h-329v-306h-90z" />
    <glyph glyph-name="I" unicode="I" horiz-adv-x="274" 
d="M92 0v680h90v-680h-90z" />
    <glyph glyph-name="J" unicode="J" horiz-adv-x="549" 
d="M244 -12q-117 0 -172 55.5t-55 173.5v16h87v-16q0 -77 33 -112t106 -35q75 0 108 37.5t33 122.5v450h90v-454q0 -123 -55.5 -180.5t-174.5 -57.5z" />
    <glyph glyph-name="K" unicode="K" horiz-adv-x="617" 
d="M92 0v680h90v-361l316 361h111l-242 -278l245 -402h-105l-202 333l-123 -137v-196h-90z" />
    <glyph glyph-name="L" unicode="L" horiz-adv-x="517" 
d="M92 0v680h90v-597h328v-83h-418z" />
    <glyph glyph-name="M" unicode="M" horiz-adv-x="863" 
d="M92 0v680h135l205 -534l205 534h134v-680h-90v564l-218 -564h-65l-219 566v-566h-87z" />
    <glyph glyph-name="N" unicode="N" horiz-adv-x="691" 
d="M92 0v680h107l313 -517v517h87v-680h-88l-332 548v-548h-87z" />
    <glyph glyph-name="O" unicode="O" horiz-adv-x="654" 
d="M327 -12q-264 0 -264 271v162q0 271 264 271t264 -271v-162q0 -271 -264 -271zM327 70q90 0 132 45.5t42 143.5v162q0 98 -42 143.5t-132 45.5t-132 -45.5t-42 -143.5v-162q0 -98 42 -143.5t132 -45.5z" />
    <glyph glyph-name="P" unicode="P" horiz-adv-x="601" 
d="M92 0v680h256q119 0 173 -49.5t54 -159.5q0 -109 -54 -158.5t-173 -49.5h-166v-263h-90zM182 345h160q78 0 110.5 28.5t32.5 97.5t-32.5 98t-110.5 29h-160v-253z" />
    <glyph glyph-name="Q" unicode="Q" horiz-adv-x="654" 
d="M559 -68l-85 86q-58 -30 -147 -30q-264 0 -264 271v162q0 271 264 271t264 -271v-162q0 -115 -48 -182l80 -81zM327 70q51 0 87 15l-127 129l62 61l129 -132q23 42 23 116v162q0 98 -42 143.5t-132 45.5t-132 -45.5t-42 -143.5v-162q0 -98 42 -143.5t132 -45.5z" />
    <glyph glyph-name="R" unicode="R" horiz-adv-x="631" 
d="M92 0v680h261q116 0 167.5 -47.5t51.5 -154.5q0 -88 -33.5 -135t-107.5 -61l166 -282h-104l-162 276h-149v-276h-90zM182 358h163q76 0 106.5 27t30.5 93t-30.5 93t-106.5 27h-163v-240z" />
    <glyph glyph-name="S" unicode="S" horiz-adv-x="558" 
d="M281 -12q-245 0 -245 205h90q0 -123 156 -123q149 0 149 109q0 55 -38 83t-131 41q-117 16 -165.5 59.5t-48.5 131.5q0 97 60.5 147.5t175.5 50.5q226 0 226 -199h-90q0 117 -139 117q-70 0 -107 -27.5t-37 -79.5q0 -51 35.5 -77.5t121.5 -37.5q123 -16 174.5 -62
t51.5 -139q0 -199 -239 -199z" />
    <glyph glyph-name="T" unicode="T" horiz-adv-x="506" 
d="M208 0v597h-201v83h492v-83h-201v-597h-90z" />
    <glyph glyph-name="U" unicode="U" horiz-adv-x="640" 
d="M320 -12q-129 0 -187 56t-58 180v456h90v-455q0 -85 35.5 -120t120.5 -35q86 0 121.5 35t35.5 120v455h87v-456q0 -124 -58 -180t-187 -56z" />
    <glyph glyph-name="V" unicode="V" horiz-adv-x="582" 
d="M244 0l-235 680h95l189 -552l188 552h92l-235 -680h-94z" />
    <glyph glyph-name="W" unicode="W" horiz-adv-x="862" 
d="M193 0l-183 680h93l139 -532l146 532h88l147 -534l139 534h90l-183 -680h-92l-146 527l-147 -527h-91z" />
    <glyph glyph-name="X" unicode="X" horiz-adv-x="567" 
d="M12 0l214 352l-207 328h105l166 -264l158 264h100l-207 -340l214 -340h-105l-172 276l-166 -276h-100z" />
    <glyph glyph-name="Y" unicode="Y" horiz-adv-x="552" 
d="M231 0v290l-241 390h105l184 -297l183 297h100l-241 -390v-290h-90z" />
    <glyph glyph-name="Z" unicode="Z" horiz-adv-x="549" 
d="M32 0v74l364 524h-346v82h459v-73l-363 -525h371v-82h-485z" />
    <glyph glyph-name="bracketleft" unicode="[" horiz-adv-x="339" 
d="M92 -118v848h226v-69h-142v-710h142v-69h-226z" />
    <glyph glyph-name="backslash" unicode="\" horiz-adv-x="445" 
d="M354 -140l-347 870h84l347 -870h-84z" />
    <glyph glyph-name="bracketright" unicode="]" horiz-adv-x="339" 
d="M21 -118v69h142v710h-142v69h226v-848h-226z" />
    <glyph glyph-name="asciicircum" unicode="^" horiz-adv-x="602" 
d="M29 332l238 348h68l238 -348h-90l-182 267l-182 -267h-90z" />
    <glyph glyph-name="underscore" unicode="_" horiz-adv-x="500" 
d="M0 -128v74h500v-74h-500z" />
    <glyph glyph-name="grave" unicode="`" horiz-adv-x="500" 
d="M233 594l-131 132h110l110 -132h-89z" />
    <glyph glyph-name="a" unicode="a" horiz-adv-x="541" 
d="M216 -12q-80 0 -126 41.5t-46 116.5q0 161 213 161h124v28q0 60 -28.5 88.5t-88.5 28.5q-115 0 -119 -93h-86q14 169 208 169q202 0 202 -191v-337h-75l-3 70q-65 -82 -175 -82zM229 64q104 0 152 97v73h-121q-67 0 -97.5 -21t-30.5 -65q0 -84 97 -84z" />
    <glyph glyph-name="b" unicode="b" horiz-adv-x="582" 
d="M335 -12q-110 0 -174 94l-3 -82h-75v730h88v-282q61 80 164 80q91 0 140.5 -55t49.5 -160v-110q0 -105 -49.5 -160t-140.5 -55zM324 65q54 0 83.5 36.5t29.5 104.5v104q0 68 -29.5 104.5t-83.5 36.5q-99 0 -153 -117v-152q54 -117 153 -117z" />
    <glyph glyph-name="c" unicode="c" horiz-adv-x="517" 
d="M272 -12q-105 0 -160 56t-55 163v102q0 107 55 163t160 56q98 0 150.5 -48.5t55.5 -142.5h-85q-4 60 -34 87t-86 27q-65 0 -96.5 -35t-31.5 -109v-98q0 -74 31.5 -109t96.5 -35q56 0 86 27t34 87h85q-3 -94 -55.5 -142.5t-150.5 -48.5z" />
    <glyph glyph-name="d" unicode="d" horiz-adv-x="582" 
d="M247 -12q-91 0 -140.5 55t-49.5 160v110q0 105 49.5 160t140.5 55q103 0 164 -80v282h88v-730h-75l-3 82q-64 -94 -174 -94zM258 65q99 0 153 117v152q-54 117 -153 117q-54 0 -83.5 -36.5t-29.5 -104.5v-104q0 -68 29.5 -104.5t83.5 -36.5z" />
    <glyph glyph-name="e" unicode="e" horiz-adv-x="548" 
d="M281 -12q-109 0 -166.5 56.5t-57.5 162.5v102q0 106 56 162.5t162 56.5t162 -56.5t56 -162.5v-75h-348v-23q0 -76 32.5 -111.5t101.5 -35.5q115 0 125 90h85q-5 -81 -59.5 -123.5t-148.5 -42.5zM145 307h263q0 74 -32 109.5t-99 35.5q-68 0 -100 -35.5t-32 -109.5z" />
    <glyph glyph-name="f" unicode="f" horiz-adv-x="341" 
d="M107 0v444h-94v72h94v53q0 161 143 161h83v-74h-64q-41 0 -57.5 -19t-16.5 -65v-56h134v-72h-134v-444h-88z" />
    <glyph glyph-name="g" unicode="g" horiz-adv-x="581" 
d="M278 -194q-199 0 -210 160h82q7 -84 126 -84q69 0 101.5 31t32.5 98v85q-61 -79 -163 -79q-91 0 -140.5 55t-49.5 160v81q0 105 49.5 160t140.5 55q109 0 172 -92l4 80h75v-505q0 -205 -220 -205zM258 94q98 0 152 115v127q-54 115 -152 115q-54 0 -83.5 -36.5
t-29.5 -104.5v-75q0 -68 29.5 -104.5t83.5 -36.5z" />
    <glyph glyph-name="h" unicode="h" horiz-adv-x="570" 
d="M83 0v730h88v-282q63 80 162 80q162 0 162 -189v-339h-88v331q0 116 -90 116q-91 0 -146 -112v-335h-88z" />
    <glyph glyph-name="i" unicode="i" horiz-adv-x="254" 
d="M79 609v98h96v-98h-96zM83 0v516h88v-516h-88z" />
    <glyph glyph-name="j" unicode="j" horiz-adv-x="254" 
d="M79 609v98h96v-98h-96zM-2 -182v76h25q36 0 48 13.5t12 53.5v555h88v-552q0 -77 -30.5 -111.5t-97.5 -34.5h-45z" />
    <glyph glyph-name="k" unicode="k" horiz-adv-x="527" 
d="M83 0v730h88v-468l238 254h110l-198 -210l202 -306h-105l-158 242l-89 -93v-149h-88z" />
    <glyph glyph-name="l" unicode="l" horiz-adv-x="254" 
d="M83 0v730h88v-730h-88z" />
    <glyph glyph-name="m" unicode="m" horiz-adv-x="862" 
d="M83 0v516h75l3 -81q60 93 162 93q110 0 142 -90q60 90 162 90q77 0 118.5 -45.5t41.5 -130.5v-352h-88v345q0 102 -84 102q-81 0 -136 -109v-338h-88v345q0 102 -84 102q-82 0 -136 -114v-333h-88z" />
    <glyph glyph-name="n" unicode="n" horiz-adv-x="570" 
d="M83 0v516h75l3 -81q65 93 172 93q162 0 162 -189v-339h-88v331q0 116 -91 116q-90 0 -145 -112v-335h-88z" />
    <glyph glyph-name="o" unicode="o" horiz-adv-x="560" 
d="M280 -12q-110 0 -166.5 58t-56.5 170v84q0 112 56.5 170t166.5 58t166.5 -58t56.5 -170v-84q0 -112 -56.5 -170t-166.5 -58zM280 65q135 0 135 154v79q0 153 -135 153t-135 -153v-79q0 -154 135 -154z" />
    <glyph glyph-name="p" unicode="p" horiz-adv-x="582" 
d="M83 -182v698h75l3 -82q64 94 174 94q91 0 140.5 -55t49.5 -160v-110q0 -105 -49.5 -160t-140.5 -55q-103 0 -164 80v-250h-88zM324 65q54 0 83.5 36.5t29.5 104.5v104q0 68 -29.5 104.5t-83.5 36.5q-99 0 -153 -117v-152q54 -117 153 -117z" />
    <glyph glyph-name="q" unicode="q" horiz-adv-x="582" 
d="M411 -182v250q-61 -80 -164 -80q-91 0 -140.5 55t-49.5 160v110q0 105 49.5 160t140.5 55q111 0 173 -93l4 81h75v-698h-88zM258 65q99 0 153 117v152q-54 117 -153 117q-54 0 -83.5 -36.5t-29.5 -104.5v-104q0 -68 29.5 -104.5t83.5 -36.5z" />
    <glyph glyph-name="r" unicode="r" horiz-adv-x="358" 
d="M83 0v516h75l4 -96q38 106 148 106h35v-87h-26q-63 0 -99 -34t-49 -108v-297h-88z" />
    <glyph glyph-name="s" unicode="s" horiz-adv-x="497" 
d="M250 -12q-212 0 -212 164h84q0 -89 128 -89q120 0 120 76q0 38 -30 57t-105 28q-101 12 -143 45.5t-42 102.5q0 75 51.5 115.5t147.5 40.5t146 -40.5t50 -118.5h-86q0 84 -111 84q-54 0 -83 -19.5t-29 -54.5t29 -51.5t101 -24.5q103 -11 146.5 -47t43.5 -110
q0 -158 -206 -158z" />
    <glyph glyph-name="t" unicode="t" horiz-adv-x="341" 
d="M243 0q-74 0 -107.5 38t-33.5 123v283h-89v72h91l7 136h79v-136h127v-72h-127v-284q0 -50 15 -67t59 -17h59v-76h-80z" />
    <glyph glyph-name="u" unicode="u" horiz-adv-x="574" 
d="M239 -12q-164 0 -164 189v339h88v-331q0 -60 22.5 -88t69.5 -28q92 0 148 112v335h88v-516h-75l-3 82q-65 -94 -174 -94z" />
    <glyph glyph-name="v" unicode="v" horiz-adv-x="479" 
d="M192 0l-181 516h94l136 -406l136 406h91l-181 -516h-95z" />
    <glyph glyph-name="w" unicode="w" horiz-adv-x="775" 
d="M172 0l-161 516h93l117 -400l124 400h87l125 -402l117 402h90l-161 -516h-94l-121 389l-122 -389h-94z" />
    <glyph glyph-name="x" unicode="x" horiz-adv-x="485" 
d="M4 0l181 272l-170 244h107l131 -189l123 189h98l-172 -259l179 -257h-107l-140 203l-132 -203h-98z" />
    <glyph glyph-name="y" unicode="y" horiz-adv-x="470" 
d="M58 -182v76h44q30 0 45.5 11.5t25.5 42.5l24 72l-186 496h94l137 -381l127 381h90l-202 -578q-24 -68 -56 -94t-91 -26h-52z" />
    <glyph glyph-name="z" unicode="z" horiz-adv-x="463" 
d="M30 0v66l284 375h-263v75h375v-66l-284 -375h289v-75h-401z" />
    <glyph glyph-name="braceleft" unicode="{" horiz-adv-x="339" 
d="M259 -118q-77 0 -112.5 39.5t-35.5 128.5v148q0 44 -17 59t-62 15v68q45 0 62 15t17 59v148q0 89 35.5 128.5t112.5 39.5h59v-69h-42q-46 0 -63.5 -21t-17.5 -75v-143q0 -98 -64 -115v-2q64 -19 64 -115v-143q0 -54 17.5 -75t63.5 -21h42v-69h-59z" />
    <glyph glyph-name="bar" unicode="|" horiz-adv-x="290" 
d="M106 -226v1000h78v-1000h-78z" />
    <glyph glyph-name="braceright" unicode="}" horiz-adv-x="339" 
d="M21 -118v69h42q46 0 63.5 21t17.5 75v143q0 96 64 115v2q-64 17 -64 115v143q0 54 -17.5 75t-63.5 21h-42v69h59q77 0 112.5 -39.5t35.5 -128.5v-148q0 -44 17 -59t62 -15v-68q-45 0 -62 -15t-17 -59v-148q0 -89 -35.5 -128.5t-112.5 -39.5h-59z" />
    <glyph glyph-name="asciitilde" unicode="~" horiz-adv-x="602" 
d="M408 224q-63 0 -127 52q-50 41 -89 41q-65 0 -71 -83h-69q2 76 39.5 117.5t102.5 41.5q63 0 127 -52q50 -41 89 -41q65 0 71 83h69q-2 -76 -39.5 -117.5t-102.5 -41.5z" />
    <glyph glyph-name="uni00A0" unicode="&#xa0;" horiz-adv-x="264" 
 />
    <glyph glyph-name="exclamdown" unicode="&#xa1;" horiz-adv-x="292" 
d="M95 414v102h102v-102h-102zM100 -164l2 180l12 298h64l12 -298l2 -180h-92z" />
    <glyph glyph-name="cent" unicode="&#xa2;" horiz-adv-x="602" 
d="M272 -72v74q-182 17 -182 207v98q0 190 182 207v74h75v-74q168 -16 174 -182h-85q-4 92 -89 104v-356q85 11 89 104h85q-6 -165 -174 -182v-74h-75zM272 79v358q-50 -8 -72 -39t-22 -93v-94q0 -62 22.5 -93.5t71.5 -38.5z" />
    <glyph glyph-name="sterling" unicode="&#xa3;" horiz-adv-x="602" 
d="M84 0v76q44 28 64 61.5t20 88.5q0 32 -5 54h-100v80h74q-33 80 -33 136q0 96 57.5 146t164.5 50t162 -50t55 -148h-86q0 118 -133 118q-132 0 -132 -120q0 -45 32 -132h257v-80h-235q3 -24 3 -48q0 -99 -56 -149h341v-83h-450z" />
    <glyph glyph-name="currency" unicode="&#xa4;" horiz-adv-x="602" 
d="M95 79l-57 56l113 116q-24 42 -24 89t24 89l-113 116l57 56l112 -115q43 27 94 27t94 -27l112 115l57 -56l-113 -116q24 -42 24 -89t-24 -89l113 -116l-57 -56l-112 115q-43 -27 -94 -27t-94 27zM301 246q40 0 67 27t27 67t-27 67t-67 27t-67 -27t-27 -67t27 -67t67 -27z
" />
    <glyph glyph-name="yen" unicode="&#xa5;" horiz-adv-x="602" 
d="M257 0v121h-181v69h181v68h-181v70h172l-219 352h103l171 -282l170 282h100l-219 -352h172v-70h-181v-68h181v-69h-181v-121h-88z" />
    <glyph glyph-name="brokenbar" unicode="&#xa6;" horiz-adv-x="290" 
d="M106 374v400h78v-400h-78zM106 -226v400h78v-400h-78z" />
    <glyph glyph-name="section" unicode="&#xa7;" horiz-adv-x="594" 
d="M294 -196q-227 0 -227 180h86q0 -105 141 -105q138 0 138 89q0 43 -37 68t-127 43q-114 22 -163 62t-49 110q0 97 90 142v2q-68 43 -68 127q0 82 56 126t158 44q103 0 158 -44.5t55 -128.5h-86q0 98 -127 98q-61 0 -94.5 -23t-33.5 -64q0 -42 36.5 -66.5t125.5 -42.5
q115 -23 163.5 -62t48.5 -109q0 -96 -89 -140v-2q69 -45 69 -132q0 -84 -57 -128t-167 -44zM370 142q82 23 82 91q0 44 -35.5 68t-126.5 43q-34 7 -68 17q-80 -25 -80 -94q0 -44 35.5 -68.5t124.5 -40.5q44 -9 68 -16z" />
    <glyph glyph-name="dieresis" unicode="&#xa8;" horiz-adv-x="500" 
d="M112 609v98h98v-98h-98zM290 609v98h98v-98h-98z" />
    <glyph glyph-name="copyright" unicode="&#xa9;" horiz-adv-x="772" 
d="M386 -12q-153 0 -252.5 99.5t-99.5 252.5t99.5 252.5t252.5 99.5t252.5 -99.5t99.5 -252.5t-99.5 -252.5t-252.5 -99.5zM386 57q125 0 200.5 77.5t75.5 205.5t-75.5 205.5t-200.5 77.5t-200.5 -77.5t-75.5 -205.5t75.5 -205.5t200.5 -77.5zM384 151q-143 0 -143 146v86
q0 146 143 146q140 0 143 -133h-75q-2 36 -16.5 51.5t-49.5 15.5q-37 0 -52 -19t-15 -64v-80q0 -45 15 -64t52 -19q35 0 49.5 15.5t16.5 51.5h75q-3 -133 -143 -133z" />
    <glyph glyph-name="ordfeminine" unicode="&#xaa;" horiz-adv-x="426" 
d="M160 311q-59 0 -91.5 30t-32.5 82q0 56 36.5 85.5t104.5 29.5h106v23q0 67 -81 67q-79 0 -84 -55h-69q11 119 156 119q153 0 153 -133v-236h-64l-3 51q-47 -63 -131 -63zM173 375q75 0 110 65v42h-93q-79 0 -79 -56q0 -51 62 -51zM43 167v65h315v-65h-315z" />
    <glyph glyph-name="guillemotleft" unicode="&#xab;" horiz-adv-x="482" 
d="M159 82l-139 176l139 177h94l-139 -177l139 -176h-94zM368 82l-139 176l139 177h94l-139 -177l139 -176h-94z" />
    <glyph glyph-name="logicalnot" unicode="&#xac;" horiz-adv-x="602" 
d="M468 123v218h-412v76h490v-294h-78z" />
    <glyph glyph-name="uni00AD" unicode="&#xad;" horiz-adv-x="370" 
d="M34 250v87h302v-87h-302z" />
    <glyph glyph-name="registered" unicode="&#xae;" horiz-adv-x="772" 
d="M386 -12q-153 0 -252.5 99.5t-99.5 252.5t99.5 252.5t252.5 99.5t252.5 -99.5t99.5 -252.5t-99.5 -252.5t-252.5 -99.5zM386 57q125 0 200.5 77.5t75.5 205.5t-75.5 205.5t-200.5 77.5t-200.5 -77.5t-75.5 -205.5t75.5 -205.5t200.5 -77.5zM246 161v358h155
q69 0 100.5 -27t31.5 -86q0 -85 -67 -105l88 -140h-88l-80 132h-62v-132h-78zM324 356h67q36 0 50 11t14 38t-14 38t-50 11h-67v-98z" />
    <glyph glyph-name="macron" unicode="&#xaf;" horiz-adv-x="500" 
d="M123 625v70h254v-70h-254z" />
    <glyph glyph-name="degree" unicode="&#xb0;" horiz-adv-x="376" 
d="M188 399q-68 0 -112.5 44.5t-44.5 113.5q0 68 44.5 112.5t112.5 44.5t112.5 -44.5t44.5 -112.5q0 -69 -44.5 -113.5t-112.5 -44.5zM188 469q37 0 61 25t24 63t-24 62.5t-61 24.5t-61 -24.5t-24 -62.5t24 -63t61 -25z" />
    <glyph glyph-name="plusminus" unicode="&#xb1;" horiz-adv-x="602" 
d="M262 128v190h-206v76h206v198h78v-198h206v-76h-206v-190h-78zM56 0v76h490v-76h-490z" />
    <glyph glyph-name="uni00B2" unicode="&#xb2;" 
d="M42 416v39q0 56 29 93.5t97 68.5q46 21 65 40t19 45t-17.5 40.5t-48.5 14.5q-67 0 -67 -67v-6h-70v15q0 59 36 91t103 32q66 0 101.5 -30.5t35.5 -86.5q0 -48 -28.5 -82t-93.5 -63q-47 -21 -66 -37.5t-21 -39.5h209v-67h-283z" />
    <glyph glyph-name="uni00B3" unicode="&#xb3;" 
d="M186 404q-145 0 -145 114v16h70v-6q0 -59 75 -59q72 0 72 58q0 57 -76 57h-44v64h43q68 0 68 54q0 55 -65 55q-68 0 -68 -57v-5h-69v10q0 56 36.5 86.5t102.5 30.5q64 0 99.5 -29t35.5 -85q0 -64 -48 -86v-2q58 -22 58 -95q0 -121 -145 -121z" />
    <glyph glyph-name="acute" unicode="&#xb4;" horiz-adv-x="500" 
d="M178 594l110 132h110l-131 -132h-89z" />
    <glyph glyph-name="uni00B5" unicode="&#xb5;" horiz-adv-x="582" 
d="M83 -182v698h88v-331q0 -117 92 -117q91 0 148 116v332h88v-516h-75l-3 84q-66 -96 -171 -96q-46 0 -79 18v-188h-88z" />
    <glyph glyph-name="paragraph" unicode="&#xb6;" horiz-adv-x="594" 
d="M223 -183v464q-102 2 -149.5 49.5t-47.5 149.5q0 104 49 152t155 48h262v-863h-88v787h-93v-787h-88z" />
    <glyph glyph-name="periodcentered" unicode="&#xb7;" horiz-adv-x="278" 
d="M88 242v102h102v-102h-102z" />
    <glyph glyph-name="cedilla" unicode="&#xb8;" horiz-adv-x="500" 
d="M228 -204q-64 0 -100 21l18 48q32 -18 67 -18q50 0 50 29q0 13 -11 18t-43 5h-28l44 116h54l-28 -73q95 -1 95 -70q0 -76 -118 -76z" />
    <glyph glyph-name="uni00B9" unicode="&#xb9;" 
d="M82 416v65h88v242q-37 -20 -100 -22v59q72 3 104 50h69v-329h88v-65h-249z" />
    <glyph glyph-name="ordmasculine" unicode="&#xba;" horiz-adv-x="420" 
d="M210 311q-161 0 -161 158v65q0 158 161 158t161 -158v-65q0 -158 -161 -158zM210 375q86 0 86 95v63q0 95 -86 95t-86 -95v-63q0 -95 86 -95zM52 167v65h316v-65h-316z" />
    <glyph glyph-name="guillemotright" unicode="&#xbb;" horiz-adv-x="482" 
d="M20 81l139 177l-139 176h94l139 -176l-139 -177h-94zM229 81l139 177l-139 176h94l139 -176l-139 -177h-94z" />
    <glyph glyph-name="onequarter" unicode="&#xbc;" horiz-adv-x="839" 
d="M238 -12l364 704h75l-364 -704h-75zM82 286v65h88v242q-37 -20 -100 -22v59q72 3 104 50h69v-329h88v-65h-249zM696 0v86h-197v67l193 241h77v-244h47v-64h-47v-86h-73zM577 150h119v153z" />
    <glyph glyph-name="onehalf" unicode="&#xbd;" horiz-adv-x="839" 
d="M200 -12l364 704h75l-364 -704h-75zM82 286v65h88v242q-37 -20 -100 -22v59q72 3 104 50h69v-329h88v-65h-249zM515 0v39q0 56 29 93.5t97 68.5q46 21 65 40t19 45t-17.5 40.5t-48.5 14.5q-67 0 -67 -67v-6h-70v15q0 59 36 91t103 32q66 0 101.5 -30.5t35.5 -86.5
q0 -48 -28.5 -82t-93.5 -63q-47 -21 -66 -37.5t-21 -39.5h209v-67h-283z" />
    <glyph glyph-name="threequarters" unicode="&#xbe;" horiz-adv-x="839" 
d="M186 274q-145 0 -145 114v16h70v-6q0 -59 75 -59q72 0 72 58q0 57 -76 57h-44v64h43q68 0 68 54q0 55 -65 55q-68 0 -68 -57v-5h-69v10q0 56 36.5 86.5t102.5 30.5q64 0 99.5 -29t35.5 -85q0 -64 -48 -86v-2q58 -22 58 -95q0 -121 -145 -121zM238 -12l364 704h75
l-364 -704h-75zM696 0v86h-197v67l193 241h77v-244h47v-64h-47v-86h-73zM577 150h119v153z" />
    <glyph glyph-name="questiondown" unicode="&#xbf;" horiz-adv-x="436" 
d="M186 414v102h102v-102h-102zM221 -176q-94 0 -145.5 46t-51.5 129q0 53 21 89t73 71q46 31 63.5 59t17.5 70v26h76v-29q0 -58 -21.5 -97.5t-72.5 -75.5q-40 -28 -55 -52t-15 -59q0 -48 28.5 -74t80.5 -26q56 0 86 31t30 90h85q0 -96 -51.5 -147t-148.5 -51z" />
    <glyph glyph-name="Agrave" unicode="&#xc0;" horiz-adv-x="605" 
d="M285 749l-131 132h110l110 -132h-89zM9 0l248 680h91l248 -680h-96l-62 174h-274l-62 -174h-93zM193 256h216l-108 309z" />
    <glyph glyph-name="Aacute" unicode="&#xc1;" horiz-adv-x="605" 
d="M230 749l110 132h110l-131 -132h-89zM9 0l248 680h91l248 -680h-96l-62 174h-274l-62 -174h-93zM193 256h216l-108 309z" />
    <glyph glyph-name="Acircumflex" unicode="&#xc2;" horiz-adv-x="605" 
d="M145 749l112 132h90l112 -132h-89l-68 69l-68 -69h-89zM9 0l248 680h91l248 -680h-96l-62 174h-274l-62 -174h-93zM193 256h216l-108 309z" />
    <glyph glyph-name="Atilde" unicode="&#xc3;" horiz-adv-x="605" 
d="M359 753q-29 0 -70 28q-29 19 -42 19q-28 0 -31 -45h-63q4 117 92 117q29 0 70 -28q29 -19 42 -19q28 0 31 45h63q-4 -117 -92 -117zM9 0l248 680h91l248 -680h-96l-62 174h-274l-62 -174h-93zM193 256h216l-108 309z" />
    <glyph glyph-name="Adieresis" unicode="&#xc4;" horiz-adv-x="605" 
d="M164 764v98h98v-98h-98zM342 764v98h98v-98h-98zM9 0l248 680h91l248 -680h-96l-62 174h-274l-62 -174h-93zM193 256h216l-108 309z" />
    <glyph glyph-name="Aring" unicode="&#xc5;" horiz-adv-x="605" 
d="M302 732q-47 0 -77 29t-30 75q0 45 30.5 74.5t76.5 29.5t76.5 -29.5t30.5 -74.5q0 -46 -30 -75t-77 -29zM302 790q19 0 31 12.5t12 33.5q0 20 -12 32.5t-31 12.5t-31 -12.5t-12 -32.5q0 -21 12 -33.5t31 -12.5zM9 0l248 680h91l248 -680h-96l-62 174h-274l-62 -174h-93z
M193 256h216l-108 309z" />
    <glyph glyph-name="AE" unicode="&#xc6;" horiz-adv-x="895" 
d="M-10 0l404 680h455v-82h-329v-209h279v-82h-279v-225h339v-82h-429v174h-236l-103 -174h-101zM241 256h189v328z" />
    <glyph glyph-name="Ccedilla" unicode="&#xc7;" horiz-adv-x="614" 
d="M317 70q153 0 160 153h88q-9 -219 -217 -234l-18 -47q95 -1 95 -70q0 -76 -118 -76q-64 0 -100 21l18 48q31 -18 67 -18q50 0 50 29q0 13 -11 18t-43 5h-28l34 90q-231 10 -231 268v166q0 269 254 269q239 0 248 -236h-88q-4 79 -43 116.5t-117 37.5q-85 0 -124.5 -45.5
t-39.5 -143.5v-162q0 -98 39.5 -143.5t124.5 -45.5z" />
    <glyph glyph-name="Egrave" unicode="&#xc8;" horiz-adv-x="583" 
d="M297 749l-131 132h110l110 -132h-89zM92 0v680h445v-82h-355v-209h305v-82h-305v-225h365v-82h-455z" />
    <glyph glyph-name="Eacute" unicode="&#xc9;" horiz-adv-x="583" 
d="M242 749l110 132h110l-131 -132h-89zM92 0v680h445v-82h-355v-209h305v-82h-305v-225h365v-82h-455z" />
    <glyph glyph-name="Ecircumflex" unicode="&#xca;" horiz-adv-x="583" 
d="M157 749l112 132h90l112 -132h-89l-68 69l-68 -69h-89zM92 0v680h445v-82h-355v-209h305v-82h-305v-225h365v-82h-455z" />
    <glyph glyph-name="Edieresis" unicode="&#xcb;" horiz-adv-x="583" 
d="M176 764v98h98v-98h-98zM354 764v98h98v-98h-98zM92 0v680h445v-82h-355v-209h305v-82h-305v-225h365v-82h-455z" />
    <glyph glyph-name="Igrave" unicode="&#xcc;" horiz-adv-x="274" 
d="M120 749l-131 132h110l110 -132h-89zM92 0v680h90v-680h-90z" />
    <glyph glyph-name="Iacute" unicode="&#xcd;" horiz-adv-x="274" 
d="M65 749l110 132h110l-131 -132h-89zM92 0v680h90v-680h-90z" />
    <glyph glyph-name="Icircumflex" unicode="&#xce;" horiz-adv-x="274" 
d="M-14 749l107 132h88l107 -132h-87l-64 68l-64 -68h-87zM92 0v680h90v-680h-90z" />
    <glyph glyph-name="Idieresis" unicode="&#xcf;" horiz-adv-x="274" 
d="M13 764v98h98v-98h-98zM163 764v98h98v-98h-98zM92 0v680h90v-680h-90z" />
    <glyph glyph-name="Eth" unicode="&#xd0;" horiz-adv-x="656" 
d="M336 680q133 0 195.5 -64t62.5 -200v-152q0 -136 -62.5 -200t-195.5 -64h-234v307h-75v82h75v291h234zM504 265v150q0 98 -41.5 140.5t-137.5 42.5h-133v-209h155v-82h-155v-225h133q96 0 137.5 42.5t41.5 140.5z" />
    <glyph glyph-name="Ntilde" unicode="&#xd1;" horiz-adv-x="691" 
d="M402 753q-29 0 -70 28q-29 19 -42 19q-28 0 -31 -45h-63q4 117 92 117q29 0 70 -28q29 -19 42 -19q28 0 31 45h63q-4 -117 -92 -117zM92 0v680h107l313 -517v517h87v-680h-88l-332 548v-548h-87z" />
    <glyph glyph-name="Ograve" unicode="&#xd2;" horiz-adv-x="654" 
d="M310 749l-131 132h110l110 -132h-89zM327 -12q-264 0 -264 271v162q0 271 264 271t264 -271v-162q0 -271 -264 -271zM327 70q90 0 132 45.5t42 143.5v162q0 98 -42 143.5t-132 45.5t-132 -45.5t-42 -143.5v-162q0 -98 42 -143.5t132 -45.5z" />
    <glyph glyph-name="Oacute" unicode="&#xd3;" horiz-adv-x="654" 
d="M255 749l110 132h110l-131 -132h-89zM327 -12q-264 0 -264 271v162q0 271 264 271t264 -271v-162q0 -271 -264 -271zM327 70q90 0 132 45.5t42 143.5v162q0 98 -42 143.5t-132 45.5t-132 -45.5t-42 -143.5v-162q0 -98 42 -143.5t132 -45.5z" />
    <glyph glyph-name="Ocircumflex" unicode="&#xd4;" horiz-adv-x="654" 
d="M170 749l112 132h90l112 -132h-89l-68 69l-68 -69h-89zM327 -12q-264 0 -264 271v162q0 271 264 271t264 -271v-162q0 -271 -264 -271zM327 70q90 0 132 45.5t42 143.5v162q0 98 -42 143.5t-132 45.5t-132 -45.5t-42 -143.5v-162q0 -98 42 -143.5t132 -45.5z" />
    <glyph glyph-name="Otilde" unicode="&#xd5;" horiz-adv-x="654" 
d="M384 753q-29 0 -70 28q-29 19 -42 19q-28 0 -31 -45h-63q4 117 92 117q29 0 70 -28q29 -19 42 -19q28 0 31 45h63q-4 -117 -92 -117zM327 -12q-264 0 -264 271v162q0 271 264 271t264 -271v-162q0 -271 -264 -271zM327 70q90 0 132 45.5t42 143.5v162q0 98 -42 143.5
t-132 45.5t-132 -45.5t-42 -143.5v-162q0 -98 42 -143.5t132 -45.5z" />
    <glyph glyph-name="Odieresis" unicode="&#xd6;" horiz-adv-x="654" 
d="M189 764v98h98v-98h-98zM367 764v98h98v-98h-98zM327 -12q-264 0 -264 271v162q0 271 264 271t264 -271v-162q0 -271 -264 -271zM327 70q90 0 132 45.5t42 143.5v162q0 98 -42 143.5t-132 45.5t-132 -45.5t-42 -143.5v-162q0 -98 42 -143.5t132 -45.5z" />
    <glyph glyph-name="multiply" unicode="&#xd7;" horiz-adv-x="602" 
d="M111 65l-53 53l190 191l-190 191l53 53l190 -191l190 191l53 -53l-190 -191l190 -191l-53 -53l-190 191z" />
    <glyph glyph-name="Oslash" unicode="&#xd8;" horiz-adv-x="654" 
d="M591 647l-40 -56q40 -64 40 -170v-162q0 -271 -264 -271q-106 0 -170 44l-31 -44l-63 45l40 56q-40 64 -40 170v162q0 271 264 271q106 0 170 -44l31 44zM153 259q0 -50 10 -84l283 401q-41 34 -119 34q-90 0 -132 -45.5t-42 -143.5v-162zM501 421q0 50 -10 84l-283 -401
q41 -34 119 -34q90 0 132 45.5t42 143.5v162z" />
    <glyph glyph-name="Ugrave" unicode="&#xd9;" horiz-adv-x="640" 
d="M303 749l-131 132h110l110 -132h-89zM320 -12q-129 0 -187 56t-58 180v456h90v-455q0 -85 35.5 -120t120.5 -35q86 0 121.5 35t35.5 120v455h87v-456q0 -124 -58 -180t-187 -56z" />
    <glyph glyph-name="Uacute" unicode="&#xda;" horiz-adv-x="640" 
d="M248 749l110 132h110l-131 -132h-89zM320 -12q-129 0 -187 56t-58 180v456h90v-455q0 -85 35.5 -120t120.5 -35q86 0 121.5 35t35.5 120v455h87v-456q0 -124 -58 -180t-187 -56z" />
    <glyph glyph-name="Ucircumflex" unicode="&#xdb;" horiz-adv-x="640" 
d="M163 749l112 132h90l112 -132h-89l-68 69l-68 -69h-89zM320 -12q-129 0 -187 56t-58 180v456h90v-455q0 -85 35.5 -120t120.5 -35q86 0 121.5 35t35.5 120v455h87v-456q0 -124 -58 -180t-187 -56z" />
    <glyph glyph-name="Udieresis" unicode="&#xdc;" horiz-adv-x="640" 
d="M182 764v98h98v-98h-98zM360 764v98h98v-98h-98zM320 -12q-129 0 -187 56t-58 180v456h90v-455q0 -85 35.5 -120t120.5 -35q86 0 121.5 35t35.5 120v455h87v-456q0 -124 -58 -180t-187 -56z" />
    <glyph glyph-name="Yacute" unicode="&#xdd;" horiz-adv-x="552" 
d="M204 749l110 132h110l-131 -132h-89zM231 0v290l-241 390h105l184 -297l183 297h100l-241 -390v-290h-90z" />
    <glyph glyph-name="Thorn" unicode="&#xde;" horiz-adv-x="601" 
d="M92 0v680h90v-103h166q119 0 173 -49.5t54 -159.5q0 -109 -54 -158.5t-173 -49.5h-166v-160h-90zM182 242h160q78 0 110.5 28.5t32.5 97.5t-32.5 98t-110.5 29h-160v-253z" />
    <glyph glyph-name="germandbls" unicode="&#xdf;" horiz-adv-x="592" 
d="M107 0v444h-94v72h94v45q0 89 50 135t147 46q90 0 137.5 -39.5t47.5 -111.5q0 -39 -15 -70t-51 -68q-42 -42 -42 -71q0 -21 14 -35t53 -31q62 -28 87.5 -62t25.5 -90q0 -164 -206 -164h-59v76h58q120 0 120 81q0 29 -17 48t-61 38q-56 24 -78.5 54t-22.5 79q0 38 14 67
t48 62q46 45 46 83q0 37 -25.5 57.5t-73.5 20.5q-109 0 -109 -105v-561h-88z" />
    <glyph glyph-name="agrave" unicode="&#xe0;" horiz-adv-x="541" 
d="M247 594l-131 132h110l110 -132h-89zM216 -12q-80 0 -126 41.5t-46 116.5q0 161 213 161h124v28q0 60 -28.5 88.5t-88.5 28.5q-115 0 -119 -93h-86q14 169 208 169q202 0 202 -191v-337h-75l-3 70q-65 -82 -175 -82zM229 64q104 0 152 97v73h-121q-67 0 -97.5 -21
t-30.5 -65q0 -84 97 -84z" />
    <glyph glyph-name="aacute" unicode="&#xe1;" horiz-adv-x="541" 
d="M192 594l110 132h110l-131 -132h-89zM216 -12q-80 0 -126 41.5t-46 116.5q0 161 213 161h124v28q0 60 -28.5 88.5t-88.5 28.5q-115 0 -119 -93h-86q14 169 208 169q202 0 202 -191v-337h-75l-3 70q-65 -82 -175 -82zM229 64q104 0 152 97v73h-121q-67 0 -97.5 -21
t-30.5 -65q0 -84 97 -84z" />
    <glyph glyph-name="acircumflex" unicode="&#xe2;" horiz-adv-x="541" 
d="M107 594l112 132h90l112 -132h-89l-68 69l-68 -69h-89zM216 -12q-80 0 -126 41.5t-46 116.5q0 161 213 161h124v28q0 60 -28.5 88.5t-88.5 28.5q-115 0 -119 -93h-86q14 169 208 169q202 0 202 -191v-337h-75l-3 70q-65 -82 -175 -82zM229 64q104 0 152 97v73h-121
q-67 0 -97.5 -21t-30.5 -65q0 -84 97 -84z" />
    <glyph glyph-name="atilde" unicode="&#xe3;" horiz-adv-x="541" 
d="M321 598q-29 0 -70 28q-29 19 -42 19q-28 0 -31 -45h-63q4 117 92 117q29 0 70 -28q28 -19 42 -19q28 0 31 45h63q-4 -117 -92 -117zM216 -12q-80 0 -126 41.5t-46 116.5q0 161 213 161h124v28q0 60 -28.5 88.5t-88.5 28.5q-115 0 -119 -93h-86q14 169 208 169
q202 0 202 -191v-337h-75l-3 70q-65 -82 -175 -82zM229 64q104 0 152 97v73h-121q-67 0 -97.5 -21t-30.5 -65q0 -84 97 -84z" />
    <glyph glyph-name="adieresis" unicode="&#xe4;" horiz-adv-x="541" 
d="M126 609v98h98v-98h-98zM304 609v98h98v-98h-98zM216 -12q-80 0 -126 41.5t-46 116.5q0 161 213 161h124v28q0 60 -28.5 88.5t-88.5 28.5q-115 0 -119 -93h-86q14 169 208 169q202 0 202 -191v-337h-75l-3 70q-65 -82 -175 -82zM229 64q104 0 152 97v73h-121
q-67 0 -97.5 -21t-30.5 -65q0 -84 97 -84z" />
    <glyph glyph-name="aring" unicode="&#xe5;" horiz-adv-x="541" 
d="M264 577q-47 0 -77 29t-30 75q0 45 30.5 74.5t76.5 29.5t76.5 -29.5t30.5 -74.5q0 -46 -30 -75t-77 -29zM264 635q19 0 31 12.5t12 33.5q0 20 -12 32.5t-31 12.5t-31 -12.5t-12 -32.5q0 -21 12 -33.5t31 -12.5zM216 -12q-80 0 -126 41.5t-46 116.5q0 161 213 161h124v28
q0 60 -28.5 88.5t-88.5 28.5q-115 0 -119 -93h-86q14 169 208 169q202 0 202 -191v-337h-75l-3 70q-65 -82 -175 -82zM229 64q104 0 152 97v73h-121q-67 0 -97.5 -21t-30.5 -65q0 -84 97 -84z" />
    <glyph glyph-name="ae" unicode="&#xe6;" horiz-adv-x="872" 
d="M218 -12q-81 0 -127.5 40.5t-46.5 116.5q0 162 212 162h125v29q0 60 -28.5 88t-88.5 28q-111 0 -119 -93h-86q15 169 201 169q132 0 172 -89q45 89 173 89q103 0 157.5 -56t54.5 -163v-75h-348v-23q0 -76 33 -111.5t102 -35.5q114 0 124 90h85q-5 -81 -58.5 -123.5
t-150.5 -42.5q-143 0 -194 92q-72 -92 -192 -92zM469 307h263q0 75 -31.5 110t-98.5 35q-68 0 -100.5 -35.5t-32.5 -109.5zM229 64q104 0 154 102q-2 26 -2 41v27h-122q-127 0 -127 -87q0 -83 97 -83z" />
    <glyph glyph-name="ccedilla" unicode="&#xe7;" horiz-adv-x="517" 
d="M273 65q56 0 86 27t34 87h85q-3 -86 -47.5 -134t-127.5 -56l-18 -47q95 -1 95 -70q0 -76 -118 -76q-64 0 -100 21l18 48q32 -18 67 -18q50 0 50 29q0 13 -11 18t-43 5h-28l34 90q-94 6 -143 61.5t-49 156.5v102q0 107 55 163t160 56q98 0 150.5 -48.5t55.5 -142.5h-85
q-4 60 -34 87t-86 27q-65 0 -96.5 -35t-31.5 -109v-98q0 -74 31.5 -109t96.5 -35z" />
    <glyph glyph-name="egrave" unicode="&#xe8;" horiz-adv-x="548" 
d="M256 594l-131 132h110l110 -132h-89zM281 -12q-109 0 -166.5 56.5t-57.5 162.5v102q0 106 56 162.5t162 56.5t162 -56.5t56 -162.5v-75h-348v-23q0 -76 32.5 -111.5t101.5 -35.5q115 0 125 90h85q-5 -81 -59.5 -123.5t-148.5 -42.5zM145 307h263q0 74 -32 109.5t-99 35.5
q-68 0 -100 -35.5t-32 -109.5z" />
    <glyph glyph-name="eacute" unicode="&#xe9;" horiz-adv-x="548" 
d="M201 594l110 132h110l-131 -132h-89zM281 -12q-109 0 -166.5 56.5t-57.5 162.5v102q0 106 56 162.5t162 56.5t162 -56.5t56 -162.5v-75h-348v-23q0 -76 32.5 -111.5t101.5 -35.5q115 0 125 90h85q-5 -81 -59.5 -123.5t-148.5 -42.5zM145 307h263q0 74 -32 109.5t-99 35.5
q-68 0 -100 -35.5t-32 -109.5z" />
    <glyph glyph-name="ecircumflex" unicode="&#xea;" horiz-adv-x="548" 
d="M116 594l112 132h90l112 -132h-89l-68 69l-68 -69h-89zM281 -12q-109 0 -166.5 56.5t-57.5 162.5v102q0 106 56 162.5t162 56.5t162 -56.5t56 -162.5v-75h-348v-23q0 -76 32.5 -111.5t101.5 -35.5q115 0 125 90h85q-5 -81 -59.5 -123.5t-148.5 -42.5zM145 307h263
q0 74 -32 109.5t-99 35.5q-68 0 -100 -35.5t-32 -109.5z" />
    <glyph glyph-name="edieresis" unicode="&#xeb;" horiz-adv-x="548" 
d="M135 609v98h98v-98h-98zM313 609v98h98v-98h-98zM281 -12q-109 0 -166.5 56.5t-57.5 162.5v102q0 106 56 162.5t162 56.5t162 -56.5t56 -162.5v-75h-348v-23q0 -76 32.5 -111.5t101.5 -35.5q115 0 125 90h85q-5 -81 -59.5 -123.5t-148.5 -42.5zM145 307h263
q0 74 -32 109.5t-99 35.5q-68 0 -100 -35.5t-32 -109.5z" />
    <glyph glyph-name="igrave" unicode="&#xec;" horiz-adv-x="254" 
d="M110 594l-131 132h110l110 -132h-89zM83 0v516h88v-516h-88z" />
    <glyph glyph-name="iacute" unicode="&#xed;" horiz-adv-x="254" 
d="M55 594l110 132h110l-131 -132h-89zM83 0v516h88v-516h-88z" />
    <glyph glyph-name="icircumflex" unicode="&#xee;" horiz-adv-x="254" 
d="M-24 594l107 132h88l107 -132h-87l-64 68l-64 -68h-87zM83 0v516h88v-516h-88z" />
    <glyph glyph-name="idieresis" unicode="&#xef;" horiz-adv-x="254" 
d="M3 609v98h98v-98h-98zM153 609v98h98v-98h-98zM83 0v516h88v-516h-88z" />
    <glyph glyph-name="eth" unicode="&#xf0;" horiz-adv-x="555" 
d="M277 -12q-223 0 -223 228v54q0 107 49 163t142 56t147 -62q-29 78 -93 152l-142 -55l-26 67l113 44q-60 54 -132 95h131q43 -27 82 -63l98 38l26 -67l-70 -27q121 -145 121 -322v-73q0 -228 -223 -228zM277 65q70 0 102.5 37.5t32.5 117.5v73q-39 119 -152 119
q-118 0 -118 -144v-48q0 -80 32.5 -117.5t102.5 -37.5z" />
    <glyph glyph-name="ntilde" unicode="&#xf1;" horiz-adv-x="570" 
d="M344 598q-29 0 -70 28q-29 19 -42 19q-28 0 -31 -45h-63q4 117 92 117q29 0 70 -28q28 -19 42 -19q28 0 31 45h63q-4 -117 -92 -117zM83 0v516h75l3 -81q65 93 172 93q162 0 162 -189v-339h-88v331q0 116 -91 116q-90 0 -145 -112v-335h-88z" />
    <glyph glyph-name="ograve" unicode="&#xf2;" horiz-adv-x="560" 
d="M263 594l-131 132h110l110 -132h-89zM280 -12q-110 0 -166.5 58t-56.5 170v84q0 112 56.5 170t166.5 58t166.5 -58t56.5 -170v-84q0 -112 -56.5 -170t-166.5 -58zM280 65q135 0 135 154v79q0 153 -135 153t-135 -153v-79q0 -154 135 -154z" />
    <glyph glyph-name="oacute" unicode="&#xf3;" horiz-adv-x="560" 
d="M208 594l110 132h110l-131 -132h-89zM280 -12q-110 0 -166.5 58t-56.5 170v84q0 112 56.5 170t166.5 58t166.5 -58t56.5 -170v-84q0 -112 -56.5 -170t-166.5 -58zM280 65q135 0 135 154v79q0 153 -135 153t-135 -153v-79q0 -154 135 -154z" />
    <glyph glyph-name="ocircumflex" unicode="&#xf4;" horiz-adv-x="560" 
d="M123 594l112 132h90l112 -132h-89l-68 69l-68 -69h-89zM280 -12q-110 0 -166.5 58t-56.5 170v84q0 112 56.5 170t166.5 58t166.5 -58t56.5 -170v-84q0 -112 -56.5 -170t-166.5 -58zM280 65q135 0 135 154v79q0 153 -135 153t-135 -153v-79q0 -154 135 -154z" />
    <glyph glyph-name="otilde" unicode="&#xf5;" horiz-adv-x="560" 
d="M337 598q-29 0 -70 28q-29 19 -42 19q-28 0 -31 -45h-63q4 117 92 117q29 0 70 -28q28 -19 42 -19q28 0 31 45h63q-4 -117 -92 -117zM280 -12q-110 0 -166.5 58t-56.5 170v84q0 112 56.5 170t166.5 58t166.5 -58t56.5 -170v-84q0 -112 -56.5 -170t-166.5 -58zM280 65
q135 0 135 154v79q0 153 -135 153t-135 -153v-79q0 -154 135 -154z" />
    <glyph glyph-name="odieresis" unicode="&#xf6;" horiz-adv-x="560" 
d="M142 609v98h98v-98h-98zM320 609v98h98v-98h-98zM280 -12q-110 0 -166.5 58t-56.5 170v84q0 112 56.5 170t166.5 58t166.5 -58t56.5 -170v-84q0 -112 -56.5 -170t-166.5 -58zM280 65q135 0 135 154v79q0 153 -135 153t-135 -153v-79q0 -154 135 -154z" />
    <glyph glyph-name="divide" unicode="&#xf7;" horiz-adv-x="602" 
d="M251 467v100h100v-100h-100zM56 271v76h490v-76h-490zM251 51v100h100v-100h-100z" />
    <glyph glyph-name="oslash" unicode="&#xf8;" horiz-adv-x="560" 
d="M503 482l-33 -42q33 -54 33 -140v-84q0 -112 -56.5 -170t-166.5 -58q-85 0 -138 35l-28 -35l-57 46l33 42q-33 54 -33 140v84q0 112 56.5 170t166.5 58q85 0 138 -35l28 35zM145 219q0 -39 7 -64l215 272q-33 24 -87 24q-135 0 -135 -153v-79zM415 298q0 38 -7 63
l-214 -272q32 -24 86 -24q135 0 135 154v79z" />
    <glyph glyph-name="ugrave" unicode="&#xf9;" horiz-adv-x="574" 
d="M266 594l-131 132h110l110 -132h-89zM239 -12q-164 0 -164 189v339h88v-331q0 -60 22.5 -88t69.5 -28q92 0 148 112v335h88v-516h-75l-3 82q-65 -94 -174 -94z" />
    <glyph glyph-name="uacute" unicode="&#xfa;" horiz-adv-x="574" 
d="M211 594l110 132h110l-131 -132h-89zM239 -12q-164 0 -164 189v339h88v-331q0 -60 22.5 -88t69.5 -28q92 0 148 112v335h88v-516h-75l-3 82q-65 -94 -174 -94z" />
    <glyph glyph-name="ucircumflex" unicode="&#xfb;" horiz-adv-x="574" 
d="M126 594l112 132h90l112 -132h-89l-68 69l-68 -69h-89zM239 -12q-164 0 -164 189v339h88v-331q0 -60 22.5 -88t69.5 -28q92 0 148 112v335h88v-516h-75l-3 82q-65 -94 -174 -94z" />
    <glyph glyph-name="udieresis" unicode="&#xfc;" horiz-adv-x="574" 
d="M145 609v98h98v-98h-98zM323 609v98h98v-98h-98zM239 -12q-164 0 -164 189v339h88v-331q0 -60 22.5 -88t69.5 -28q92 0 148 112v335h88v-516h-75l-3 82q-65 -94 -174 -94z" />
    <glyph glyph-name="yacute" unicode="&#xfd;" horiz-adv-x="470" 
d="M164 594l110 132h110l-131 -132h-89zM58 -182v76h44q30 0 45.5 11.5t25.5 42.5l24 72l-186 496h94l137 -381l127 381h90l-202 -578q-24 -68 -56 -94t-91 -26h-52z" />
    <glyph glyph-name="thorn" unicode="&#xfe;" horiz-adv-x="582" 
d="M83 -182v912h88v-282q61 80 164 80q91 0 140.5 -55t49.5 -160v-110q0 -105 -49.5 -160t-140.5 -55q-103 0 -164 80v-250h-88zM324 65q54 0 83.5 36.5t29.5 104.5v104q0 68 -29.5 104.5t-83.5 36.5q-99 0 -153 -117v-152q54 -117 153 -117z" />
    <glyph glyph-name="ydieresis" unicode="&#xff;" horiz-adv-x="470" 
d="M98 609v98h98v-98h-98zM276 609v98h98v-98h-98zM58 -182v76h44q30 0 45.5 11.5t25.5 42.5l24 72l-186 496h94l137 -381l127 381h90l-202 -578q-24 -68 -56 -94t-91 -26h-52z" />
    <glyph glyph-name="Amacron" unicode="&#x100;" horiz-adv-x="605" 
d="M175 780v70h254v-70h-254zM9 0l248 680h91l248 -680h-96l-62 174h-274l-62 -174h-93zM193 256h216l-108 309z" />
    <glyph glyph-name="amacron" unicode="&#x101;" horiz-adv-x="541" 
d="M137 625v70h254v-70h-254zM216 -12q-80 0 -126 41.5t-46 116.5q0 161 213 161h124v28q0 60 -28.5 88.5t-88.5 28.5q-115 0 -119 -93h-86q14 169 208 169q202 0 202 -191v-337h-75l-3 70q-65 -82 -175 -82zM229 64q104 0 152 97v73h-121q-67 0 -97.5 -21t-30.5 -65
q0 -84 97 -84z" />
    <glyph glyph-name="Abreve" unicode="&#x102;" horiz-adv-x="605" 
d="M302 746q-64 0 -100.5 35.5t-38.5 96.5h69q3 -63 70 -63t70 63h69q-2 -61 -38.5 -96.5t-100.5 -35.5zM9 0l248 680h91l248 -680h-96l-62 174h-274l-62 -174h-93zM193 256h216l-108 309z" />
    <glyph glyph-name="abreve" unicode="&#x103;" horiz-adv-x="541" 
d="M264 591q-64 0 -100.5 35.5t-38.5 96.5h69q3 -63 70 -63t70 63h69q-2 -61 -38.5 -96.5t-100.5 -35.5zM216 -12q-80 0 -126 41.5t-46 116.5q0 161 213 161h124v28q0 60 -28.5 88.5t-88.5 28.5q-115 0 -119 -93h-86q14 169 208 169q202 0 202 -191v-337h-75l-3 70
q-65 -82 -175 -82zM229 64q104 0 152 97v73h-121q-67 0 -97.5 -21t-30.5 -65q0 -84 97 -84z" />
    <glyph glyph-name="Aogonek" unicode="&#x104;" horiz-adv-x="605" 
d="M497 -94q0 -40 45 -40q25 0 54 16v-71q-33 -13 -70 -13q-51 0 -79.5 22.5t-28.5 64.5q0 68 79 124l-59 165h-274l-62 -174h-93l248 680h91l248 -680h-23q-76 -48 -76 -94zM193 256h216l-108 309z" />
    <glyph glyph-name="aogonek" unicode="&#x105;" horiz-adv-x="541" 
d="M446 0q-76 -48 -76 -94q0 -40 45 -40q25 0 54 16v-71q-32 -13 -70 -13q-51 0 -79.5 22.5t-28.5 64.5q0 77 102 140l-2 45q-65 -82 -175 -82q-80 0 -126 41.5t-46 116.5q0 161 213 161h124v28q0 60 -28.5 88.5t-88.5 28.5q-115 0 -119 -93h-86q14 169 208 169
q202 0 202 -191v-337h-23zM381 161v73h-121q-67 0 -97.5 -21t-30.5 -65q0 -84 97 -84q104 0 152 97z" />
    <glyph glyph-name="Cacute" unicode="&#x106;" horiz-adv-x="614" 
d="M245 749l110 132h110l-131 -132h-89zM317 -12q-254 0 -254 269v166q0 269 254 269q239 0 248 -236h-88q-4 79 -43 116.5t-117 37.5q-85 0 -124.5 -45.5t-39.5 -143.5v-162q0 -98 39.5 -143.5t124.5 -45.5q153 0 160 153h88q-9 -235 -248 -235z" />
    <glyph glyph-name="cacute" unicode="&#x107;" horiz-adv-x="517" 
d="M197 594l110 132h110l-131 -132h-89zM272 -12q-105 0 -160 56t-55 163v102q0 107 55 163t160 56q98 0 150.5 -48.5t55.5 -142.5h-85q-4 60 -34 87t-86 27q-65 0 -96.5 -35t-31.5 -109v-98q0 -74 31.5 -109t96.5 -35q56 0 86 27t34 87h85q-3 -94 -55.5 -142.5
t-150.5 -48.5z" />
    <glyph glyph-name="Ccircumflex" unicode="&#x108;" horiz-adv-x="614" 
d="M160 749l112 132h90l112 -132h-89l-68 69l-68 -69h-89zM317 -12q-254 0 -254 269v166q0 269 254 269q239 0 248 -236h-88q-4 79 -43 116.5t-117 37.5q-85 0 -124.5 -45.5t-39.5 -143.5v-162q0 -98 39.5 -143.5t124.5 -45.5q153 0 160 153h88q-9 -235 -248 -235z" />
    <glyph glyph-name="ccircumflex" unicode="&#x109;" horiz-adv-x="517" 
d="M112 594l112 132h90l112 -132h-89l-68 69l-68 -69h-89zM272 -12q-105 0 -160 56t-55 163v102q0 107 55 163t160 56q98 0 150.5 -48.5t55.5 -142.5h-85q-4 60 -34 87t-86 27q-65 0 -96.5 -35t-31.5 -109v-98q0 -74 31.5 -109t96.5 -35q56 0 86 27t34 87h85
q-3 -94 -55.5 -142.5t-150.5 -48.5z" />
    <glyph glyph-name="Cdotaccent" unicode="&#x10a;" horiz-adv-x="614" 
d="M268 764v98h98v-98h-98zM317 -12q-254 0 -254 269v166q0 269 254 269q239 0 248 -236h-88q-4 79 -43 116.5t-117 37.5q-85 0 -124.5 -45.5t-39.5 -143.5v-162q0 -98 39.5 -143.5t124.5 -45.5q153 0 160 153h88q-9 -235 -248 -235z" />
    <glyph glyph-name="cdotaccent" unicode="&#x10b;" horiz-adv-x="517" 
d="M220 609v98h98v-98h-98zM272 -12q-105 0 -160 56t-55 163v102q0 107 55 163t160 56q98 0 150.5 -48.5t55.5 -142.5h-85q-4 60 -34 87t-86 27q-65 0 -96.5 -35t-31.5 -109v-98q0 -74 31.5 -109t96.5 -35q56 0 86 27t34 87h85q-3 -94 -55.5 -142.5t-150.5 -48.5z" />
    <glyph glyph-name="Ccaron" unicode="&#x10c;" horiz-adv-x="614" 
d="M272 749l-112 132h89l68 -69l68 69h89l-112 -132h-90zM317 -12q-254 0 -254 269v166q0 269 254 269q239 0 248 -236h-88q-4 79 -43 116.5t-117 37.5q-85 0 -124.5 -45.5t-39.5 -143.5v-162q0 -98 39.5 -143.5t124.5 -45.5q153 0 160 153h88q-9 -235 -248 -235z" />
    <glyph glyph-name="ccaron" unicode="&#x10d;" horiz-adv-x="517" 
d="M224 594l-112 132h89l68 -69l68 69h89l-112 -132h-90zM272 -12q-105 0 -160 56t-55 163v102q0 107 55 163t160 56q98 0 150.5 -48.5t55.5 -142.5h-85q-4 60 -34 87t-86 27q-65 0 -96.5 -35t-31.5 -109v-98q0 -74 31.5 -109t96.5 -35q56 0 86 27t34 87h85
q-3 -94 -55.5 -142.5t-150.5 -48.5z" />
    <glyph glyph-name="Dcaron" unicode="&#x10e;" horiz-adv-x="646" 
d="M269 749l-112 132h89l68 -69l68 69h89l-112 -132h-90zM92 0v680h234q133 0 195.5 -64t62.5 -200v-152q0 -136 -62.5 -200t-195.5 -64h-234zM182 82h133q96 0 137.5 42.5t41.5 140.5v150q0 98 -41.5 140.5t-137.5 42.5h-133v-516z" />
    <glyph glyph-name="dcaron" unicode="&#x10f;" horiz-adv-x="582" 
d="M247 -12q-91 0 -140.5 55t-49.5 160v110q0 105 49.5 160t140.5 55q103 0 164 -80v282h88v-730h-75l-3 82q-64 -94 -174 -94zM539 523l42 207h95l-71 -207h-66zM258 65q99 0 153 117v152q-54 117 -153 117q-54 0 -83.5 -36.5t-29.5 -104.5v-104q0 -68 29.5 -104.5
t83.5 -36.5z" />
    <glyph glyph-name="Dcroat" unicode="&#x110;" horiz-adv-x="656" 
d="M336 680q133 0 195.5 -64t62.5 -200v-152q0 -136 -62.5 -200t-195.5 -64h-234v307h-75v82h75v291h234zM504 265v150q0 98 -41.5 140.5t-137.5 42.5h-133v-209h155v-82h-155v-225h133q96 0 137.5 42.5t41.5 140.5z" />
    <glyph glyph-name="dcroat" unicode="&#x111;" horiz-adv-x="590" 
d="M582 651v-71h-83v-580h-75l-3 82q-64 -94 -174 -94q-91 0 -140.5 55t-49.5 160v110q0 105 49.5 160t140.5 55q103 0 164 -80v132h-134v71h134v79h88v-79h83zM411 182v152q-54 117 -153 117q-54 0 -83.5 -36.5t-29.5 -104.5v-104q0 -68 29.5 -104.5t83.5 -36.5
q99 0 153 117z" />
    <glyph glyph-name="Emacron" unicode="&#x112;" horiz-adv-x="583" 
d="M187 780v70h254v-70h-254zM92 0v680h445v-82h-355v-209h305v-82h-305v-225h365v-82h-455z" />
    <glyph glyph-name="emacron" unicode="&#x113;" horiz-adv-x="548" 
d="M146 625v70h254v-70h-254zM281 -12q-109 0 -166.5 56.5t-57.5 162.5v102q0 106 56 162.5t162 56.5t162 -56.5t56 -162.5v-75h-348v-23q0 -76 32.5 -111.5t101.5 -35.5q115 0 125 90h85q-5 -81 -59.5 -123.5t-148.5 -42.5zM145 307h263q0 74 -32 109.5t-99 35.5
q-68 0 -100 -35.5t-32 -109.5z" />
    <glyph glyph-name="Ebreve" unicode="&#x114;" horiz-adv-x="583" 
d="M314 746q-64 0 -100.5 35.5t-38.5 96.5h69q3 -63 70 -63t70 63h69q-2 -61 -38.5 -96.5t-100.5 -35.5zM92 0v680h445v-82h-355v-209h305v-82h-305v-225h365v-82h-455z" />
    <glyph glyph-name="ebreve" unicode="&#x115;" horiz-adv-x="548" 
d="M273 591q-64 0 -100.5 35.5t-38.5 96.5h69q3 -63 70 -63t70 63h69q-2 -61 -38.5 -96.5t-100.5 -35.5zM281 -12q-109 0 -166.5 56.5t-57.5 162.5v102q0 106 56 162.5t162 56.5t162 -56.5t56 -162.5v-75h-348v-23q0 -76 32.5 -111.5t101.5 -35.5q115 0 125 90h85
q-5 -81 -59.5 -123.5t-148.5 -42.5zM145 307h263q0 74 -32 109.5t-99 35.5q-68 0 -100 -35.5t-32 -109.5z" />
    <glyph glyph-name="Edotaccent" unicode="&#x116;" horiz-adv-x="583" 
d="M265 764v98h98v-98h-98zM92 0v680h445v-82h-355v-209h305v-82h-305v-225h365v-82h-455z" />
    <glyph glyph-name="edotaccent" unicode="&#x117;" horiz-adv-x="548" 
d="M224 609v98h98v-98h-98zM281 -12q-109 0 -166.5 56.5t-57.5 162.5v102q0 106 56 162.5t162 56.5t162 -56.5t56 -162.5v-75h-348v-23q0 -76 32.5 -111.5t101.5 -35.5q115 0 125 90h85q-5 -81 -59.5 -123.5t-148.5 -42.5zM145 307h263q0 74 -32 109.5t-99 35.5
q-68 0 -100 -35.5t-32 -109.5z" />
    <glyph glyph-name="Eogonek" unicode="&#x118;" horiz-adv-x="583" 
d="M524 0q-76 -48 -76 -94q0 -40 45 -40q25 0 54 16v-71q-33 -13 -70 -13q-51 0 -79.5 22.5t-28.5 64.5q0 62 66 115h-343v680h445v-82h-355v-209h305v-82h-305v-225h365v-82h-23z" />
    <glyph glyph-name="eogonek" unicode="&#x119;" horiz-adv-x="548" 
d="M493 234h-348v-23q0 -76 32.5 -111.5t101.5 -35.5q115 0 125 90h85q-4 -77 -56 -121q-77 -66 -77 -126q0 -41 45 -41q27 0 54 16v-71q-27 -13 -70 -13q-108 0 -108 90q0 50 41 102q-24 -2 -37 -2q-109 0 -166.5 56.5t-57.5 162.5v102q0 106 56 162.5t162 56.5t162 -56.5
t56 -162.5v-75zM277 452q-68 0 -100 -35.5t-32 -109.5h263q0 74 -32 109.5t-99 35.5z" />
    <glyph glyph-name="Ecaron" unicode="&#x11a;" horiz-adv-x="583" 
d="M269 749l-112 132h89l68 -69l68 69h89l-112 -132h-90zM92 0v680h445v-82h-355v-209h305v-82h-305v-225h365v-82h-455z" />
    <glyph glyph-name="ecaron" unicode="&#x11b;" horiz-adv-x="548" 
d="M228 594l-112 132h89l68 -69l68 69h89l-112 -132h-90zM281 -12q-109 0 -166.5 56.5t-57.5 162.5v102q0 106 56 162.5t162 56.5t162 -56.5t56 -162.5v-75h-348v-23q0 -76 32.5 -111.5t101.5 -35.5q115 0 125 90h85q-5 -81 -59.5 -123.5t-148.5 -42.5zM145 307h263
q0 74 -32 109.5t-99 35.5q-68 0 -100 -35.5t-32 -109.5z" />
    <glyph glyph-name="Gcircumflex" unicode="&#x11c;" horiz-adv-x="636" 
d="M161 749l112 132h90l112 -132h-89l-68 69l-68 -69h-89zM324 -12q-128 0 -194.5 67t-66.5 196v178q0 128 66 195.5t191 67.5q115 0 180 -57t69 -165h-88q-4 67 -44.5 103.5t-117.5 36.5q-166 0 -166 -186v-168q0 -95 42 -140.5t130 -45.5q85 0 124 42.5t39 135.5v37h-145
v83h233v-120q0 -260 -252 -260z" />
    <glyph glyph-name="gcircumflex" unicode="&#x11d;" horiz-adv-x="581" 
d="M123 594l112 132h90l112 -132h-89l-68 69l-68 -69h-89zM278 -194q-199 0 -210 160h82q7 -84 126 -84q69 0 101.5 31t32.5 98v85q-61 -79 -163 -79q-91 0 -140.5 55t-49.5 160v81q0 105 49.5 160t140.5 55q109 0 172 -92l4 80h75v-505q0 -205 -220 -205zM258 94
q98 0 152 115v127q-54 115 -152 115q-54 0 -83.5 -36.5t-29.5 -104.5v-75q0 -68 29.5 -104.5t83.5 -36.5z" />
    <glyph glyph-name="Gbreve" unicode="&#x11e;" horiz-adv-x="636" 
d="M318 746q-64 0 -100.5 35.5t-38.5 96.5h69q3 -63 70 -63t70 63h69q-2 -61 -38.5 -96.5t-100.5 -35.5zM324 -12q-128 0 -194.5 67t-66.5 196v178q0 128 66 195.5t191 67.5q115 0 180 -57t69 -165h-88q-4 67 -44.5 103.5t-117.5 36.5q-166 0 -166 -186v-168
q0 -95 42 -140.5t130 -45.5q85 0 124 42.5t39 135.5v37h-145v83h233v-120q0 -260 -252 -260z" />
    <glyph glyph-name="gbreve" unicode="&#x11f;" horiz-adv-x="581" 
d="M280 591q-64 0 -100.5 35.5t-38.5 96.5h69q3 -63 70 -63t70 63h69q-2 -61 -38.5 -96.5t-100.5 -35.5zM278 -194q-199 0 -210 160h82q7 -84 126 -84q69 0 101.5 31t32.5 98v85q-61 -79 -163 -79q-91 0 -140.5 55t-49.5 160v81q0 105 49.5 160t140.5 55q109 0 172 -92l4 80
h75v-505q0 -205 -220 -205zM258 94q98 0 152 115v127q-54 115 -152 115q-54 0 -83.5 -36.5t-29.5 -104.5v-75q0 -68 29.5 -104.5t83.5 -36.5z" />
    <glyph glyph-name="Gdotaccent" unicode="&#x120;" horiz-adv-x="636" 
d="M269 764v98h98v-98h-98zM324 -12q-128 0 -194.5 67t-66.5 196v178q0 128 66 195.5t191 67.5q115 0 180 -57t69 -165h-88q-4 67 -44.5 103.5t-117.5 36.5q-166 0 -166 -186v-168q0 -95 42 -140.5t130 -45.5q85 0 124 42.5t39 135.5v37h-145v83h233v-120q0 -260 -252 -260z
" />
    <glyph glyph-name="gdotaccent" unicode="&#x121;" horiz-adv-x="581" 
d="M231 609v98h98v-98h-98zM278 -194q-199 0 -210 160h82q7 -84 126 -84q69 0 101.5 31t32.5 98v85q-61 -79 -163 -79q-91 0 -140.5 55t-49.5 160v81q0 105 49.5 160t140.5 55q109 0 172 -92l4 80h75v-505q0 -205 -220 -205zM258 94q98 0 152 115v127q-54 115 -152 115
q-54 0 -83.5 -36.5t-29.5 -104.5v-75q0 -68 29.5 -104.5t83.5 -36.5z" />
    <glyph glyph-name="Gcommaaccent" unicode="&#x122;" horiz-adv-x="636" 
d="M324 -12q-128 0 -194.5 67t-66.5 196v178q0 128 66 195.5t191 67.5q115 0 180 -57t69 -165h-88q-4 67 -44.5 103.5t-117.5 36.5q-166 0 -166 -186v-168q0 -95 42 -140.5t130 -45.5q85 0 124 42.5t39 135.5v37h-145v83h233v-120q0 -260 -252 -260zM271 -238v42
q27 0 37 10.5t10 33.5h-42v78h98v-60q0 -55 -21 -79.5t-82 -24.5z" />
    <glyph glyph-name="gcommaaccent" unicode="&#x123;" horiz-adv-x="581" 
d="M334 754v-42q-27 0 -37 -10.5t-10 -33.5h42v-78h-98v60q0 55 21 79.5t82 24.5zM278 -194q-199 0 -210 160h82q7 -84 126 -84q69 0 101.5 31t32.5 98v85q-61 -79 -163 -79q-91 0 -140.5 55t-49.5 160v81q0 105 49.5 160t140.5 55q109 0 172 -92l4 80h75v-505
q0 -205 -220 -205zM258 94q98 0 152 115v127q-54 115 -152 115q-54 0 -83.5 -36.5t-29.5 -104.5v-75q0 -68 29.5 -104.5t83.5 -36.5z" />
    <glyph glyph-name="Hcircumflex" unicode="&#x124;" horiz-adv-x="693" 
d="M189 749l112 132h90l112 -132h-89l-68 69l-68 -69h-89zM92 0v680h90v-290h329v290h90v-680h-90v306h-329v-306h-90z" />
    <glyph glyph-name="hcircumflex" unicode="&#x125;" horiz-adv-x="570" 
d="M-30 799l112 132h90l112 -132h-89l-68 69l-68 -69h-89zM83 0v730h88v-282q63 80 162 80q162 0 162 -189v-339h-88v331q0 116 -90 116q-91 0 -146 -112v-335h-88z" />
    <glyph glyph-name="Hbar" unicode="&#x126;" horiz-adv-x="713" 
d="M686 563v-75h-75v-488h-90v306h-329v-306h-90v488h-75v75h75v117h90v-117h329v117h90v-117h75zM521 390v98h-329v-98h329z" />
    <glyph glyph-name="hbar" unicode="&#x127;" horiz-adv-x="578" 
d="M341 528q162 0 162 -189v-339h-88v331q0 116 -90 116q-91 0 -146 -112v-335h-88v580h-83v71h83v79h88v-79h134v-71h-134v-132q63 80 162 80z" />
    <glyph glyph-name="Itilde" unicode="&#x128;" horiz-adv-x="274" 
d="M189 753q-25 0 -64 28q-27 19 -40 19q-27 0 -30 -45h-61q3 117 88 117q17 0 29 -5t37 -23q28 -19 40 -19q27 0 30 45h61q-3 -117 -90 -117zM92 0v680h90v-680h-90z" />
    <glyph glyph-name="itilde" unicode="&#x129;" horiz-adv-x="254" 
d="M179 598q-25 0 -64 28q-27 19 -40 19q-27 0 -30 -45h-61q3 117 88 117q17 0 29 -5t37 -23q28 -19 40 -19q27 0 30 45h61q-3 -117 -90 -117zM83 0v516h88v-516h-88z" />
    <glyph glyph-name="Imacron" unicode="&#x12a;" horiz-adv-x="274" 
d="M22 780v70h231v-70h-231zM92 0v680h90v-680h-90z" />
    <glyph glyph-name="imacron" unicode="&#x12b;" horiz-adv-x="254" 
d="M12 625v70h231v-70h-231zM83 0v516h88v-516h-88z" />
    <glyph glyph-name="Ibreve" unicode="&#x12c;" horiz-adv-x="274" 
d="M137 746q-61 0 -96 35.5t-37 96.5h68q3 -63 65 -63t65 63h68q-2 -61 -37 -96.5t-96 -35.5zM92 0v680h90v-680h-90z" />
    <glyph glyph-name="ibreve" unicode="&#x12d;" horiz-adv-x="254" 
d="M127 591q-61 0 -96 35.5t-37 96.5h68q3 -63 65 -63t65 63h68q-2 -61 -37 -96.5t-96 -35.5zM83 0v516h88v-516h-88z" />
    <glyph glyph-name="Iogonek" unicode="&#x12e;" horiz-adv-x="274" 
d="M156 -134q26 0 54 16v-71q-32 -13 -71 -13q-50 0 -78.5 23t-28.5 64q0 63 69 115h-9v680h90v-680h-9q-63 -45 -63 -92q0 -42 46 -42z" />
    <glyph glyph-name="iogonek" unicode="&#x12f;" horiz-adv-x="254" 
d="M175 707v-98h-96v98h96zM145 -134q26 0 54 16v-71q-32 -13 -71 -13q-50 0 -78.5 23t-28.5 64q0 63 69 115h-7v516h88v-516h-9q-63 -45 -63 -92q0 -42 46 -42z" />
    <glyph glyph-name="Idotaccent" unicode="&#x130;" horiz-adv-x="274" 
d="M88 764v98h98v-98h-98zM92 0v680h90v-680h-90z" />
    <glyph glyph-name="dotlessi" unicode="&#x131;" horiz-adv-x="254" 
d="M83 0v516h88v-516h-88z" />
    <glyph glyph-name="IJ" unicode="&#x132;" horiz-adv-x="823" 
d="M92 0v680h90v-680h-90zM518 -12q-117 0 -172 55.5t-55 173.5v16h87v-16q0 -77 33 -112t106 -35q75 0 108 37.5t33 122.5v450h90v-454q0 -123 -55.5 -180.5t-174.5 -57.5z" />
    <glyph glyph-name="ij" unicode="&#x133;" horiz-adv-x="508" 
d="M79 609v98h96v-98h-96zM333 609v98h96v-98h-96zM83 0v516h88v-516h-88zM252 -182v76h25q36 0 48 13.5t12 53.5v555h88v-552q0 -77 -30.5 -111.5t-97.5 -34.5h-45z" />
    <glyph glyph-name="Jcircumflex" unicode="&#x134;" horiz-adv-x="549" 
d="M278 749l107 132h88l107 -132h-87l-64 68l-64 -68h-87zM244 -12q-117 0 -172 55.5t-55 173.5v16h87v-16q0 -77 33 -112t106 -35q75 0 108 37.5t33 122.5v450h90v-454q0 -123 -55.5 -180.5t-174.5 -57.5z" />
    <glyph glyph-name="jcircumflex" unicode="&#x135;" horiz-adv-x="254" 
d="M-24 594l107 132h88l107 -132h-87l-64 68l-64 -68h-87zM-2 -182v76h25q36 0 48 13.5t12 53.5v555h88v-552q0 -77 -30.5 -111.5t-97.5 -34.5h-45z" />
    <glyph glyph-name="Kcommaaccent" unicode="&#x136;" horiz-adv-x="617" 
d="M92 0v680h90v-361l316 361h111l-242 -278l245 -402h-105l-202 333l-123 -137v-196h-90zM284 -238v42q27 0 37 10.5t10 33.5h-42v78h98v-60q0 -55 -21 -79.5t-82 -24.5z" />
    <glyph glyph-name="kcommaaccent" unicode="&#x137;" horiz-adv-x="527" 
d="M83 0v730h88v-468l238 254h110l-198 -210l202 -306h-105l-158 242l-89 -93v-149h-88zM235 -238v42q27 0 37 10.5t10 33.5h-42v78h98v-60q0 -55 -21 -79.5t-82 -24.5z" />
    <glyph glyph-name="kgreenlandic" unicode="&#x138;" horiz-adv-x="527" 
d="M83 0v516h88v-254l238 254h110l-198 -210l202 -306h-105l-158 242l-89 -93v-149h-88z" />
    <glyph glyph-name="Lacute" unicode="&#x139;" horiz-adv-x="517" 
d="M65 749l110 132h110l-131 -132h-89zM92 0v680h90v-597h328v-83h-418z" />
    <glyph glyph-name="lacute" unicode="&#x13a;" horiz-adv-x="254" 
d="M55 799l110 132h110l-131 -132h-89zM83 0v730h88v-730h-88z" />
    <glyph glyph-name="Lcommaaccent" unicode="&#x13b;" horiz-adv-x="517" 
d="M92 0v680h90v-597h328v-83h-418zM247 -238v42q27 0 37 10.5t10 33.5h-42v78h98v-60q0 -55 -21 -79.5t-82 -24.5z" />
    <glyph glyph-name="lcommaaccent" unicode="&#x13c;" horiz-adv-x="254" 
d="M83 0v730h88v-730h-88zM73 -238v42q27 0 37 10.5t10 33.5h-42v78h98v-60q0 -55 -21 -79.5t-82 -24.5z" />
    <glyph glyph-name="Lcaron" unicode="&#x13d;" horiz-adv-x="517" 
d="M92 0v680h90v-597h328v-83h-418zM241 473l42 207h95l-71 -207h-66z" />
    <glyph glyph-name="lcaron" unicode="&#x13e;" horiz-adv-x="254" 
d="M83 0v730h88v-730h-88zM211 523l42 207h95l-71 -207h-66z" />
    <glyph glyph-name="Ldot" unicode="&#x13f;" horiz-adv-x="517" 
d="M92 0v680h90v-597h328v-83h-418zM345 314v100h100v-100h-100z" />
    <glyph glyph-name="ldot" unicode="&#x140;" horiz-adv-x="278" 
d="M83 0v730h88v-730h-88zM217 316v88h97v-88h-97z" />
    <glyph glyph-name="Lslash" unicode="&#x141;" horiz-adv-x="527" 
d="M192 83h328v-83h-418v199l-75 -52v93l75 52v388h90v-326l202 140v-92l-202 -140v-179z" />
    <glyph glyph-name="lslash" unicode="&#x142;" horiz-adv-x="280" 
d="M273 511v-87l-89 -64v-360h-88v298l-89 -64v87l89 64v345h88v-283z" />
    <glyph glyph-name="Nacute" unicode="&#x143;" horiz-adv-x="691" 
d="M273 749l110 132h110l-131 -132h-89zM92 0v680h107l313 -517v517h87v-680h-88l-332 548v-548h-87z" />
    <glyph glyph-name="nacute" unicode="&#x144;" horiz-adv-x="570" 
d="M215 594l110 132h110l-131 -132h-89zM83 0v516h75l3 -81q65 93 172 93q162 0 162 -189v-339h-88v331q0 116 -91 116q-90 0 -145 -112v-335h-88z" />
    <glyph glyph-name="Ncommaaccent" unicode="&#x145;" horiz-adv-x="691" 
d="M92 0v680h107l313 -517v517h87v-680h-88l-332 548v-548h-87zM291 -238v42q27 0 37 10.5t10 33.5h-42v78h98v-60q0 -55 -21 -79.5t-82 -24.5z" />
    <glyph glyph-name="ncommaaccent" unicode="&#x146;" horiz-adv-x="570" 
d="M83 0v516h75l3 -81q65 93 172 93q162 0 162 -189v-339h-88v331q0 116 -91 116q-90 0 -145 -112v-335h-88zM235 -238v42q27 0 37 10.5t10 33.5h-42v78h98v-60q0 -55 -21 -79.5t-82 -24.5z" />
    <glyph glyph-name="Ncaron" unicode="&#x147;" horiz-adv-x="691" 
d="M300 749l-112 132h89l68 -69l68 69h89l-112 -132h-90zM92 0v680h107l313 -517v517h87v-680h-88l-332 548v-548h-87z" />
    <glyph glyph-name="ncaron" unicode="&#x148;" horiz-adv-x="570" 
d="M242 594l-112 132h89l68 -69l68 69h89l-112 -132h-90zM83 0v516h75l3 -81q65 93 172 93q162 0 162 -189v-339h-88v331q0 116 -91 116q-90 0 -145 -112v-335h-88z" />
    <glyph glyph-name="napostrophe" unicode="&#x149;" horiz-adv-x="570" 
d="M76 559v42q24 0 33.5 10t10.5 31h-39v88h95v-67q0 -54 -20.5 -79t-79.5 -25zM83 0v516h75l3 -81q65 93 172 93q162 0 162 -189v-339h-88v331q0 116 -91 116q-90 0 -145 -112v-335h-88z" />
    <glyph glyph-name="Eng" unicode="&#x14a;" horiz-adv-x="691" 
d="M425 -182v76h27q36 0 48 13.5t12 53.5v38l-333 549v-548h-87v680h107l313 -517v517h87v-716q0 -77 -30.5 -111.5t-97.5 -34.5h-46z" />
    <glyph glyph-name="eng" unicode="&#x14b;" horiz-adv-x="570" 
d="M333 528q162 0 162 -189v-375q0 -77 -30.5 -111.5t-97.5 -34.5h-45v75h25q36 0 48 13.5t12 54.5v370q0 116 -91 116q-90 0 -145 -112v-335h-88v516h75l3 -81q65 93 172 93z" />
    <glyph glyph-name="Omacron" unicode="&#x14c;" horiz-adv-x="654" 
d="M200 780v70h254v-70h-254zM327 -12q-264 0 -264 271v162q0 271 264 271t264 -271v-162q0 -271 -264 -271zM327 70q90 0 132 45.5t42 143.5v162q0 98 -42 143.5t-132 45.5t-132 -45.5t-42 -143.5v-162q0 -98 42 -143.5t132 -45.5z" />
    <glyph glyph-name="omacron" unicode="&#x14d;" horiz-adv-x="560" 
d="M153 625v70h254v-70h-254zM280 -12q-110 0 -166.5 58t-56.5 170v84q0 112 56.5 170t166.5 58t166.5 -58t56.5 -170v-84q0 -112 -56.5 -170t-166.5 -58zM280 65q135 0 135 154v79q0 153 -135 153t-135 -153v-79q0 -154 135 -154z" />
    <glyph glyph-name="Obreve" unicode="&#x14e;" horiz-adv-x="654" 
d="M327 746q-64 0 -100.5 35.5t-38.5 96.5h69q3 -63 70 -63t70 63h69q-2 -61 -38.5 -96.5t-100.5 -35.5zM327 -12q-264 0 -264 271v162q0 271 264 271t264 -271v-162q0 -271 -264 -271zM327 70q90 0 132 45.5t42 143.5v162q0 98 -42 143.5t-132 45.5t-132 -45.5t-42 -143.5
v-162q0 -98 42 -143.5t132 -45.5z" />
    <glyph glyph-name="obreve" unicode="&#x14f;" horiz-adv-x="560" 
d="M280 591q-64 0 -100.5 35.5t-38.5 96.5h69q3 -63 70 -63t70 63h69q-2 -61 -38.5 -96.5t-100.5 -35.5zM280 -12q-110 0 -166.5 58t-56.5 170v84q0 112 56.5 170t166.5 58t166.5 -58t56.5 -170v-84q0 -112 -56.5 -170t-166.5 -58zM280 65q135 0 135 154v79q0 153 -135 153
t-135 -153v-79q0 -154 135 -154z" />
    <glyph glyph-name="Ohungarumlaut" unicode="&#x150;" horiz-adv-x="654" 
d="M179 749l86 132h107l-109 -132h-84zM359 749l86 132h107l-109 -132h-84zM327 -12q-264 0 -264 271v162q0 271 264 271t264 -271v-162q0 -271 -264 -271zM327 70q90 0 132 45.5t42 143.5v162q0 98 -42 143.5t-132 45.5t-132 -45.5t-42 -143.5v-162q0 -98 42 -143.5
t132 -45.5z" />
    <glyph glyph-name="ohungarumlaut" unicode="&#x151;" horiz-adv-x="560" 
d="M132 594l86 132h107l-109 -132h-84zM312 594l86 132h107l-109 -132h-84zM280 -12q-110 0 -166.5 58t-56.5 170v84q0 112 56.5 170t166.5 58t166.5 -58t56.5 -170v-84q0 -112 -56.5 -170t-166.5 -58zM280 65q135 0 135 154v79q0 153 -135 153t-135 -153v-79
q0 -154 135 -154z" />
    <glyph glyph-name="OE" unicode="&#x152;" horiz-adv-x="910" 
d="M321 0q-134 0 -196.5 64t-62.5 200v152q0 136 62.5 200t196.5 64h543v-82h-330v-209h280v-82h-280v-225h340v-82h-553zM331 82h113v516h-113q-95 0 -137 -42.5t-42 -140.5v-150q0 -98 42 -140.5t137 -42.5z" />
    <glyph glyph-name="oe" unicode="&#x153;" horiz-adv-x="906" 
d="M276 -12q-107 0 -163 58.5t-56 169.5v84q0 111 56 169.5t163 58.5q133 0 182 -91q48 91 180 91q104 0 158.5 -56t54.5 -163v-75h-348v-23q0 -76 32 -111.5t101 -35.5q116 0 126 90h85q-5 -81 -58.5 -123.5t-146.5 -42.5q-135 0 -184 91q-49 -91 -182 -91zM503 307h263
q0 75 -31.5 110t-100.5 35q-68 0 -99.5 -35t-31.5 -110zM279 65q136 0 136 154v79q0 153 -136 153q-68 0 -101 -37.5t-33 -115.5v-79q0 -154 134 -154z" />
    <glyph glyph-name="Racute" unicode="&#x154;" horiz-adv-x="631" 
d="M234 749l110 132h110l-131 -132h-89zM92 0v680h261q116 0 167.5 -47.5t51.5 -154.5q0 -88 -33.5 -135t-107.5 -61l166 -282h-104l-162 276h-149v-276h-90zM182 358h163q76 0 106.5 27t30.5 93t-30.5 93t-106.5 27h-163v-240z" />
    <glyph glyph-name="racute" unicode="&#x155;" horiz-adv-x="358" 
d="M128 594l110 132h110l-131 -132h-89zM83 0v516h75l4 -96q38 106 148 106h35v-87h-26q-63 0 -99 -34t-49 -108v-297h-88z" />
    <glyph glyph-name="Rcommaaccent" unicode="&#x156;" horiz-adv-x="631" 
d="M92 0v680h261q116 0 167.5 -47.5t51.5 -154.5q0 -88 -33.5 -135t-107.5 -61l166 -282h-104l-162 276h-149v-276h-90zM182 358h163q76 0 106.5 27t30.5 93t-30.5 93t-106.5 27h-163v-240zM280 -238v42q27 0 37 10.5t10 33.5h-42v78h98v-60q0 -55 -21 -79.5t-82 -24.5z" />
    <glyph glyph-name="rcommaaccent" unicode="&#x157;" horiz-adv-x="358" 
d="M83 0v516h75l4 -96q38 106 148 106h35v-87h-26q-63 0 -99 -34t-49 -108v-297h-88zM73 -238v42q27 0 37 10.5t10 33.5h-42v78h98v-60q0 -55 -21 -79.5t-82 -24.5z" />
    <glyph glyph-name="Rcaron" unicode="&#x158;" horiz-adv-x="631" 
d="M261 749l-112 132h89l68 -69l68 69h89l-112 -132h-90zM92 0v680h261q116 0 167.5 -47.5t51.5 -154.5q0 -88 -33.5 -135t-107.5 -61l166 -282h-104l-162 276h-149v-276h-90zM182 358h163q76 0 106.5 27t30.5 93t-30.5 93t-106.5 27h-163v-240z" />
    <glyph glyph-name="rcaron" unicode="&#x159;" horiz-adv-x="358" 
d="M155 594l-112 132h89l68 -69l68 69h89l-112 -132h-90zM83 0v516h75l4 -96q38 106 148 106h35v-87h-26q-63 0 -99 -34t-49 -108v-297h-88z" />
    <glyph glyph-name="Sacute" unicode="&#x15a;" horiz-adv-x="558" 
d="M200 749l110 132h110l-131 -132h-89zM281 -12q-245 0 -245 205h90q0 -123 156 -123q149 0 149 109q0 55 -38 83t-131 41q-117 16 -165.5 59.5t-48.5 131.5q0 97 60.5 147.5t175.5 50.5q226 0 226 -199h-90q0 117 -139 117q-70 0 -107 -27.5t-37 -79.5q0 -51 35.5 -77.5
t121.5 -37.5q123 -16 174.5 -62t51.5 -139q0 -199 -239 -199z" />
    <glyph glyph-name="sacute" unicode="&#x15b;" horiz-adv-x="497" 
d="M173 594l110 132h110l-131 -132h-89zM250 -12q-212 0 -212 164h84q0 -89 128 -89q120 0 120 76q0 38 -30 57t-105 28q-101 12 -143 45.5t-42 102.5q0 75 51.5 115.5t147.5 40.5t146 -40.5t50 -118.5h-86q0 84 -111 84q-54 0 -83 -19.5t-29 -54.5t29 -51.5t101 -24.5
q103 -11 146.5 -47t43.5 -110q0 -158 -206 -158z" />
    <glyph glyph-name="Scircumflex" unicode="&#x15c;" horiz-adv-x="558" 
d="M115 749l112 132h90l112 -132h-89l-68 69l-68 -69h-89zM281 -12q-245 0 -245 205h90q0 -123 156 -123q149 0 149 109q0 55 -38 83t-131 41q-117 16 -165.5 59.5t-48.5 131.5q0 97 60.5 147.5t175.5 50.5q226 0 226 -199h-90q0 117 -139 117q-70 0 -107 -27.5t-37 -79.5
q0 -51 35.5 -77.5t121.5 -37.5q123 -16 174.5 -62t51.5 -139q0 -199 -239 -199z" />
    <glyph glyph-name="scircumflex" unicode="&#x15d;" horiz-adv-x="497" 
d="M88 594l112 132h90l112 -132h-89l-68 69l-68 -69h-89zM250 -12q-212 0 -212 164h84q0 -89 128 -89q120 0 120 76q0 38 -30 57t-105 28q-101 12 -143 45.5t-42 102.5q0 75 51.5 115.5t147.5 40.5t146 -40.5t50 -118.5h-86q0 84 -111 84q-54 0 -83 -19.5t-29 -54.5
t29 -51.5t101 -24.5q103 -11 146.5 -47t43.5 -110q0 -158 -206 -158z" />
    <glyph glyph-name="Scedilla" unicode="&#x15e;" horiz-adv-x="558" 
d="M520 187q0 -186 -210 -198l-18 -47q95 -1 95 -70q0 -76 -118 -76q-64 0 -100 21l18 48q31 -18 67 -18q50 0 50 29q0 13 -11 18t-43 5h-28l34 90q-220 9 -220 204h90q0 -123 156 -123q149 0 149 109q0 55 -38 83t-131 41q-117 16 -165.5 59.5t-48.5 131.5q0 97 60.5 147.5
t175.5 50.5q226 0 226 -199h-90q0 117 -139 117q-70 0 -107 -27.5t-37 -79.5q0 -51 35.5 -77.5t121.5 -37.5q123 -16 174.5 -62t51.5 -139z" />
    <glyph glyph-name="scedilla" unicode="&#x15f;" horiz-adv-x="497" 
d="M456 146q0 -146 -179 -157l-18 -47q95 -1 95 -70q0 -76 -118 -76q-64 0 -100 21l18 48q32 -18 67 -18q50 0 50 29q0 13 -11 18t-43 5h-28l34 90q-185 9 -185 163h84q0 -89 128 -89q120 0 120 76q0 38 -30 57t-105 28q-101 12 -143 45.5t-42 102.5q0 75 51.5 115.5
t147.5 40.5t146 -40.5t50 -118.5h-86q0 84 -111 84q-54 0 -83 -19.5t-29 -54.5t29 -51.5t101 -24.5q103 -11 146.5 -47t43.5 -110z" />
    <glyph glyph-name="Scaron" unicode="&#x160;" horiz-adv-x="558" 
d="M227 749l-112 132h89l68 -69l68 69h89l-112 -132h-90zM281 -12q-245 0 -245 205h90q0 -123 156 -123q149 0 149 109q0 55 -38 83t-131 41q-117 16 -165.5 59.5t-48.5 131.5q0 97 60.5 147.5t175.5 50.5q226 0 226 -199h-90q0 117 -139 117q-70 0 -107 -27.5t-37 -79.5
q0 -51 35.5 -77.5t121.5 -37.5q123 -16 174.5 -62t51.5 -139q0 -199 -239 -199z" />
    <glyph glyph-name="scaron" unicode="&#x161;" horiz-adv-x="497" 
d="M200 594l-112 132h89l68 -69l68 69h89l-112 -132h-90zM250 -12q-212 0 -212 164h84q0 -89 128 -89q120 0 120 76q0 38 -30 57t-105 28q-101 12 -143 45.5t-42 102.5q0 75 51.5 115.5t147.5 40.5t146 -40.5t50 -118.5h-86q0 84 -111 84q-54 0 -83 -19.5t-29 -54.5
t29 -51.5t101 -24.5q103 -11 146.5 -47t43.5 -110q0 -158 -206 -158z" />
    <glyph glyph-name="uni0162" unicode="&#x162;" horiz-adv-x="506" 
d="M298 0h-17l-25 -58q93 -1 93 -70q0 -76 -118 -76q-64 0 -100 21l18 48q31 -18 67 -18q50 0 50 29q0 13 -11 18t-43 5h-28l43 101h-19v597h-201v83h492v-83h-201v-597z" />
    <glyph glyph-name="uni0163" unicode="&#x163;" horiz-adv-x="341" 
d="M243 0q-13 0 -19 1l-22 -59q95 -1 95 -70q0 -76 -118 -76q-64 0 -100 21l18 48q31 -18 67 -18q50 0 50 29q0 13 -11 18t-43 5h-28l42 112q-72 29 -72 150v283h-89v72h91l7 136h79v-136h127v-72h-127v-284q0 -50 15 -67t59 -17h59v-76h-80z" />
    <glyph glyph-name="Tcaron" unicode="&#x164;" horiz-adv-x="506" 
d="M208 749l-112 132h89l68 -69l68 69h89l-112 -132h-90zM208 0v597h-201v83h492v-83h-201v-597h-90z" />
    <glyph glyph-name="tcaron" unicode="&#x165;" horiz-adv-x="341" 
d="M224 568l42 207h95l-71 -207h-66zM243 0q-74 0 -107.5 38t-33.5 123v283h-89v72h91l7 136h79v-136h127v-72h-127v-284q0 -50 15 -67t59 -17h59v-76h-80z" />
    <glyph glyph-name="Tbar" unicode="&#x166;" horiz-adv-x="506" 
d="M499 597h-201v-208h135v-82h-135v-307h-90v307h-135v82h135v208h-201v83h492v-83z" />
    <glyph glyph-name="tbar" unicode="&#x167;" horiz-adv-x="341" 
d="M264 76h59v-76h-80q-74 0 -107.5 38t-33.5 123v115h-82v71h82v97h-89v72h91l7 136h79v-136h127v-72h-127v-97h118v-71h-118v-116q0 -50 15 -67t59 -17z" />
    <glyph glyph-name="Utilde" unicode="&#x168;" horiz-adv-x="640" 
d="M377 753q-29 0 -70 28q-29 19 -42 19q-28 0 -31 -45h-63q4 117 92 117q29 0 70 -28q29 -19 42 -19q28 0 31 45h63q-4 -117 -92 -117zM320 -12q-129 0 -187 56t-58 180v456h90v-455q0 -85 35.5 -120t120.5 -35q86 0 121.5 35t35.5 120v455h87v-456q0 -124 -58 -180
t-187 -56z" />
    <glyph glyph-name="utilde" unicode="&#x169;" horiz-adv-x="574" 
d="M340 598q-29 0 -70 28q-28 19 -42 19q-28 0 -31 -45h-63q4 117 92 117q29 0 70 -28q28 -19 42 -19q28 0 31 45h63q-4 -117 -92 -117zM239 -12q-164 0 -164 189v339h88v-331q0 -60 22.5 -88t69.5 -28q92 0 148 112v335h88v-516h-75l-3 82q-65 -94 -174 -94z" />
    <glyph glyph-name="Umacron" unicode="&#x16a;" horiz-adv-x="640" 
d="M193 780v70h254v-70h-254zM320 -12q-129 0 -187 56t-58 180v456h90v-455q0 -85 35.5 -120t120.5 -35q86 0 121.5 35t35.5 120v455h87v-456q0 -124 -58 -180t-187 -56z" />
    <glyph glyph-name="umacron" unicode="&#x16b;" horiz-adv-x="574" 
d="M156 625v70h254v-70h-254zM239 -12q-164 0 -164 189v339h88v-331q0 -60 22.5 -88t69.5 -28q92 0 148 112v335h88v-516h-75l-3 82q-65 -94 -174 -94z" />
    <glyph glyph-name="Ubreve" unicode="&#x16c;" horiz-adv-x="640" 
d="M320 746q-64 0 -100.5 35.5t-38.5 96.5h69q3 -63 70 -63t70 63h69q-2 -61 -38.5 -96.5t-100.5 -35.5zM320 -12q-129 0 -187 56t-58 180v456h90v-455q0 -85 35.5 -120t120.5 -35q86 0 121.5 35t35.5 120v455h87v-456q0 -124 -58 -180t-187 -56z" />
    <glyph glyph-name="ubreve" unicode="&#x16d;" horiz-adv-x="574" 
d="M283 591q-64 0 -100.5 35.5t-38.5 96.5h69q3 -63 70 -63t70 63h69q-2 -61 -38.5 -96.5t-100.5 -35.5zM239 -12q-164 0 -164 189v339h88v-331q0 -60 22.5 -88t69.5 -28q92 0 148 112v335h88v-516h-75l-3 82q-65 -94 -174 -94z" />
    <glyph glyph-name="Uring" unicode="&#x16e;" horiz-adv-x="640" 
d="M320 732q-47 0 -77 29t-30 75q0 45 30.5 74.5t76.5 29.5t76.5 -29.5t30.5 -74.5q0 -46 -30 -75t-77 -29zM320 790q19 0 31 12.5t12 33.5q0 20 -12 32.5t-31 12.5t-31 -12.5t-12 -32.5q0 -21 12 -33.5t31 -12.5zM320 -12q-129 0 -187 56t-58 180v456h90v-455
q0 -85 35.5 -120t120.5 -35q86 0 121.5 35t35.5 120v455h87v-456q0 -124 -58 -180t-187 -56z" />
    <glyph glyph-name="uring" unicode="&#x16f;" horiz-adv-x="574" 
d="M283 577q-47 0 -77 29t-30 75q0 45 30.5 74.5t76.5 29.5t76.5 -29.5t30.5 -74.5q0 -46 -30 -75t-77 -29zM283 635q19 0 31 12.5t12 33.5q0 20 -12 32.5t-31 12.5t-31 -12.5t-12 -32.5q0 -21 12 -33.5t31 -12.5zM239 -12q-164 0 -164 189v339h88v-331q0 -60 22.5 -88
t69.5 -28q92 0 148 112v335h88v-516h-75l-3 82q-65 -94 -174 -94z" />
    <glyph glyph-name="Uhungarumlaut" unicode="&#x170;" horiz-adv-x="640" 
d="M172 749l86 132h107l-109 -132h-84zM352 749l86 132h107l-109 -132h-84zM320 -12q-129 0 -187 56t-58 180v456h90v-455q0 -85 35.5 -120t120.5 -35q86 0 121.5 35t35.5 120v455h87v-456q0 -124 -58 -180t-187 -56z" />
    <glyph glyph-name="uhungarumlaut" unicode="&#x171;" horiz-adv-x="574" 
d="M135 594l86 132h107l-109 -132h-84zM315 594l86 132h107l-109 -132h-84zM239 -12q-164 0 -164 189v339h88v-331q0 -60 22.5 -88t69.5 -28q92 0 148 112v335h88v-516h-75l-3 82q-65 -94 -174 -94z" />
    <glyph glyph-name="Uogonek" unicode="&#x172;" horiz-adv-x="640" 
d="M478 680h87v-456q0 -96 -34 -150.5t-107 -73.5q-91 -39 -91 -94q0 -40 46 -40q24 0 53 16v-71q-27 -13 -69 -13q-52 0 -80.5 23t-28.5 64q0 58 57 103q-124 1 -180 57.5t-56 178.5v456h90v-455q0 -85 35.5 -120t120.5 -35q86 0 121.5 35t35.5 120v455z" />
    <glyph glyph-name="uogonek" unicode="&#x173;" horiz-adv-x="574" 
d="M468 0q-76 -48 -76 -94q0 -40 45 -40q25 0 54 16v-71q-33 -13 -70 -13q-51 0 -79.5 22.5t-28.5 64.5q0 77 102 140l-2 57q-65 -94 -174 -94q-164 0 -164 189v339h88v-331q0 -60 22.5 -88t69.5 -28q92 0 148 112v335h88v-516h-23z" />
    <glyph glyph-name="Wcircumflex" unicode="&#x174;" horiz-adv-x="862" 
d="M274 749l112 132h90l112 -132h-89l-68 69l-68 -69h-89zM193 0l-183 680h93l139 -532l146 532h88l147 -534l139 534h90l-183 -680h-92l-146 527l-147 -527h-91z" />
    <glyph glyph-name="wcircumflex" unicode="&#x175;" horiz-adv-x="775" 
d="M231 594l112 132h90l112 -132h-89l-68 69l-68 -69h-89zM172 0l-161 516h93l117 -400l124 400h87l125 -402l117 402h90l-161 -516h-94l-121 389l-122 -389h-94z" />
    <glyph glyph-name="Ycircumflex" unicode="&#x176;" horiz-adv-x="552" 
d="M119 749l112 132h90l112 -132h-89l-68 69l-68 -69h-89zM231 0v290l-241 390h105l184 -297l183 297h100l-241 -390v-290h-90z" />
    <glyph glyph-name="ycircumflex" unicode="&#x177;" horiz-adv-x="470" 
d="M79 594l112 132h90l112 -132h-89l-68 69l-68 -69h-89zM58 -182v76h44q30 0 45.5 11.5t25.5 42.5l24 72l-186 496h94l137 -381l127 381h90l-202 -578q-24 -68 -56 -94t-91 -26h-52z" />
    <glyph glyph-name="Ydieresis" unicode="&#x178;" horiz-adv-x="552" 
d="M138 764v98h98v-98h-98zM316 764v98h98v-98h-98zM231 0v290l-241 390h105l184 -297l183 297h100l-241 -390v-290h-90z" />
    <glyph glyph-name="Zacute" unicode="&#x179;" horiz-adv-x="549" 
d="M207 749l110 132h110l-131 -132h-89zM32 0v74l364 524h-346v82h459v-73l-363 -525h371v-82h-485z" />
    <glyph glyph-name="zacute" unicode="&#x17a;" horiz-adv-x="463" 
d="M162 594l110 132h110l-131 -132h-89zM30 0v66l284 375h-263v75h375v-66l-284 -375h289v-75h-401z" />
    <glyph glyph-name="Zdotaccent" unicode="&#x17b;" horiz-adv-x="549" 
d="M230 764v98h98v-98h-98zM32 0v74l364 524h-346v82h459v-73l-363 -525h371v-82h-485z" />
    <glyph glyph-name="zdotaccent" unicode="&#x17c;" horiz-adv-x="463" 
d="M185 609v98h98v-98h-98zM30 0v66l284 375h-263v75h375v-66l-284 -375h289v-75h-401z" />
    <glyph glyph-name="Zcaron" unicode="&#x17d;" horiz-adv-x="549" 
d="M234 749l-112 132h89l68 -69l68 69h89l-112 -132h-90zM32 0v74l364 524h-346v82h459v-73l-363 -525h371v-82h-485z" />
    <glyph glyph-name="zcaron" unicode="&#x17e;" horiz-adv-x="463" 
d="M189 594l-112 132h89l68 -69l68 69h89l-112 -132h-90zM30 0v66l284 375h-263v75h375v-66l-284 -375h289v-75h-401z" />
    <glyph glyph-name="florin" unicode="&#x192;" horiz-adv-x="602" 
d="M59 -60l8 75h55q45 0 66.5 22t28.5 75l33 273h-127v76h137l9 77q10 87 47.5 124.5t113.5 37.5h94l-8 -75h-65q-45 0 -66.5 -22t-28.5 -75l-8 -67h147v-76h-156l-35 -283q-10 -87 -47.5 -124.5t-113.5 -37.5h-84z" />
    <glyph glyph-name="Aringacute" unicode="&#x1fa;" horiz-adv-x="605" 
d="M230 955l110 132h110l-131 -132h-89zM302 717q-47 0 -77 29t-30 75q0 45 30.5 74.5t76.5 29.5t76.5 -29.5t30.5 -74.5q0 -46 -30 -75t-77 -29zM302 775q19 0 31 12.5t12 33.5q0 20 -12 32.5t-31 12.5t-31 -12.5t-12 -32.5q0 -21 12 -33.5t31 -12.5zM9 0l248 680h91
l248 -680h-96l-62 174h-274l-62 -174h-93zM193 256h216l-108 309z" />
    <glyph glyph-name="aringacute" unicode="&#x1fb;" horiz-adv-x="541" 
d="M192 800l110 132h110l-131 -132h-89zM264 562q-47 0 -77 29t-30 75q0 45 30.5 74.5t76.5 29.5t76.5 -29.5t30.5 -74.5q0 -46 -30 -75t-77 -29zM264 620q19 0 31 12.5t12 33.5q0 20 -12 32.5t-31 12.5t-31 -12.5t-12 -32.5q0 -21 12 -33.5t31 -12.5zM216 -12
q-80 0 -126 41.5t-46 116.5q0 161 213 161h124v28q0 60 -28.5 88.5t-88.5 28.5q-115 0 -119 -93h-86q14 169 208 169q202 0 202 -191v-337h-75l-3 70q-65 -82 -175 -82zM229 64q104 0 152 97v73h-121q-67 0 -97.5 -21t-30.5 -65q0 -84 97 -84z" />
    <glyph glyph-name="AEacute" unicode="&#x1fc;" horiz-adv-x="895" 
d="M386 749l110 132h110l-131 -132h-89zM-10 0l404 680h455v-82h-329v-209h279v-82h-279v-225h339v-82h-429v174h-236l-103 -174h-101zM241 256h189v328z" />
    <glyph glyph-name="aeacute" unicode="&#x1fd;" horiz-adv-x="872" 
d="M358 594l110 132h110l-131 -132h-89zM218 -12q-81 0 -127.5 40.5t-46.5 116.5q0 162 212 162h125v29q0 60 -28.5 88t-88.5 28q-111 0 -119 -93h-86q15 169 201 169q132 0 172 -89q45 89 173 89q103 0 157.5 -56t54.5 -163v-75h-348v-23q0 -76 33 -111.5t102 -35.5
q114 0 124 90h85q-5 -81 -58.5 -123.5t-150.5 -42.5q-143 0 -194 92q-72 -92 -192 -92zM469 307h263q0 75 -31.5 110t-98.5 35q-68 0 -100.5 -35.5t-32.5 -109.5zM229 64q104 0 154 102q-2 26 -2 41v27h-122q-127 0 -127 -87q0 -83 97 -83z" />
    <glyph glyph-name="Oslashacute" unicode="&#x1fe;" horiz-adv-x="654" 
d="M475 881l-131 -132h-89l110 132h110zM591 647l-40 -56q40 -64 40 -170v-162q0 -271 -264 -271q-106 0 -170 44l-31 -44l-63 45l40 56q-40 64 -40 170v162q0 271 264 271q106 0 170 -44l31 44zM153 259q0 -50 10 -84l283 401q-41 34 -119 34q-90 0 -132 -45.5t-42 -143.5
v-162zM501 421q0 50 -10 84l-283 -401q41 -34 119 -34q90 0 132 45.5t42 143.5v162z" />
    <glyph glyph-name="oslashacute" unicode="&#x1ff;" horiz-adv-x="560" 
d="M428 726l-131 -132h-89l110 132h110zM503 482l-33 -42q33 -54 33 -140v-84q0 -112 -56.5 -170t-166.5 -58q-85 0 -138 35l-28 -35l-57 46l33 42q-33 54 -33 140v84q0 112 56.5 170t166.5 58q85 0 138 -35l28 35zM145 219q0 -39 7 -64l215 272q-33 24 -87 24
q-135 0 -135 -153v-79zM415 298q0 38 -7 63l-214 -272q32 -24 86 -24q135 0 135 154v79z" />
    <glyph glyph-name="Scommaaccent" unicode="&#x218;" horiz-adv-x="558" 
d="M281 -12q-245 0 -245 205h90q0 -123 156 -123q149 0 149 109q0 55 -38 83t-131 41q-117 16 -165.5 59.5t-48.5 131.5q0 97 60.5 147.5t175.5 50.5q226 0 226 -199h-90q0 117 -139 117q-70 0 -107 -27.5t-37 -79.5q0 -51 35.5 -77.5t121.5 -37.5q123 -16 174.5 -62
t51.5 -139q0 -199 -239 -199zM237 -238v42q27 0 37 10.5t10 33.5h-42v78h98v-60q0 -55 -21 -79.5t-82 -24.5z" />
    <glyph glyph-name="scommaaccent" unicode="&#x219;" horiz-adv-x="497" 
d="M250 -12q-212 0 -212 164h84q0 -89 128 -89q120 0 120 76q0 38 -30 57t-105 28q-101 12 -143 45.5t-42 102.5q0 75 51.5 115.5t147.5 40.5t146 -40.5t50 -118.5h-86q0 84 -111 84q-54 0 -83 -19.5t-29 -54.5t29 -51.5t101 -24.5q103 -11 146.5 -47t43.5 -110
q0 -158 -206 -158zM204 -238v42q27 0 37 10.5t10 33.5h-42v78h98v-60q0 -55 -21 -79.5t-82 -24.5z" />
    <glyph glyph-name="uni021A" unicode="&#x21a;" horiz-adv-x="506" 
d="M208 0v597h-201v83h492v-83h-201v-597h-90zM199 -238v42q27 0 37 10.5t10 33.5h-42v78h98v-60q0 -55 -21 -79.5t-82 -24.5z" />
    <glyph glyph-name="uni021B" unicode="&#x21b;" horiz-adv-x="341" 
d="M243 0q-74 0 -107.5 38t-33.5 123v283h-89v72h91l7 136h79v-136h127v-72h-127v-284q0 -50 15 -67t59 -17h59v-76h-80zM147 -238v42q27 0 37 10.5t10 33.5h-42v78h98v-60q0 -55 -21 -79.5t-82 -24.5z" />
    <glyph glyph-name="uni0237" unicode="&#x237;" horiz-adv-x="254" 
d="M-2 -182v76h25q36 0 48 13.5t12 53.5v555h88v-552q0 -77 -30.5 -111.5t-97.5 -34.5h-45z" />
    <glyph glyph-name="uni02BC" unicode="&#x2bc;" horiz-adv-x="148" 
d="M24 559v42q24 0 33.5 10t10.5 31h-39v88h95v-67q0 -54 -20.5 -79t-79.5 -25z" />
    <glyph glyph-name="circumflex" unicode="&#x2c6;" horiz-adv-x="500" 
d="M93 594l112 132h90l112 -132h-89l-68 69l-68 -69h-89z" />
    <glyph glyph-name="caron" unicode="&#x2c7;" horiz-adv-x="500" 
d="M205 594l-112 132h89l68 -69l68 69h89l-112 -132h-90z" />
    <glyph glyph-name="uni02C9" unicode="&#x2c9;" horiz-adv-x="500" 
d="M123 625v70h254v-70h-254z" />
    <glyph glyph-name="breve" unicode="&#x2d8;" horiz-adv-x="500" 
d="M250 591q-64 0 -100.5 35.5t-38.5 96.5h69q3 -63 70 -63t70 63h69q-2 -61 -38.5 -96.5t-100.5 -35.5z" />
    <glyph glyph-name="dotaccent" unicode="&#x2d9;" horiz-adv-x="500" 
d="M201 609v98h98v-98h-98z" />
    <glyph glyph-name="ring" unicode="&#x2da;" horiz-adv-x="500" 
d="M250 577q-47 0 -77 29t-30 75q0 45 30.5 74.5t76.5 29.5t76.5 -29.5t30.5 -74.5q0 -46 -30 -75t-77 -29zM250 635q19 0 31 12.5t12 33.5q0 20 -12 32.5t-31 12.5t-31 -12.5t-12 -32.5q0 -21 12 -33.5t31 -12.5z" />
    <glyph glyph-name="ogonek" unicode="&#x2db;" horiz-adv-x="500" 
d="M269 -202q-51 0 -79.5 22.5t-28.5 64.5q0 90 140 161l34 -35q-95 -54 -95 -105q0 -40 45 -40q25 0 54 16v-71q-32 -13 -70 -13z" />
    <glyph glyph-name="tilde" unicode="&#x2dc;" horiz-adv-x="500" 
d="M307 598q-29 0 -70 28q-29 19 -42 19q-28 0 -31 -45h-63q4 117 92 117q29 0 70 -28q28 -19 42 -19q28 0 31 45h63q-4 -117 -92 -117z" />
    <glyph glyph-name="hungarumlaut" unicode="&#x2dd;" horiz-adv-x="500" 
d="M102 594l86 132h107l-109 -132h-84zM282 594l86 132h107l-109 -132h-84z" />
    <glyph glyph-name="gravecomb" unicode="&#x300;" horiz-adv-x="0" 
d="M-17 594l-131 132h110l110 -132h-89z" />
    <glyph glyph-name="acutecomb" unicode="&#x301;" horiz-adv-x="0" 
d="M-72 594l110 132h110l-131 -132h-89z" />
    <glyph glyph-name="uni0302" unicode="&#x302;" horiz-adv-x="0" 
d="M-157 594l112 132h90l112 -132h-89l-68 69l-68 -69h-89z" />
    <glyph glyph-name="tildecomb" unicode="&#x303;" horiz-adv-x="0" 
d="M57 598q-29 0 -70 28q-28 19 -42 19q-28 0 -31 -45h-63q4 117 92 117q29 0 70 -28q28 -19 42 -19q28 0 31 45h63q-4 -117 -92 -117z" />
    <glyph glyph-name="uni0304" unicode="&#x304;" horiz-adv-x="0" 
d="M-127 625v70h254v-70h-254z" />
    <glyph glyph-name="uni0306" unicode="&#x306;" horiz-adv-x="0" 
d="M0 591q-64 0 -100.5 35.5t-38.5 96.5h69q3 -63 70 -63t70 63h69q-2 -61 -38.5 -96.5t-100.5 -35.5z" />
    <glyph glyph-name="uni0307" unicode="&#x307;" horiz-adv-x="0" 
d="M-49 609v98h98v-98h-98z" />
    <glyph glyph-name="uni0308" unicode="&#x308;" horiz-adv-x="0" 
d="M-138 609v98h98v-98h-98zM40 609v98h98v-98h-98z" />
    <glyph glyph-name="uni030A" unicode="&#x30a;" horiz-adv-x="0" 
d="M0 577q-47 0 -77 29t-30 75q0 45 30.5 74.5t76.5 29.5t76.5 -29.5t30.5 -74.5q0 -46 -30 -75t-77 -29zM0 635q19 0 31 12.5t12 33.5q0 20 -12 32.5t-31 12.5t-31 -12.5t-12 -32.5q0 -21 12 -33.5t31 -12.5z" />
    <glyph glyph-name="uni030B" unicode="&#x30b;" horiz-adv-x="0" 
d="M-148 594l86 132h107l-109 -132h-84zM32 594l86 132h107l-109 -132h-84z" />
    <glyph glyph-name="uni030C" unicode="&#x30c;" horiz-adv-x="0" 
d="M-45 594l-112 132h89l68 -69l68 69h89l-112 -132h-90z" />
    <glyph glyph-name="uni0312" unicode="&#x312;" horiz-adv-x="0" 
d="M-49 590v60q0 55 21 79.5t82 24.5v-42q-27 0 -37 -10.5t-10 -33.5h42v-78h-98z" />
    <glyph glyph-name="uni0326" unicode="&#x326;" horiz-adv-x="0" 
d="M-54 -238v42q27 0 37 10.5t10 33.5h-42v78h98v-60q0 -55 -21 -79.5t-82 -24.5z" />
    <glyph glyph-name="uni0327" unicode="&#x327;" horiz-adv-x="0" 
d="M-22 -204q-64 0 -100 21l18 48q32 -18 67 -18q50 0 50 29q0 13 -11 18t-43 5h-28l44 116h54l-28 -73q95 -1 95 -70q0 -76 -118 -76z" />
    <glyph glyph-name="uni0328" unicode="&#x328;" horiz-adv-x="0" 
d="M19 -202q-51 0 -79.5 22.5t-28.5 64.5q0 90 140 161l34 -35q-95 -54 -95 -105q0 -40 45 -40q25 0 54 16v-71q-33 -13 -70 -13z" />
    <glyph glyph-name="uni0394" unicode="&#x394;" horiz-adv-x="596" 
d="M9 0l242 680h94l242 -680h-578zM131 83h331l-165 470z" />
    <glyph glyph-name="uni03A9" unicode="&#x3a9;" horiz-adv-x="654" 
d="M68 0v82h80q-85 61 -85 201v138q0 271 264 271t264 -271v-138q0 -140 -85 -201h80v-82h-213v75q128 35 128 192v154q0 97 -42.5 143t-131.5 46t-131.5 -46t-42.5 -143v-154q0 -157 128 -192v-75h-213z" />
    <glyph glyph-name="uni03BC" unicode="&#x3bc;" horiz-adv-x="582" 
d="M83 -182v698h88v-331q0 -117 92 -117q91 0 148 116v332h88v-516h-75l-3 84q-66 -96 -171 -96q-46 0 -79 18v-188h-88z" />
    <glyph glyph-name="pi" unicode="&#x3c0;" horiz-adv-x="592" 
d="M107 0v440h-94v76h561v-76h-94v-293q0 -43 13 -57t49 -14h32v-76h-63q-64 0 -91.5 33.5t-27.5 111.5v295h-197v-440h-88z" />
    <glyph glyph-name="Wgrave" unicode="&#x1e80;" horiz-adv-x="862" 
d="M414 749l-131 132h110l110 -132h-89zM193 0l-183 680h93l139 -532l146 532h88l147 -534l139 534h90l-183 -680h-92l-146 527l-147 -527h-91z" />
    <glyph glyph-name="wgrave" unicode="&#x1e81;" horiz-adv-x="775" 
d="M371 594l-131 132h110l110 -132h-89zM172 0l-161 516h93l117 -400l124 400h87l125 -402l117 402h90l-161 -516h-94l-121 389l-122 -389h-94z" />
    <glyph glyph-name="Wacute" unicode="&#x1e82;" horiz-adv-x="862" 
d="M359 749l110 132h110l-131 -132h-89zM193 0l-183 680h93l139 -532l146 532h88l147 -534l139 534h90l-183 -680h-92l-146 527l-147 -527h-91z" />
    <glyph glyph-name="wacute" unicode="&#x1e83;" horiz-adv-x="775" 
d="M316 594l110 132h110l-131 -132h-89zM172 0l-161 516h93l117 -400l124 400h87l125 -402l117 402h90l-161 -516h-94l-121 389l-122 -389h-94z" />
    <glyph glyph-name="Wdieresis" unicode="&#x1e84;" horiz-adv-x="862" 
d="M293 764v98h98v-98h-98zM471 764v98h98v-98h-98zM193 0l-183 680h93l139 -532l146 532h88l147 -534l139 534h90l-183 -680h-92l-146 527l-147 -527h-91z" />
    <glyph glyph-name="wdieresis" unicode="&#x1e85;" horiz-adv-x="775" 
d="M250 609v98h98v-98h-98zM428 609v98h98v-98h-98zM172 0l-161 516h93l117 -400l124 400h87l125 -402l117 402h90l-161 -516h-94l-121 389l-122 -389h-94z" />
    <glyph glyph-name="uni1E9E" unicode="&#x1e9e;" horiz-adv-x="632" 
d="M77 0v468q0 109 56 160.5t174 51.5h244v-74l-163 -217q113 -4 163 -50t50 -144q0 -103 -54 -149t-175 -46h-117v82h110q79 0 112.5 26t33.5 86q0 62 -37 88t-125 26h-72v71l164 219h-126q-78 0 -113 -31t-35 -100v-467h-90z" />
    <glyph glyph-name="Ygrave" unicode="&#x1ef2;" horiz-adv-x="552" 
d="M259 749l-131 132h110l110 -132h-89zM231 0v290l-241 390h105l184 -297l183 297h100l-241 -390v-290h-90z" />
    <glyph glyph-name="ygrave" unicode="&#x1ef3;" horiz-adv-x="470" 
d="M219 594l-131 132h110l110 -132h-89zM58 -182v76h44q30 0 45.5 11.5t25.5 42.5l24 72l-186 496h94l137 -381l127 381h90l-202 -578q-24 -68 -56 -94t-91 -26h-52z" />
    <glyph glyph-name="uni2002" unicode="&#x2002;" horiz-adv-x="500" 
 />
    <glyph glyph-name="uni2003" unicode="&#x2003;" horiz-adv-x="900" 
 />
    <glyph glyph-name="uni2007" unicode="&#x2007;" horiz-adv-x="602" 
 />
    <glyph glyph-name="uni2008" unicode="&#x2008;" horiz-adv-x="278" 
 />
    <glyph glyph-name="uni200B" unicode="&#x200b;" horiz-adv-x="0" 
 />
    <glyph glyph-name="figuredash" unicode="&#x2012;" horiz-adv-x="602" 
d="M30 256v76h542v-76h-542z" />
    <glyph glyph-name="endash" unicode="&#x2013;" horiz-adv-x="500" 
d="M30 256v76h440v-76h-440z" />
    <glyph glyph-name="emdash" unicode="&#x2014;" horiz-adv-x="900" 
d="M30 256v76h840v-76h-840z" />
    <glyph glyph-name="quoteleft" unicode="&#x2018;" horiz-adv-x="254" 
d="M74 456v97q0 136 111 139v-56q-22 -1 -35.5 -17t-13.5 -44v-17h40v-102h-102z" />
    <glyph glyph-name="quoteright" unicode="&#x2019;" horiz-adv-x="254" 
d="M69 444v56q22 1 35.5 17t13.5 44v17h-40v102h102v-97q0 -136 -111 -139z" />
    <glyph glyph-name="quotesinglbase" unicode="&#x201a;" horiz-adv-x="254" 
d="M69 -134v56q22 1 35.5 17t13.5 44v17h-40v102h102v-97q0 -136 -111 -139z" />
    <glyph glyph-name="quotedblleft" unicode="&#x201c;" horiz-adv-x="445" 
d="M74 456v97q0 136 111 139v-56q-22 -1 -35.5 -17t-13.5 -44v-17h40v-102h-102zM265 456v97q0 136 111 139v-56q-22 -1 -35.5 -17t-13.5 -44v-17h40v-102h-102z" />
    <glyph glyph-name="quotedblright" unicode="&#x201d;" horiz-adv-x="445" 
d="M69 444v56q22 1 35.5 17t13.5 44v17h-40v102h102v-97q0 -136 -111 -139zM260 444v56q22 1 35.5 17t13.5 44v17h-40v102h102v-97q0 -136 -111 -139z" />
    <glyph glyph-name="quotedblbase" unicode="&#x201e;" horiz-adv-x="445" 
d="M69 -134v56q22 1 35.5 17t13.5 44v17h-40v102h102v-97q0 -136 -111 -139zM260 -134v56q22 1 35.5 17t13.5 44v17h-40v102h102v-97q0 -136 -111 -139z" />
    <glyph glyph-name="dagger" unicode="&#x2020;" horiz-adv-x="594" 
d="M252 -182v540l-214 -7v91l214 -7v245h88v-246l216 8v-91l-216 8v-541h-88z" />
    <glyph glyph-name="daggerdbl" unicode="&#x2021;" horiz-adv-x="594" 
d="M252 -182v225l-214 -7v91l214 -7v258l-214 -7v91l214 -7v225h88v-226l216 8v-91l-216 8v-260l216 8v-91l-216 8v-226h-88z" />
    <glyph glyph-name="bullet" unicode="&#x2022;" horiz-adv-x="500" 
d="M145 184v219h210v-219h-210z" />
    <glyph glyph-name="ellipsis" unicode="&#x2026;" horiz-adv-x="900" 
d="M99 0v102h102v-102h-102zM399 0v102h102v-102h-102zM699 0v102h102v-102h-102z" />
    <glyph glyph-name="perthousand" unicode="&#x2030;" horiz-adv-x="1109" 
d="M186 314q-71 0 -108.5 34.5t-37.5 100.5v108q0 66 37.5 100.5t108.5 34.5t108.5 -34.5t37.5 -100.5v-108q0 -66 -37.5 -100.5t-108.5 -34.5zM146 -12l402 704h76l-402 -704h-76zM186 379q73 0 73 74v101q0 73 -73 73t-73 -73v-101q0 -74 73 -74zM583 -12
q-71 0 -108.5 34.5t-37.5 100.5v108q0 66 37.5 100.5t108.5 34.5t108.5 -34.5t37.5 -100.5v-108q0 -66 -37.5 -100.5t-108.5 -34.5zM923 -12q-71 0 -108.5 34.5t-37.5 100.5v108q0 66 37.5 100.5t108.5 34.5t108.5 -34.5t37.5 -100.5v-108q0 -66 -37.5 -100.5t-108.5 -34.5z
M583 53q73 0 73 74v101q0 73 -73 73t-73 -73v-101q0 -74 73 -74zM923 53q73 0 73 74v101q0 73 -73 73t-73 -73v-101q0 -74 73 -74z" />
    <glyph glyph-name="guilsinglleft" unicode="&#x2039;" horiz-adv-x="273" 
d="M159 82l-139 176l139 177h94l-139 -177l139 -176h-94z" />
    <glyph glyph-name="guilsinglright" unicode="&#x203a;" horiz-adv-x="273" 
d="M20 81l139 177l-139 176h94l139 -176l-139 -177h-94z" />
    <glyph glyph-name="fraction" unicode="&#x2044;" horiz-adv-x="107" 
d="M-166 -12l364 704h75l-364 -704h-75z" />
    <glyph glyph-name="uni2070" unicode="&#x2070;" 
d="M183 404q-70 0 -106.5 34.5t-36.5 100.5v148q0 66 36.5 100.5t106.5 34.5t106.5 -34.5t36.5 -100.5v-148q0 -66 -36.5 -100.5t-106.5 -34.5zM183 469q70 0 70 74v141q0 73 -70 73t-70 -73v-141q0 -74 70 -74z" />
    <glyph glyph-name="uni2074" unicode="&#x2074;" 
d="M223 416v86h-197v67l193 241h77v-244h47v-64h-47v-86h-73zM104 566h119v153z" />
    <glyph glyph-name="uni2075" unicode="&#x2075;" 
d="M181 404q-67 0 -104 29.5t-38 84.5h70q2 -49 72 -49q76 0 76 68q0 67 -71 67q-47 0 -73 -23h-60l12 229h245v-67h-185l-5 -97q35 23 85 23q60 0 92.5 -33.5t32.5 -95.5q0 -67 -38 -101.5t-111 -34.5z" />
    <glyph glyph-name="uni2076" unicode="&#x2076;" 
d="M187 404q-70 0 -107.5 35t-37.5 99v147q0 67 38 102t110 35q133 0 135 -114h-70q-2 49 -65 49q-75 0 -75 -76v-50q34 37 94 37q58 0 90 -33.5t32 -94.5q0 -66 -37 -101t-107 -35zM188 469q70 0 70 70q0 65 -65 65q-56 0 -78 -47v-15q0 -73 73 -73z" />
    <glyph glyph-name="uni2077" unicode="&#x2077;" 
d="M96 416q9 197 153 326h-215v68h297v-71q-79 -68 -116.5 -146t-42.5 -177h-76z" />
    <glyph glyph-name="uni2078" unicode="&#x2078;" 
d="M184 404q-154 0 -154 116q0 74 63 100v2q-52 22 -52 87q0 54 36.5 83.5t105.5 29.5t105.5 -29.5t36.5 -83.5q0 -65 -52 -87v-2q63 -26 63 -101q0 -115 -152 -115zM183 649q71 0 71 54t-71 54t-71 -54t71 -54zM183 469q80 0 80 57q0 58 -80 58t-80 -58q0 -57 80 -57z" />
    <glyph glyph-name="uni2079" unicode="&#x2079;" 
d="M176 404q-133 0 -135 114h70q2 -49 65 -49q75 0 75 76v50q-34 -37 -94 -37q-58 0 -90 33.5t-32 94.5q0 66 37 101t107 35t107.5 -35t37.5 -99v-147q0 -67 -38 -102t-110 -35zM173 622q56 0 78 47v15q0 73 -73 73q-70 0 -70 -70q0 -65 65 -65z" />
    <glyph glyph-name="uni2080" unicode="&#x2080;" 
d="M183 -132q-70 0 -106.5 34.5t-36.5 100.5v148q0 66 36.5 100.5t106.5 34.5t106.5 -34.5t36.5 -100.5v-148q0 -66 -36.5 -100.5t-106.5 -34.5zM183 -67q70 0 70 74v141q0 73 -70 73t-70 -73v-141q0 -74 70 -74z" />
    <glyph glyph-name="uni2081" unicode="&#x2081;" 
d="M82 -120v65h88v242q-37 -20 -100 -22v59q72 3 104 50h69v-329h88v-65h-249z" />
    <glyph glyph-name="uni2082" unicode="&#x2082;" 
d="M42 -120v39q0 56 29 93.5t97 68.5q46 21 65 40t19 45t-17.5 40.5t-48.5 14.5q-67 0 -67 -67v-6h-70v15q0 59 36 91t103 32q66 0 101.5 -30.5t35.5 -86.5q0 -48 -28.5 -82t-93.5 -63q-47 -21 -66 -37.5t-21 -39.5h209v-67h-283z" />
    <glyph glyph-name="uni2083" unicode="&#x2083;" 
d="M186 -132q-145 0 -145 114v16h70v-6q0 -59 75 -59q72 0 72 58q0 57 -76 57h-44v64h43q68 0 68 54q0 55 -65 55q-68 0 -68 -57v-5h-69v10q0 56 36.5 86.5t102.5 30.5q64 0 99.5 -29t35.5 -85q0 -64 -48 -86v-2q58 -22 58 -95q0 -121 -145 -121z" />
    <glyph glyph-name="uni2084" unicode="&#x2084;" 
d="M223 -120v86h-197v67l193 241h77v-244h47v-64h-47v-86h-73zM104 30h119v153z" />
    <glyph glyph-name="uni2085" unicode="&#x2085;" 
d="M181 -132q-67 0 -104 29.5t-38 84.5h70q2 -49 72 -49q76 0 76 68q0 67 -71 67q-47 0 -73 -23h-60l12 229h245v-67h-185l-5 -97q35 23 85 23q60 0 92.5 -33.5t32.5 -95.5q0 -67 -38 -101.5t-111 -34.5z" />
    <glyph glyph-name="uni2086" unicode="&#x2086;" 
d="M187 -132q-70 0 -107.5 35t-37.5 99v147q0 67 38 102t110 35q133 0 135 -114h-70q-2 49 -65 49q-75 0 -75 -76v-50q34 37 94 37q58 0 90 -33.5t32 -94.5q0 -66 -37 -101t-107 -35zM188 -67q70 0 70 70q0 65 -65 65q-56 0 -78 -47v-15q0 -73 73 -73z" />
    <glyph glyph-name="uni2087" unicode="&#x2087;" 
d="M96 -120q9 197 153 326h-215v68h297v-71q-79 -68 -116.5 -146t-42.5 -177h-76z" />
    <glyph glyph-name="uni2088" unicode="&#x2088;" 
d="M184 -132q-154 0 -154 116q0 74 63 100v2q-52 22 -52 87q0 54 36.5 83.5t105.5 29.5t105.5 -29.5t36.5 -83.5q0 -65 -52 -87v-2q63 -26 63 -101q0 -115 -152 -115zM183 113q71 0 71 54t-71 54t-71 -54t71 -54zM183 -67q80 0 80 57q0 58 -80 58t-80 -58q0 -57 80 -57z" />
    <glyph glyph-name="uni2089" unicode="&#x2089;" 
d="M176 -132q-133 0 -135 114h70q2 -49 65 -49q75 0 75 76v50q-34 -37 -94 -37q-58 0 -90 33.5t-32 94.5q0 66 37 101t107 35t107.5 -35t37.5 -99v-147q0 -67 -38 -102t-110 -35zM173 86q56 0 78 47v15q0 73 -73 73q-70 0 -70 -70q0 -65 65 -65z" />
    <glyph glyph-name="Euro" unicode="&#x20ac;" horiz-adv-x="602" 
d="M328 -12q-112 0 -171.5 59t-59.5 169v14h-53v70h53v80h-53v70h53v14q0 110 59.5 169t171.5 59q105 0 161.5 -52.5t60.5 -154.5h-85q-6 127 -137 127q-143 0 -143 -150v-12h210l-12 -70h-198v-80h182l-10 -70h-172v-12q0 -150 143 -150q131 0 137 127h85
q-5 -101 -60.5 -154t-161.5 -53z" />
    <glyph glyph-name="uni20B9" unicode="&#x20b9;" horiz-adv-x="602" 
d="M376 0l-300 270v66h119q84 0 123.5 25.5t46.5 83.5h-305l15 72h288q-9 48 -46.5 69.5t-111.5 21.5h-145l15 72h488l-15 -72h-150q43 -34 53 -91h112l-15 -72h-94q-13 -177 -242 -181l293 -264h-129z" />
    <glyph glyph-name="uni2113" unicode="&#x2113;" horiz-adv-x="470" 
d="M261 -12q-91 0 -137.5 50t-46.5 148v363q0 193 173 193q161 0 161 -169q0 -198 -246 -359v-32q0 -113 109 -113q62 0 119 45l33 -70q-70 -56 -165 -56zM165 308q160 114 160 259q0 94 -75 94q-85 0 -85 -115v-238z" />
    <glyph glyph-name="uni2116" unicode="&#x2116;" horiz-adv-x="1081" 
d="M92 0v680h107l313 -517v517h87v-680h-88l-332 548v-548h-87zM861 144q-161 0 -161 158v65q0 158 161 158t161 -158v-65q0 -158 -161 -158zM861 208q86 0 86 95v63q0 95 -86 95t-86 -95v-63q0 -95 86 -95zM703 0v65h316v-65h-316z" />
    <glyph glyph-name="uni2117" unicode="&#x2117;" horiz-adv-x="772" 
d="M386 -12q-153 0 -252.5 99.5t-99.5 252.5t99.5 252.5t252.5 99.5t252.5 -99.5t99.5 -252.5t-99.5 -252.5t-252.5 -99.5zM386 57q125 0 200.5 77.5t75.5 205.5t-75.5 205.5t-200.5 77.5t-200.5 -77.5t-75.5 -205.5t75.5 -205.5t200.5 -77.5zM263 161v358h151
q70 0 102 -27.5t32 -89.5t-32 -89.5t-102 -27.5h-73v-124h-78zM341 351h65q35 0 49.5 11.5t14.5 39.5t-15 40t-49 12h-65v-103z" />
    <glyph glyph-name="uni2120" unicode="&#x2120;" horiz-adv-x="705" 
d="M135 347q-120 0 -120 101h66q0 -48 54 -48t54 41q0 20 -15.5 31t-56.5 19q-52 11 -74.5 33t-22.5 64q0 100 116 100q113 0 113 -99h-66q0 46 -48 46q-49 0 -49 -41q0 -20 15 -30.5t52 -17.5q55 -11 78.5 -34t23.5 -67q0 -98 -120 -98zM321 355v325h98l75 -228l74 228h100
v-325h-68v247l-83 -247h-51l-81 242v-242h-64z" />
    <glyph glyph-name="trademark" unicode="&#x2122;" horiz-adv-x="683" 
d="M88 355v266h-88v59h244v-59h-88v-266h-68zM299 355v325h98l75 -228l74 228h100v-325h-68v247l-83 -247h-51l-81 242v-242h-64z" />
    <glyph glyph-name="uni2126" unicode="&#x2126;" horiz-adv-x="654" 
d="M68 0v82h80q-85 61 -85 201v138q0 271 264 271t264 -271v-138q0 -140 -85 -201h80v-82h-213v75q128 35 128 192v154q0 97 -42.5 143t-131.5 46t-131.5 -46t-42.5 -143v-154q0 -157 128 -192v-75h-213z" />
    <glyph glyph-name="estimated" unicode="&#x212e;" horiz-adv-x="798" 
d="M407 -12q-154 0 -262.5 103t-108.5 249t108.5 249t262.5 103t262.5 -103t108.5 -249v-9h-601q-5 0 -5 -5v-191q0 -10 9 -21q89 -105 228 -105q69 0 132 31.5t107 85.5h54q-52 -64 -129.5 -101t-165.5 -37zM177 351h461q6 0 6 6v193q0 12 -10 22q-94 99 -225 99
q-135 0 -228 -103q-9 -11 -9 -22v-190q0 -5 5 -5z" />
    <glyph glyph-name="uni2153" unicode="&#x2153;" horiz-adv-x="839" 
d="M200 -12l364 704h75l-364 -704h-75zM82 286v65h88v242q-37 -20 -100 -22v59q72 3 104 50h69v-329h88v-65h-249zM659 -12q-145 0 -145 114v16h70v-6q0 -59 75 -59q72 0 72 58q0 57 -76 57h-44v64h43q68 0 68 54q0 55 -65 55q-68 0 -68 -57v-5h-69v10q0 56 36.5 86.5
t102.5 30.5q64 0 99.5 -29t35.5 -85q0 -64 -48 -86v-2q58 -22 58 -95q0 -121 -145 -121z" />
    <glyph glyph-name="uni2154" unicode="&#x2154;" horiz-adv-x="839" 
d="M42 286v39q0 56 29 93.5t97 68.5q46 21 65 40t19 45t-17.5 40.5t-48.5 14.5q-67 0 -67 -67v-6h-70v15q0 59 36 91t103 32q66 0 101.5 -30.5t35.5 -86.5q0 -48 -28.5 -82t-93.5 -63q-47 -21 -66 -37.5t-21 -39.5h209v-67h-283zM200 -12l364 704h75l-364 -704h-75zM659 -12
q-145 0 -145 114v16h70v-6q0 -59 75 -59q72 0 72 58q0 57 -76 57h-44v64h43q68 0 68 54q0 55 -65 55q-68 0 -68 -57v-5h-69v10q0 56 36.5 86.5t102.5 30.5q64 0 99.5 -29t35.5 -85q0 -64 -48 -86v-2q58 -22 58 -95q0 -121 -145 -121z" />
    <glyph glyph-name="uni2155" unicode="&#x2155;" horiz-adv-x="839" 
d="M200 -12l364 704h75l-364 -704h-75zM82 286v65h88v242q-37 -20 -100 -22v59q72 3 104 50h69v-329h88v-65h-249zM654 -12q-67 0 -104 29.5t-38 84.5h70q2 -49 72 -49q76 0 76 68q0 67 -71 67q-47 0 -73 -23h-60l12 229h245v-67h-185l-5 -97q35 23 85 23q60 0 92.5 -33.5
t32.5 -95.5q0 -67 -38 -101.5t-111 -34.5z" />
    <glyph glyph-name="uni2156" unicode="&#x2156;" horiz-adv-x="839" 
d="M42 286v39q0 56 29 93.5t97 68.5q46 21 65 40t19 45t-17.5 40.5t-48.5 14.5q-67 0 -67 -67v-6h-70v15q0 59 36 91t103 32q66 0 101.5 -30.5t35.5 -86.5q0 -48 -28.5 -82t-93.5 -63q-47 -21 -66 -37.5t-21 -39.5h209v-67h-283zM200 -12l364 704h75l-364 -704h-75zM654 -12
q-67 0 -104 29.5t-38 84.5h70q2 -49 72 -49q76 0 76 68q0 67 -71 67q-47 0 -73 -23h-60l12 229h245v-67h-185l-5 -97q35 23 85 23q60 0 92.5 -33.5t32.5 -95.5q0 -67 -38 -101.5t-111 -34.5z" />
    <glyph glyph-name="uni2157" unicode="&#x2157;" horiz-adv-x="839" 
d="M186 274q-145 0 -145 114v16h70v-6q0 -59 75 -59q72 0 72 58q0 57 -76 57h-44v64h43q68 0 68 54q0 55 -65 55q-68 0 -68 -57v-5h-69v10q0 56 36.5 86.5t102.5 30.5q64 0 99.5 -29t35.5 -85q0 -64 -48 -86v-2q58 -22 58 -95q0 -121 -145 -121zM200 -12l364 704h75
l-364 -704h-75zM654 -12q-67 0 -104 29.5t-38 84.5h70q2 -49 72 -49q76 0 76 68q0 67 -71 67q-47 0 -73 -23h-60l12 229h245v-67h-185l-5 -97q35 23 85 23q60 0 92.5 -33.5t32.5 -95.5q0 -67 -38 -101.5t-111 -34.5z" />
    <glyph glyph-name="uni2158" unicode="&#x2158;" horiz-adv-x="839" 
d="M200 -12l364 704h75l-364 -704h-75zM223 286v86h-197v67l193 241h77v-244h47v-64h-47v-86h-73zM104 436h119v153zM654 -12q-67 0 -104 29.5t-38 84.5h70q2 -49 72 -49q76 0 76 68q0 67 -71 67q-47 0 -73 -23h-60l12 229h245v-67h-185l-5 -97q35 23 85 23q60 0 92.5 -33.5
t32.5 -95.5q0 -67 -38 -101.5t-111 -34.5z" />
    <glyph glyph-name="uni2159" unicode="&#x2159;" horiz-adv-x="839" 
d="M200 -12l364 704h75l-364 -704h-75zM82 286v65h88v242q-37 -20 -100 -22v59q72 3 104 50h69v-329h88v-65h-249zM660 -12q-70 0 -107.5 35t-37.5 99v147q0 67 38 102t110 35q133 0 135 -114h-70q-2 49 -65 49q-75 0 -75 -76v-50q34 37 94 37q58 0 90 -33.5t32 -94.5
q0 -66 -37 -101t-107 -35zM661 53q70 0 70 70q0 65 -65 65q-56 0 -78 -47v-15q0 -73 73 -73z" />
    <glyph glyph-name="uni215A" unicode="&#x215a;" horiz-adv-x="839" 
d="M200 -12l364 704h75l-364 -704h-75zM181 274q-67 0 -104 29.5t-38 84.5h70q2 -49 72 -49q76 0 76 68q0 67 -71 67q-47 0 -73 -23h-60l12 229h245v-67h-185l-5 -97q35 23 85 23q60 0 92.5 -33.5t32.5 -95.5q0 -67 -38 -101.5t-111 -34.5zM660 -12q-70 0 -107.5 35
t-37.5 99v147q0 67 38 102t110 35q133 0 135 -114h-70q-2 49 -65 49q-75 0 -75 -76v-50q34 37 94 37q58 0 90 -33.5t32 -94.5q0 -66 -37 -101t-107 -35zM661 53q70 0 70 70q0 65 -65 65q-56 0 -78 -47v-15q0 -73 73 -73z" />
    <glyph glyph-name="oneeighth" unicode="&#x215b;" horiz-adv-x="839" 
d="M200 -12l364 704h75l-364 -704h-75zM82 286v65h88v242q-37 -20 -100 -22v59q72 3 104 50h69v-329h88v-65h-249zM657 -12q-154 0 -154 116q0 74 63 100v2q-52 22 -52 87q0 54 36.5 83.5t105.5 29.5t105.5 -29.5t36.5 -83.5q0 -65 -52 -87v-2q63 -26 63 -101
q0 -115 -152 -115zM656 233q71 0 71 54t-71 54t-71 -54t71 -54zM656 53q80 0 80 57q0 58 -80 58t-80 -58q0 -57 80 -57z" />
    <glyph glyph-name="threeeighths" unicode="&#x215c;" horiz-adv-x="839" 
d="M186 274q-145 0 -145 114v16h70v-6q0 -59 75 -59q72 0 72 58q0 57 -76 57h-44v64h43q68 0 68 54q0 55 -65 55q-68 0 -68 -57v-5h-69v10q0 56 36.5 86.5t102.5 30.5q64 0 99.5 -29t35.5 -85q0 -64 -48 -86v-2q58 -22 58 -95q0 -121 -145 -121zM200 -12l364 704h75
l-364 -704h-75zM657 -12q-154 0 -154 116q0 74 63 100v2q-52 22 -52 87q0 54 36.5 83.5t105.5 29.5t105.5 -29.5t36.5 -83.5q0 -65 -52 -87v-2q63 -26 63 -101q0 -115 -152 -115zM656 233q71 0 71 54t-71 54t-71 -54t71 -54zM656 53q80 0 80 57q0 58 -80 58t-80 -58
q0 -57 80 -57z" />
    <glyph glyph-name="fiveeighths" unicode="&#x215d;" horiz-adv-x="839" 
d="M200 -12l364 704h75l-364 -704h-75zM181 274q-67 0 -104 29.5t-38 84.5h70q2 -49 72 -49q76 0 76 68q0 67 -71 67q-47 0 -73 -23h-60l12 229h245v-67h-185l-5 -97q35 23 85 23q60 0 92.5 -33.5t32.5 -95.5q0 -67 -38 -101.5t-111 -34.5zM657 -12q-154 0 -154 116
q0 74 63 100v2q-52 22 -52 87q0 54 36.5 83.5t105.5 29.5t105.5 -29.5t36.5 -83.5q0 -65 -52 -87v-2q63 -26 63 -101q0 -115 -152 -115zM656 233q71 0 71 54t-71 54t-71 -54t71 -54zM656 53q80 0 80 57q0 58 -80 58t-80 -58q0 -57 80 -57z" />
    <glyph glyph-name="seveneighths" unicode="&#x215e;" horiz-adv-x="839" 
d="M173 -12l364 704h75l-364 -704h-75zM96 286q9 197 153 326h-215v68h297v-71q-79 -68 -116.5 -146t-42.5 -177h-76zM657 -12q-154 0 -154 116q0 74 63 100v2q-52 22 -52 87q0 54 36.5 83.5t105.5 29.5t105.5 -29.5t36.5 -83.5q0 -65 -52 -87v-2q63 -26 63 -101
q0 -115 -152 -115zM656 233q71 0 71 54t-71 54t-71 -54t71 -54zM656 53q80 0 80 57q0 58 -80 58t-80 -58q0 -57 80 -57z" />
    <glyph glyph-name="arrowleft" unicode="&#x2190;" horiz-adv-x="800" 
d="M367 26l-313 314l313 314l50 -50l-225 -224h554v-80h-554l225 -224z" />
    <glyph glyph-name="arrowup" unicode="&#x2191;" horiz-adv-x="800" 
d="M359 0v553l-227 -230l-50 50l318 319l318 -319l-50 -50l-227 230v-553h-82z" />
    <glyph glyph-name="arrowright" unicode="&#x2192;" horiz-adv-x="800" 
d="M433 28l-50 50l225 224h-554v80h554l-225 224l50 50l313 -314z" />
    <glyph glyph-name="arrowdown" unicode="&#x2193;" horiz-adv-x="800" 
d="M400 -12l-318 319l50 50l227 -230v553h82v-553l227 230l50 -50z" />
    <glyph glyph-name="arrowboth" unicode="&#x2194;" horiz-adv-x="1000" 
d="M347 46l-293 294l293 294l50 -50l-205 -204h616l-205 204l50 50l293 -294l-293 -294l-50 50l205 204h-616l205 -204z" />
    <glyph glyph-name="arrowupdn" unicode="&#x2195;" horiz-adv-x="800" 
d="M400 -84l-294 294l50 50l203 -205v570l-203 -205l-50 50l294 294l294 -294l-50 -50l-203 205v-570l203 205l50 -50z" />
    <glyph glyph-name="uni2196" unicode="&#x2196;" horiz-adv-x="800" 
d="M640 47l-433 433l1 -312h-73v440h438v-69l-314 1l437 -437z" />
    <glyph glyph-name="uni2197" unicode="&#x2197;" horiz-adv-x="800" 
d="M160 47l-56 56l437 437l-314 -1v69h438v-440h-73l1 312z" />
    <glyph glyph-name="uni2198" unicode="&#x2198;" horiz-adv-x="800" 
d="M227 72v69l314 -1l-437 437l56 56l433 -433l-1 312h73v-440h-438z" />
    <glyph glyph-name="uni2199" unicode="&#x2199;" horiz-adv-x="800" 
d="M135 72v439h73l-1 -311l433 433l56 -56l-437 -437l314 1v-69h-438z" />
    <glyph glyph-name="partialdiff" unicode="&#x2202;" horiz-adv-x="604" 
d="M261 -12q-102 0 -159.5 60t-57.5 165q0 114 65.5 184.5t173.5 70.5q113 0 172 -80v7q0 139 -42 204.5t-143 65.5q-82 0 -137 -43v83q61 37 154 37q132 0 194 -81.5t62 -258.5q0 -198 -73 -306t-209 -108zM266 65q146 0 180 203q-17 57 -58 90t-99 33q-71 0 -114 -49
t-43 -129q0 -70 35 -109t99 -39z" />
    <glyph glyph-name="emptyset" unicode="&#x2205;" horiz-adv-x="838" 
d="M120 -12l-53 53l75 75q-75 96 -75 224q0 152 100.5 252t251.5 100q128 0 224 -75l75 75l53 -53l-75 -75q75 -96 75 -224q0 -152 -100.5 -252t-251.5 -100q-128 0 -224 75zM197 171l391 391q-69 54 -169 54q-120 0 -197 -77.5t-77 -198.5q0 -97 52 -169zM419 64
q120 0 197 77.5t77 198.5q0 97 -52 169l-391 -391q69 -54 169 -54z" />
    <glyph glyph-name="uni2206" unicode="&#x2206;" horiz-adv-x="596" 
d="M9 0l242 680h94l242 -680h-578zM131 83h331l-165 470z" />
    <glyph glyph-name="product" unicode="&#x220f;" horiz-adv-x="780" 
d="M97 -183v954h586v-954h-86v876h-414v-876h-86z" />
    <glyph glyph-name="summation" unicode="&#x2211;" horiz-adv-x="614" 
d="M24 -183v82l315 395l-315 395v82h567v-78h-462l317 -399l-317 -399h462v-78h-567z" />
    <glyph glyph-name="minus" unicode="&#x2212;" horiz-adv-x="602" 
d="M56 271v76h490v-76h-490z" />
    <glyph glyph-name="uni2215" unicode="&#x2215;" horiz-adv-x="398" 
d="M-3 -12l319 704h85l-319 -704h-85z" />
    <glyph glyph-name="uni2219" unicode="&#x2219;" horiz-adv-x="278" 
d="M88 257v102h102v-102h-102z" />
    <glyph glyph-name="radical" unicode="&#x221a;" horiz-adv-x="602" 
d="M244 -183l-107 341h-81v76h138l91 -290l248 827h82l-288 -954h-83z" />
    <glyph glyph-name="infinity" unicode="&#x221e;" horiz-adv-x="923" 
d="M250 105q-87 0 -140.5 58.5t-53.5 154.5t54 155t143 59q77 0 125 -37t87 -103q43 75 92 107.5t117 32.5q87 0 140 -58.5t53 -154.5t-54 -155t-142 -59q-77 0 -125.5 37t-87.5 103q-43 -75 -91.5 -107.5t-116.5 -32.5zM666 181q56 0 89.5 39t33.5 101t-34 99t-92 37
q-52 0 -88 -28.5t-74 -100.5q19 -36 32 -57t33.5 -44.5t45 -34.5t54.5 -11zM261 180q51 0 87 28.5t75 100.5q-19 36 -32 57t-33.5 44.5t-45 34.5t-54.5 11q-56 0 -90 -39t-34 -101t34 -99t93 -37z" />
    <glyph glyph-name="integral" unicode="&#x222b;" horiz-adv-x="305" 
d="M51 -194q-33 0 -62 11v75q27 -11 50 -11q39 0 56.5 26t17.5 82v617q0 92 34 135.5t106 43.5q32 0 63 -10v-76q-28 11 -51 11q-39 0 -56.5 -26t-17.5 -82v-617q0 -92 -34 -135.5t-106 -43.5z" />
    <glyph glyph-name="approxequal" unicode="&#x2248;" horiz-adv-x="602" 
d="M408 328q-63 0 -127 52q-50 41 -89 41q-65 0 -71 -83h-69q2 76 39.5 117.5t102.5 41.5q63 0 127 -52q50 -41 89 -41q65 0 71 83h69q-2 -76 -39.5 -117.5t-102.5 -41.5zM408 100q-63 0 -127 52q-50 41 -89 41q-65 0 -71 -83h-69q2 76 39.5 117.5t102.5 41.5q63 0 127 -52
q50 -41 89 -41q65 0 71 83h69q-2 -76 -39.5 -117.5t-102.5 -41.5z" />
    <glyph glyph-name="notequal" unicode="&#x2260;" horiz-adv-x="602" 
d="M546 384h-153l-99 -150h252v-76h-302l-90 -137h-85l90 137h-103v76h153l99 150h-252v76h302l90 136h85l-90 -136h103v-76z" />
    <glyph glyph-name="lessequal" unicode="&#x2264;" horiz-adv-x="602" 
d="M546 130l-490 187v74l490 187v-82l-377 -142l377 -142v-82zM56 0v76h490v-76h-490z" />
    <glyph glyph-name="greaterequal" unicode="&#x2265;" horiz-adv-x="602" 
d="M56 130v82l377 142l-377 142v82l490 -187v-74zM56 0v76h490v-76h-490z" />
    <glyph glyph-name="lozenge" unicode="&#x25ca;" horiz-adv-x="602" 
d="M301 -32l-269 372l269 372l269 -372zM301 96l177 244l-177 244l-177 -244z" />
    <glyph glyph-name="uniF8FF" unicode="&#xf8ff;" horiz-adv-x="649" 
d="M263 50q-101 0 -163 61t-62 163q0 101 64.5 163t185.5 62h50v116h157v-116h132v-149h-132v-51q0 -116 -63.5 -182.5t-168.5 -66.5zM266 205q72 0 72 92v53h-49q-89 0 -89 -76q0 -32 17.5 -50.5t48.5 -18.5z" />
    <glyph glyph-name="Iacute_J.loclNLD" horiz-adv-x="823" 
d="M65 749l110 132h110l-131 -132h-89zM631 749l110 132h110l-131 -132h-89zM92 0v680h90v-680h-90zM518 -12q-117 0 -172 55.5t-55 173.5v16h87v-16q0 -77 33 -112t106 -35q75 0 108 37.5t33 122.5v450h90v-454q0 -123 -55.5 -180.5t-174.5 -57.5z" />
    <glyph glyph-name="iacute_j.loclNLD" horiz-adv-x="508" 
d="M55 594l110 132h110l-131 -132h-89zM309 594l110 132h110l-131 -132h-89zM83 0v516h88v-516h-88zM252 -182v76h25q36 0 48 13.5t12 53.5v555h88v-552q0 -77 -30.5 -111.5t-97.5 -34.5h-45z" />
    <glyph glyph-name="i.loclTRK" horiz-adv-x="254" 
d="M79 609v98h96v-98h-96zM83 0v516h88v-516h-88z" />
    <glyph glyph-name="germandbls.calt" horiz-adv-x="632" 
d="M77 0v468q0 109 56 160.5t174 51.5h244v-74l-163 -217q113 -4 163 -50t50 -144q0 -103 -54 -149t-175 -46h-117v82h110q79 0 112.5 26t33.5 86q0 62 -37 88t-125 26h-72v71l164 219h-126q-78 0 -113 -31t-35 -100v-467h-90z" />
    <glyph glyph-name="zero.pf" horiz-adv-x="628" 
d="M314 -12q-114 0 -174 58t-60 168v252q0 110 60 168t174 58t174 -58t60 -168v-252q0 -110 -60 -168t-174 -58zM314 68q146 0 146 152v240q0 152 -146 152t-146 -152v-240q0 -152 146 -152z" />
    <glyph glyph-name="one.pf" horiz-adv-x="428" 
d="M237 0v564q-65 -45 -187 -49v78q127 4 191 87h84v-680h-88z" />
    <glyph glyph-name="two.pf" horiz-adv-x="571" 
d="M55 0v51q0 94 50 156.5t169 117.5q90 41 126 79.5t36 91.5q0 55 -35 85.5t-104 30.5q-146 0 -146 -136v-14h-86v23q0 100 60.5 153.5t172.5 53.5q109 0 167.5 -51.5t58.5 -142.5q0 -81 -47.5 -136t-160.5 -106q-94 -42 -132.5 -80t-41.5 -93h380v-83h-467z" />
    <glyph glyph-name="three.pf" horiz-adv-x="600" 
d="M303 -12q-117 0 -178 49t-61 143v25h86v-13q0 -124 153 -124q151 0 151 121q0 118 -153 118h-75v80h76q136 0 136 110q0 56 -35.5 85.5t-101.5 29.5q-69 0 -105.5 -32t-36.5 -91v-9h-85v15q0 94 60.5 145.5t169.5 51.5q105 0 163 -48.5t58 -138.5q0 -112 -92 -151v-2
q109 -37 109 -166q0 -198 -239 -198z" />
    <glyph glyph-name="four.pf" horiz-adv-x="593" 
d="M389 0v156h-350v85l338 439h100v-444h80v-80h-80v-156h-88zM138 236h251v330z" />
    <glyph glyph-name="five.pf" horiz-adv-x="574" 
d="M288 -12q-112 0 -173 49.5t-63 138.5h86q2 -51 41.5 -79.5t107.5 -28.5q157 0 157 148q0 72 -39 110t-111 38q-80 0 -139 -52h-81l23 368h404v-83h-325l-13 -201q60 48 151 48q104 0 161 -58.5t57 -167.5q0 -114 -63 -172t-181 -58z" />
    <glyph glyph-name="six.pf" horiz-adv-x="626" 
d="M322 -12q-115 0 -176.5 59t-61.5 172v241q0 113 61.5 172.5t178.5 59.5q105 0 162 -47t61 -137h-86q-9 104 -136 104q-153 0 -153 -157v-96q63 73 176 73q100 0 154 -55.5t54 -161.5q0 -110 -59.5 -168.5t-174.5 -58.5zM322 68q145 0 145 145q0 139 -135 139
q-116 0 -160 -108v-23q0 -153 150 -153z" />
    <glyph glyph-name="seven.pf" horiz-adv-x="540" 
d="M136 0q15 351 271 596h-381v84h483v-87q-265 -254 -279 -593h-94z" />
    <glyph glyph-name="eight.pf" horiz-adv-x="618" 
d="M309 -12q-122 0 -186.5 50t-64.5 145q0 129 117 169v2q-97 38 -97 150q0 89 61 138.5t171 49.5t170.5 -49.5t60.5 -138.5q0 -112 -98 -150v-2q117 -41 117 -169q0 -95 -64.5 -145t-186.5 -50zM309 388q71 0 108 28.5t37 82.5q0 55 -37.5 84t-107.5 29q-69 0 -106.5 -29
t-37.5 -84q0 -54 37 -82.5t107 -28.5zM309 68q163 0 163 120t-163 120t-163 -120t163 -120z" />
    <glyph glyph-name="nine.pf" horiz-adv-x="626" 
d="M302 -12q-105 0 -162 47t-61 137h86q9 -104 136 -104q153 0 153 157v96q-63 -73 -176 -73q-100 0 -154 55.5t-54 161.5q0 110 59.5 168.5t174.5 58.5t176.5 -59t61.5 -172v-241q0 -113 -61.5 -172.5t-178.5 -59.5zM294 328q116 0 160 108v23q0 153 -150 153
q-145 0 -145 -145q0 -139 135 -139z" />
    <glyph glyph-name="zero.numr" 
d="M183 274q-70 0 -106.5 34.5t-36.5 100.5v148q0 66 36.5 100.5t106.5 34.5t106.5 -34.5t36.5 -100.5v-148q0 -66 -36.5 -100.5t-106.5 -34.5zM183 339q70 0 70 74v141q0 73 -70 73t-70 -73v-141q0 -74 70 -74z" />
    <glyph glyph-name="one.numr" 
d="M82 286v65h88v242q-37 -20 -100 -22v59q72 3 104 50h69v-329h88v-65h-249z" />
    <glyph glyph-name="two.numr" 
d="M42 286v39q0 56 29 93.5t97 68.5q46 21 65 40t19 45t-17.5 40.5t-48.5 14.5q-67 0 -67 -67v-6h-70v15q0 59 36 91t103 32q66 0 101.5 -30.5t35.5 -86.5q0 -48 -28.5 -82t-93.5 -63q-47 -21 -66 -37.5t-21 -39.5h209v-67h-283z" />
    <glyph glyph-name="three.numr" 
d="M186 274q-145 0 -145 114v16h70v-6q0 -59 75 -59q72 0 72 58q0 57 -76 57h-44v64h43q68 0 68 54q0 55 -65 55q-68 0 -68 -57v-5h-69v10q0 56 36.5 86.5t102.5 30.5q64 0 99.5 -29t35.5 -85q0 -64 -48 -86v-2q58 -22 58 -95q0 -121 -145 -121z" />
    <glyph glyph-name="four.numr" 
d="M223 286v86h-197v67l193 241h77v-244h47v-64h-47v-86h-73zM104 436h119v153z" />
    <glyph glyph-name="five.numr" 
d="M181 274q-67 0 -104 29.5t-38 84.5h70q2 -49 72 -49q76 0 76 68q0 67 -71 67q-47 0 -73 -23h-60l12 229h245v-67h-185l-5 -97q35 23 85 23q60 0 92.5 -33.5t32.5 -95.5q0 -67 -38 -101.5t-111 -34.5z" />
    <glyph glyph-name="six.numr" 
d="M187 274q-70 0 -107.5 35t-37.5 99v147q0 67 38 102t110 35q133 0 135 -114h-70q-2 49 -65 49q-75 0 -75 -76v-50q34 37 94 37q58 0 90 -33.5t32 -94.5q0 -66 -37 -101t-107 -35zM188 339q70 0 70 70q0 65 -65 65q-56 0 -78 -47v-15q0 -73 73 -73z" />
    <glyph glyph-name="seven.numr" 
d="M96 286q9 197 153 326h-215v68h297v-71q-79 -68 -116.5 -146t-42.5 -177h-76z" />
    <glyph glyph-name="eight.numr" 
d="M184 274q-154 0 -154 116q0 75 63 100v2q-52 22 -52 87q0 54 36.5 83.5t105.5 29.5t105.5 -29.5t36.5 -83.5q0 -65 -52 -87v-2q63 -26 63 -101q0 -115 -152 -115zM183 519q71 0 71 54t-71 54t-71 -54t71 -54zM183 339q80 0 80 57q0 58 -80 58t-80 -58q0 -57 80 -57z" />
    <glyph glyph-name="nine.numr" 
d="M176 274q-133 0 -135 114h70q2 -49 65 -49q75 0 75 76v50q-34 -37 -94 -37q-58 0 -90 33.5t-32 94.5q0 66 37 101t107 35t107.5 -35t37.5 -99v-147q0 -67 -38 -102t-110 -35zM173 492q56 0 78 47v15q0 73 -73 73q-70 0 -70 -70q0 -65 65 -65z" />
    <glyph glyph-name="zero.dnom" 
d="M183 -12q-70 0 -106.5 34.5t-36.5 100.5v148q0 66 36.5 100.5t106.5 34.5t106.5 -34.5t36.5 -100.5v-148q0 -66 -36.5 -100.5t-106.5 -34.5zM183 53q70 0 70 74v141q0 73 -70 73t-70 -73v-141q0 -74 70 -74z" />
    <glyph glyph-name="one.dnom" 
d="M82 0v65h88v242q-37 -20 -100 -22v59q72 3 104 50h69v-329h88v-65h-249z" />
    <glyph glyph-name="two.dnom" 
d="M42 0v39q0 56 29 93.5t97 68.5q46 21 65 40t19 45t-17.5 40.5t-48.5 14.5q-67 0 -67 -67v-6h-70v15q0 59 36 91t103 32q66 0 101.5 -30.5t35.5 -86.5q0 -48 -28.5 -82t-93.5 -63q-47 -21 -66 -37.5t-21 -39.5h209v-67h-283z" />
    <glyph glyph-name="three.dnom" 
d="M186 -12q-145 0 -145 114v16h70v-6q0 -59 75 -59q72 0 72 58q0 57 -76 57h-44v64h43q68 0 68 54q0 55 -65 55q-68 0 -68 -57v-5h-69v10q0 56 36.5 86.5t102.5 30.5q64 0 99.5 -29t35.5 -85q0 -64 -48 -86v-2q58 -22 58 -95q0 -121 -145 -121z" />
    <glyph glyph-name="four.dnom" 
d="M223 0v86h-197v67l193 241h77v-244h47v-64h-47v-86h-73zM104 150h119v153z" />
    <glyph glyph-name="five.dnom" 
d="M181 -12q-67 0 -104 29.5t-38 84.5h70q2 -49 72 -49q76 0 76 68q0 67 -71 67q-47 0 -73 -23h-60l12 229h245v-67h-185l-5 -97q35 23 85 23q60 0 92.5 -33.5t32.5 -95.5q0 -67 -38 -101.5t-111 -34.5z" />
    <glyph glyph-name="six.dnom" 
d="M187 -12q-70 0 -107.5 35t-37.5 99v147q0 67 38 102t110 35q133 0 135 -114h-70q-2 49 -65 49q-75 0 -75 -76v-50q34 37 94 37q58 0 90 -33.5t32 -94.5q0 -66 -37 -101t-107 -35zM188 53q70 0 70 70q0 65 -65 65q-56 0 -78 -47v-15q0 -73 73 -73z" />
    <glyph glyph-name="seven.dnom" 
d="M96 0q9 197 153 326h-215v68h297v-71q-79 -68 -116.5 -146t-42.5 -177h-76z" />
    <glyph glyph-name="eight.dnom" 
d="M184 -12q-154 0 -154 116q0 74 63 100v2q-52 22 -52 87q0 54 36.5 83.5t105.5 29.5t105.5 -29.5t36.5 -83.5q0 -65 -52 -87v-2q63 -26 63 -101q0 -115 -152 -115zM183 233q71 0 71 54t-71 54t-71 -54t71 -54zM183 53q80 0 80 57q0 58 -80 58t-80 -58q0 -57 80 -57z" />
    <glyph glyph-name="nine.dnom" 
d="M176 -12q-133 0 -135 114h70q2 -49 65 -49q75 0 75 76v50q-34 -37 -94 -37q-58 0 -90 33.5t-32 94.5q0 66 37 101t107 35t107.5 -35t37.5 -99v-147q0 -67 -38 -102t-110 -35zM173 206q56 0 78 47v15q0 73 -73 73q-70 0 -70 -70q0 -65 65 -65z" />
    <glyph glyph-name="exclamdown.case" horiz-adv-x="292" 
d="M95 578v102h102v-102h-102zM100 0l2 180l12 298h64l12 -298l2 -180h-92z" />
    <glyph glyph-name="questiondown.case" horiz-adv-x="436" 
d="M186 578v102h102v-102h-102zM221 -12q-94 0 -145.5 46t-51.5 129q0 53 21 89t73 71q46 31 63.5 59t17.5 70v26h76v-29q0 -58 -21.5 -97.5t-72.5 -75.5q-40 -28 -55 -52t-15 -59q0 -48 28.5 -74t80.5 -26q56 0 86 31t30 90h85q0 -96 -51.5 -147t-148.5 -51z" />
    <glyph glyph-name="at.case" horiz-adv-x="758" 
d="M413 -20q-171 0 -274 98t-103 261q0 161 99.5 261t262.5 100q155 0 248.5 -90t93.5 -236q0 -100 -44 -155t-121 -55q-80 0 -104 62q-41 -62 -118 -62q-59 0 -90 35t-31 100v75q0 66 31 100.5t90 34.5q73 0 114 -56l4 44h69v-206q0 -54 43 -54q35 0 54.5 34t19.5 97
q0 120 -68.5 188.5t-188.5 68.5q-129 0 -203.5 -78t-74.5 -206q0 -131 78.5 -208.5t211.5 -77.5q107 0 184 50l28 -70q-82 -55 -211 -55zM373 237q53 0 81 57v85q-27 57 -82 57q-54 0 -54 -68v-65q0 -66 55 -66z" />
    <glyph glyph-name="parenleft.case" horiz-adv-x="339" 
d="M318 -96q-119 38 -184 151t-65 285t65 285t184 151v-72q-165 -77 -165 -364t165 -364v-72z" />
    <glyph glyph-name="parenright.case" horiz-adv-x="339" 
d="M21 -96v72q165 77 165 364t-165 364v72q119 -38 184 -151t65 -285t-65 -285t-184 -151z" />
    <glyph glyph-name="braceleft.case" horiz-adv-x="339" 
d="M259 -84q-77 0 -112.5 39.5t-35.5 128.5v148q0 44 -17 59t-62 15v68q45 0 62 15t17 59v148q0 89 35.5 128.5t112.5 39.5h59v-69h-42q-46 0 -63.5 -21t-17.5 -75v-143q0 -98 -64 -115v-2q64 -19 64 -115v-143q0 -54 17.5 -75t63.5 -21h42v-69h-59z" />
    <glyph glyph-name="braceright.case" horiz-adv-x="339" 
d="M21 -84v69h42q46 0 63.5 21t17.5 75v143q0 96 64 115v2q-64 17 -64 115v143q0 54 -17.5 75t-63.5 21h-42v69h59q77 0 112.5 -39.5t35.5 -128.5v-148q0 -44 17 -59t62 -15v-68q-45 0 -62 -15t-17 -59v-148q0 -89 -35.5 -128.5t-112.5 -39.5h-59z" />
    <glyph glyph-name="bracketleft.case" horiz-adv-x="339" 
d="M92 -84v848h226v-69h-142v-710h142v-69h-226z" />
    <glyph glyph-name="bracketright.case" horiz-adv-x="339" 
d="M21 -84v69h142v710h-142v69h226v-848h-226z" />
    <glyph glyph-name="bar.case" horiz-adv-x="290" 
d="M106 -160v1000h78v-1000h-78z" />
    <glyph glyph-name="brokenbar.case" horiz-adv-x="290" 
d="M106 440v400h78v-400h-78zM106 -160v400h78v-400h-78z" />
    <glyph glyph-name="periodcentered.case" horiz-adv-x="278" 
d="M88 289v102h102v-102h-102z" />
    <glyph glyph-name="bullet.case" horiz-adv-x="500" 
d="M145 230v219h210v-219h-210z" />
    <glyph glyph-name="hyphen.case" horiz-adv-x="370" 
d="M34 296v87h302v-87h-302z" />
    <glyph glyph-name="uni00AD.case" horiz-adv-x="370" 
d="M34 296v87h302v-87h-302z" />
    <glyph glyph-name="figuredash.case" horiz-adv-x="602" 
d="M30 302v76h542v-76h-542z" />
    <glyph glyph-name="endash.case" horiz-adv-x="500" 
d="M30 302v76h440v-76h-440z" />
    <glyph glyph-name="emdash.case" horiz-adv-x="900" 
d="M30 302v76h840v-76h-840z" />
    <glyph glyph-name="guillemotleft.case" horiz-adv-x="482" 
d="M159 163l-139 176l139 177h94l-139 -177l139 -176h-94zM368 163l-139 176l139 177h94l-139 -177l139 -176h-94z" />
    <glyph glyph-name="guillemotright.case" horiz-adv-x="482" 
d="M20 163l139 177l-139 176h94l139 -176l-139 -177h-94zM229 163l139 177l-139 176h94l139 -176l-139 -177h-94z" />
    <glyph glyph-name="guilsinglleft.case" horiz-adv-x="273" 
d="M159 163l-139 176l139 177h94l-139 -177l139 -176h-94z" />
    <glyph glyph-name="guilsinglright.case" horiz-adv-x="273" 
d="M20 163l139 177l-139 176h94l139 -176l-139 -177h-94z" />
    <glyph glyph-name="caron.alt" horiz-adv-x="150" 
d="M17 523l42 207h95l-71 -207h-66z" />
    <glyph glyph-name="ringacute" horiz-adv-x="500" 
d="M178 800l110 132h110l-131 -132h-89zM250 562q-47 0 -77 29t-30 75q0 45 30.5 74.5t76.5 29.5t76.5 -29.5t30.5 -74.5q0 -46 -30 -75t-77 -29zM250 620q19 0 31 12.5t12 33.5q0 20 -12 32.5t-31 12.5t-31 -12.5t-12 -32.5q0 -21 12 -33.5t31 -12.5z" />
    <glyph glyph-name="NULL" horiz-adv-x="0" 
 />
    </font>
</defs>
</svg>
