<?xml version="1.0" standalone="no"?>
<!DOCTYPE svg PUBLIC "-//W3C//DTD SVG 1.1//EN" "http://www.w3.org/Graphics/SVG/1.1/DTD/svg11.dtd" >
<svg xmlns="http://www.w3.org/2000/svg" xmlns:xlink="http://www.w3.org/1999/xlink" version="1.1">
<metadata>
Created by FontForge 20170731 at Fri Feb  5 17:50:55 2016
 By Aleksey,,,
Copyright (c) 2014-2015 by Ryoichi Tsunekawa. All rights reserved.
</metadata>
<defs>
<font id="BioSans-ExtraLightItalic" horiz-adv-x="366" >
  <font-face 
    font-family="Bio Sans ExtraLight"
    font-weight="250"
    font-style="italic"
    font-stretch="normal"
    units-per-em="1000"
    panose-1="2 11 3 6 2 2 2 11 2 4"
    ascent="800"
    descent="-200"
    x-height="509"
    cap-height="680"
    bbox="-201 -226 1062 1052"
    underline-thickness="24"
    underline-position="-148"
    slope="-10"
    unicode-range="U+000D-FB02"
  />
<missing-glyph horiz-adv-x="698" 
d="M59 0l120 680h490l-120 -680h-490zM367 366l247 287h-394zM98 53l248 289l-146 285zM528 53l102 574l-248 -289zM114 27h394l-147 287z" />
    <glyph glyph-name="fi" unicode="fi" horiz-adv-x="544" 
d="M77 0l85 484h-108l5 25h108l14 80q25 141 148 141h70l-5 -27h-66q-50 0 -78.5 -29t-39.5 -91l-13 -74h159l-5 -25h-158l-86 -484h-30zM482 626l12 70h36l-12 -70h-36zM374 0l90 509h30l-90 -509h-30z" />
    <glyph glyph-name="fl" unicode="fl" horiz-adv-x="544" 
d="M77 0l85 484h-108l5 25h108l14 80q25 141 148 141h70l-5 -27h-66q-50 0 -78.5 -29t-39.5 -91l-13 -74h159l-5 -25h-158l-86 -484h-30zM374 0l129 730h30l-129 -730h-30z" />
    <glyph glyph-name=".notdef" horiz-adv-x="698" 
d="M59 0l120 680h490l-120 -680h-490zM367 366l247 287h-394zM98 53l248 289l-146 285zM528 53l102 574l-248 -289zM114 27h394l-147 287z" />
    <glyph glyph-name=".null" horiz-adv-x="0" 
 />
    <glyph glyph-name="nonmarkingreturn" horiz-adv-x="333" 
 />
    <glyph glyph-name="CR" unicode="&#xd;" horiz-adv-x="274" 
 />
    <glyph glyph-name="space" unicode=" " horiz-adv-x="274" 
 />
    <glyph glyph-name="exclam" unicode="!" horiz-adv-x="257" 
d="M109 205l55 331l24 144h31l-26 -144l-63 -331h-21zM63 0l14 79h41l-14 -79h-41z" />
    <glyph glyph-name="quotedbl" unicode="&#x22;" horiz-adv-x="334" 
d="M121 501l24 179h39l-40 -179h-23zM276 501l24 179h39l-40 -179h-23z" />
    <glyph glyph-name="numbersign" unicode="#" horiz-adv-x="600" 
d="M80 0l58 193h-108l5 26h111l77 252h-109l5 26h112l55 183h30l-55 -183h204l55 183h30l-55 -183h107l-5 -26h-110l-77 -252h108l-5 -26h-111l-58 -193h-30l58 193h-204l-58 -193h-30zM176 219h204l77 252h-204z" />
    <glyph glyph-name="dollar" unicode="$" horiz-adv-x="600" 
d="M232 -72l13 72q-93 2 -144 38t-51 102q0 16 3 34h28q-3 -16 -3 -30q0 -115 172 -117l55 308q-108 18 -146.5 47.5t-38.5 94.5q0 90 67 145.5t178 57.5l13 72h27l-13 -72q82 -4 126 -38.5t44 -96.5q0 -17 -3 -35h-28q3 17 3 32q0 106 -147 111l-52 -296q106 -17 145 -48.5
t39 -99.5q0 -93 -66.5 -148.5t-180.5 -60.5l-13 -72h-27zM309 362l51 291q-98 -4 -155 -49.5t-57 -121.5q0 -53 34.5 -78.5t126.5 -41.5zM277 28q100 5 156.5 51.5t56.5 126.5q0 55 -33 81t-126 43z" />
    <glyph glyph-name="percent" unicode="%" horiz-adv-x="764" 
d="M198 321q-120 0 -120 103q0 16 3 34l17 97q24 137 161 137q120 0 120 -103q0 -16 -3 -34l-17 -97q-24 -137 -161 -137zM116 -12l530 704h32l-530 -704h-32zM199 348q110 0 131 115l16 91q3 17 3 33q0 78 -91 78q-110 0 -131 -115l-16 -91q-3 -17 -3 -33q0 -78 91 -78z
M536 -12q-120 0 -120 103q0 16 3 34l17 97q24 137 161 137q120 0 120 -103q0 -16 -3 -34l-17 -97q-24 -137 -161 -137zM537 15q110 0 131 115l16 91q3 16 3 33q0 78 -91 78q-110 0 -131 -115l-16 -91q-3 -16 -3 -33q0 -78 91 -78z" />
    <glyph glyph-name="ampersand" unicode="&#x26;" horiz-adv-x="653" 
d="M231 -12q-91 0 -142 39.5t-51 112.5q0 69 48 124t152 105q-61 76 -61 136q0 78 59 132.5t146 54.5q65 0 101 -32.5t36 -84.5q0 -64 -55 -113.5t-180 -101.5l189 -222q52 72 77 180h29q-29 -124 -88 -202l99 -116h-39l-79 93q-93 -105 -241 -105zM266 382
q122 50 173.5 93.5t51.5 96.5q0 42 -30 67.5t-83 25.5q-73 0 -122.5 -46.5t-49.5 -112.5q0 -31 13.5 -58.5t46.5 -65.5zM231 15q136 0 223 99l-198 233q-99 -46 -143.5 -94.5t-44.5 -110.5t42.5 -94.5t120.5 -32.5z" />
    <glyph glyph-name="quotesingle" unicode="'" horiz-adv-x="179" 
d="M121 501l24 179h39l-40 -179h-23z" />
    <glyph glyph-name="parenleft" unicode="(" horiz-adv-x="317" 
d="M228 -130q-153 72 -153 311q0 113 33.5 224.5t105 205t168.5 131.5l-4 -26q-85 -39 -149 -130t-94.5 -198.5t-30.5 -214.5q0 -208 129 -279z" />
    <glyph glyph-name="parenright" unicode=")" horiz-adv-x="317" 
d="M-47 -130l4 26q85 39 149 130t94.5 198.5t30.5 214.5q0 208 -129 279l5 24q153 -72 153 -311q0 -113 -33.5 -224.5t-105 -205t-168.5 -131.5z" />
    <glyph glyph-name="asterisk" unicode="*" horiz-adv-x="386" 
d="M109 326l-22 19l126 138l-156 51l10 27l158 -57l28 176h28l-33 -174l171 55l8 -27l-176 -51l80 -145l-24 -12l-75 143z" />
    <glyph glyph-name="plus" unicode="+" horiz-adv-x="600" 
d="M251 59l41 235h-227l5 28h227l42 236h30l-42 -236h227l-5 -28h-227l-41 -235h-30z" />
    <glyph glyph-name="comma" unicode="," horiz-adv-x="239" 
d="M18 -109l4 24q32 7 43 68l3 17h-14l14 79h41l-16 -91q-8 -46 -26 -69t-49 -28z" />
    <glyph glyph-name="hyphen" unicode="-" horiz-adv-x="355" 
d="M39 275l5 28h285l-5 -28h-285z" />
    <glyph glyph-name="period" unicode="." horiz-adv-x="239" 
d="M54 0l14 79h41l-14 -79h-41z" />
    <glyph glyph-name="slash" unicode="/" horiz-adv-x="420" 
d="M-58 -140l518 870h32l-518 -870h-32z" />
    <glyph glyph-name="zero" unicode="0" horiz-adv-x="600" 
d="M255 -12q-94 0 -143.5 42t-49.5 125q0 30 5 59l45 255q19 110 86.5 166.5t177.5 56.5q94 0 143.5 -42t49.5 -125q0 -30 -5 -59l-45 -255q-19 -110 -86.5 -166.5t-177.5 -56.5zM257 15q98 0 157 51.5t76 150.5l44 249q5 29 5 55q0 144 -165 144q-98 0 -157 -51.5
t-76 -150.5l-44 -249q-5 -29 -5 -55q0 -144 165 -144z" />
    <glyph glyph-name="one" unicode="1" horiz-adv-x="600" 
d="M103 0l5 28h176l107 609q-90 -56 -207 -67l4 24q117 12 211 86h30l-115 -652h176l-5 -28h-382z" />
    <glyph glyph-name="two" unicode="2" horiz-adv-x="600" 
d="M30 0l5 28q16 91 78 153t199 122q123 54 177 108.5t54 125.5q0 128 -162 128q-94 0 -151.5 -44t-72.5 -127l-2 -11h-29l3 17q16 90 82.5 141t173.5 51q186 0 186 -154q0 -82 -57.5 -142.5t-190.5 -117.5q-129 -55 -186.5 -111t-72.5 -139h418l-5 -28h-447z" />
    <glyph glyph-name="three" unicode="3" horiz-adv-x="600" 
d="M255 -12q-97 0 -149.5 39.5t-52.5 105.5q0 18 4 42l2 11h29l-2 -11q-3 -18 -3 -36q0 -124 172 -124q111 0 174.5 52.5t63.5 142.5q0 67 -39 97.5t-127 30.5h-83l4 27h85q90 0 145.5 49t55.5 126q0 125 -157 125q-93 0 -152 -43.5t-71 -116.5l-1 -6h-29l2 11
q15 84 82.5 133t170.5 49q88 0 135.5 -38.5t47.5 -113.5q0 -70 -40.5 -119t-109.5 -67v-1q111 -26 111 -143q0 -101 -73.5 -161.5t-194.5 -60.5z" />
    <glyph glyph-name="four" unicode="4" horiz-adv-x="600" 
d="M399 0l30 167h-392l5 30l472 483h35l-86 -485h95l-5 -28h-95l-29 -167h-30zM76 195h357l79 443z" />
    <glyph glyph-name="five" unicode="5" horiz-adv-x="600" 
d="M251 -12q-92 0 -146 39t-54 104q0 10 2 26h29q-2 -14 -2 -24q0 -55 46 -86.5t125 -31.5q118 0 187 67.5t69 172.5q0 156 -169 156q-115 0 -206 -71h-23l82 340h392l-5 -28h-367l-65 -270q85 56 195 56q196 0 196 -181q0 -118 -78.5 -193.5t-207.5 -75.5z" />
    <glyph glyph-name="six" unicode="6" horiz-adv-x="600" 
d="M266 -12q-95 0 -145 43t-50 125q0 27 5 56l45 255q19 110 88.5 167.5t180.5 57.5q89 0 137.5 -37.5t48.5 -104.5q0 -14 -1 -21h-28q1 6 1 16q0 120 -158 120q-204 0 -241 -206l-26 -145q88 111 233 111q87 0 133.5 -41t46.5 -119q0 -125 -72.5 -201t-197.5 -76zM266 15
q113 0 177 68t64 179q0 136 -155 136q-151 0 -239 -142l-7 -41q-5 -28 -5 -56q0 -144 165 -144z" />
    <glyph glyph-name="seven" unicode="7" horiz-adv-x="600" 
d="M146 0q81 366 425 651h-444l5 29h482l-6 -32q-350 -282 -430 -648h-32z" />
    <glyph glyph-name="eight" unicode="8" horiz-adv-x="600" 
d="M250 -12q-212 0 -212 160q0 79 49.5 133t134.5 74v1q-102 26 -102 131q0 92 73 148.5t186 56.5q92 0 142 -39.5t50 -114.5q0 -69 -42 -116.5t-115 -65.5v-1q120 -29 120 -150q0 -101 -77 -159t-207 -58zM313 367q106 0 168 46.5t62 124.5q0 127 -163 127
q-105 0 -168.5 -49.5t-63.5 -127.5q0 -121 165 -121zM250 15q117 0 186 51t69 139q0 135 -182 135q-117 0 -186 -50t-69 -138q0 -137 182 -137z" />
    <glyph glyph-name="nine" unicode="9" horiz-adv-x="600" 
d="M240 -12q-89 0 -137.5 37.5t-48.5 104.5q0 14 1 21h28q-1 -6 -1 -16q0 -120 158 -120q204 0 241 206l26 145q-88 -111 -233 -111q-87 0 -133.5 41t-46.5 119q0 125 72.5 201t197.5 76q95 0 145 -43t50 -125q0 -27 -5 -56l-45 -255q-19 -110 -88.5 -167.5t-180.5 -57.5z
M278 282q151 0 239 142l7 41q5 28 5 56q0 144 -165 144q-113 0 -177 -68t-64 -179q0 -136 155 -136z" />
    <glyph glyph-name="colon" unicode=":" horiz-adv-x="239" 
d="M123 390l14 79h41l-14 -79h-41zM54 0l14 79h41l-14 -79h-41z" />
    <glyph glyph-name="semicolon" unicode=";" horiz-adv-x="239" 
d="M123 390l14 79h41l-14 -79h-41zM18 -109l4 24q32 7 43 68l3 17h-14l14 79h41l-16 -91q-8 -46 -26 -69t-49 -28z" />
    <glyph glyph-name="less" unicode="&#x3c;" horiz-adv-x="600" 
d="M512 79l-447 215l5 28l522 214l-6 -32l-482 -198l413 -198z" />
    <glyph glyph-name="equal" unicode="=" horiz-adv-x="600" 
d="M84 403l5 28h484l-5 -28h-484zM46 185l5 28h484l-5 -28h-484z" />
    <glyph glyph-name="greater" unicode="&#x3e;" horiz-adv-x="600" 
d="M27 80l6 32l482 198l-413 198l5 29l447 -215l-5 -28z" />
    <glyph glyph-name="question" unicode="?" horiz-adv-x="413" 
d="M167 205l5 28q10 58 37 93t88 70q61 34 85.5 70.5t24.5 93.5q0 51 -33.5 78t-97.5 27q-76 0 -124 -39t-61 -112h-28q15 84 71.5 131t144.5 47q75 0 116 -34.5t41 -96.5q0 -64 -27.5 -106t-94.5 -79q-57 -32 -83 -63t-34 -80l-5 -28h-25zM123 0l14 79h41l-14 -79h-41z" />
    <glyph glyph-name="at" unicode="@" horiz-adv-x="762" 
d="M379 -68q-157 0 -245.5 84t-88.5 229q0 169 113 284t286 115q139 0 223 -76t84 -201q0 -63 -20.5 -121.5t-64 -99t-100.5 -40.5q-77 0 -77 74v7q-63 -81 -149 -81q-52 0 -79.5 27t-27.5 77q0 20 3 38l14 79q12 67 50.5 102.5t98.5 35.5q89 0 124 -81l14 68h26l-42 -238
q-3 -16 -3 -28q0 -53 53 -53q71 0 111.5 72.5t40.5 160.5q0 115 -76 183t-202 68q-162 0 -266 -107t-104 -264q0 -134 80.5 -210.5t222.5 -76.5q118 0 209 55l11 -27q-88 -55 -219 -55zM342 133q84 0 153 99l19 110q-32 96 -115 96q-99 0 -120 -117l-13 -74q-3 -17 -3 -35
q0 -79 79 -79z" />
    <glyph glyph-name="A" unicode="A" horiz-adv-x="598" 
d="M-31 0l389 680h32l149 -680h-32l-44 207h-342l-119 -207h-33zM137 236h320l-89 405z" />
    <glyph glyph-name="B" unicode="B" horiz-adv-x="637" 
d="M59 0l120 680h256q92 0 135 -34.5t43 -108.5q0 -72 -37 -120.5t-105 -66.5v-1q57 -12 83 -44.5t26 -91.5q0 -98 -65.5 -155.5t-179.5 -57.5h-276zM154 361h235q90 0 142 47.5t52 127.5q0 62 -35 88.5t-116 26.5h-227zM95 29h243q99 0 155 49t56 135q0 65 -37.5 92
t-127.5 27h-235z" />
    <glyph glyph-name="C" unicode="C" horiz-adv-x="612" 
d="M275 -12q-103 0 -157.5 48.5t-54.5 141.5q0 29 7 69l33 187q22 127 95.5 192.5t192.5 65.5q100 0 153.5 -44.5t53.5 -125.5q0 -16 -2 -38h-30q2 18 2 32q0 72 -45 109.5t-132 37.5q-217 0 -259 -236l-31 -176q-7 -39 -7 -70q0 -164 180 -164q95 0 157 45.5t84 133.5h31
q-24 -101 -93.5 -154.5t-177.5 -53.5z" />
    <glyph glyph-name="D" unicode="D" horiz-adv-x="649" 
d="M59 0l120 680h218q219 0 219 -181q0 -33 -8 -78l-29 -164q-24 -135 -96 -196t-202 -61h-222zM95 29h188q117 0 181 55.5t85 174.5l29 164q7 39 7 72q0 83 -46 119.5t-144 36.5h-190z" />
    <glyph glyph-name="E" unicode="E" horiz-adv-x="581" 
d="M59 0l120 680h430l-5 -29h-399l-51 -286h349l-5 -29h-349l-54 -307h409l-5 -29h-440z" />
    <glyph glyph-name="F" unicode="F" horiz-adv-x="544" 
d="M59 0l120 680h423l-5 -29h-392l-51 -286h342l-5 -29h-342l-59 -336h-31z" />
    <glyph glyph-name="G" unicode="G" horiz-adv-x="636" 
d="M280 -12q-105 0 -161 49t-56 141q0 30 6 64l35 198q21 121 99 186.5t193 65.5q99 0 153 -47.5t54 -131.5q0 -17 -3 -34h-29q2 14 2 31q0 73 -45.5 113t-130.5 40q-106 0 -175.5 -60.5t-87.5 -164.5l-34 -192q-6 -34 -6 -63q0 -166 187 -166q215 0 255 226l10 56h-185
l5 30h215l-16 -91q-22 -125 -95 -187.5t-190 -62.5z" />
    <glyph glyph-name="H" unicode="H" horiz-adv-x="698" 
d="M59 0l120 681h31l-56 -315h428l56 315h31l-120 -681h-31l59 337h-428l-59 -337h-31z" />
    <glyph glyph-name="I" unicode="I" horiz-adv-x="239" 
d="M59 0l120 680h31l-120 -680h-31z" />
    <glyph glyph-name="J" unicode="J" horiz-adv-x="548" 
d="M193 -12q-97 0 -142.5 39.5t-45.5 122.5q0 26 5 55l2 11h29l-1 -6q-6 -33 -6 -63q0 -69 38.5 -99.5t120.5 -30.5q105 0 160.5 50.5t75.5 164.5l79 448h31l-80 -455q-21 -121 -84.5 -179t-181.5 -58z" />
    <glyph glyph-name="K" unicode="K" horiz-adv-x="617" 
d="M59 0l120 680h31l-74 -422l492 422h42l-322 -277l206 -403h-35l-195 383l-196 -168l-38 -215h-31z" />
    <glyph glyph-name="L" unicode="L" horiz-adv-x="523" 
d="M59 0l120 680h31l-115 -651h380l-5 -29h-411z" />
    <glyph glyph-name="M" unicode="M" horiz-adv-x="859" 
d="M59 0l120 680h37l174 -633l400 633h40l-120 -680h-31l110 625l-393 -625h-24l-173 625l-110 -625h-30z" />
    <glyph glyph-name="N" unicode="N" horiz-adv-x="694" 
d="M59 0l120 680h38l307 -631l111 631h30l-120 -680h-30l-313 642l-113 -642h-30z" />
    <glyph glyph-name="O" unicode="O" horiz-adv-x="652" 
d="M282 -12q-106 0 -162 49.5t-56 144.5q0 30 6 65l33 187q22 127 98.5 192.5t198.5 65.5q106 0 162 -49.5t56 -144.5q0 -30 -6 -65l-33 -187q-22 -127 -98.5 -192.5t-198.5 -65.5zM282 17q226 0 268 236l31 176q6 33 6 67q0 167 -187 167q-226 0 -268 -236l-31 -176
q-6 -33 -6 -67q0 -167 187 -167z" />
    <glyph glyph-name="P" unicode="P" horiz-adv-x="597" 
d="M59 0l120 680h248q100 0 143 -36t43 -119q0 -110 -66 -171.5t-186 -61.5h-219l-52 -292h-31zM147 321h217q105 0 162 53t57 150q0 71 -35.5 99t-123.5 28h-219z" />
    <glyph glyph-name="Q" unicode="Q" horiz-adv-x="652" 
d="M400 692q106 0 162 -49.5t56 -144.5q0 -30 -6 -65l-33 -187q-22 -125 -98 -192l77 -93l-23 -19l-77 94q-72 -48 -176 -48q-106 0 -162 49.5t-56 144.5q0 30 6 65l33 187q22 127 98.5 192.5t198.5 65.5zM581 429q6 33 6 67q0 167 -187 167q-226 0 -268 -236l-31 -176
q-6 -33 -6 -67q0 -167 187 -167q94 0 157 42l-116 140l23 19l116 -141q67 58 88 176z" />
    <glyph glyph-name="R" unicode="R" horiz-adv-x="628" 
d="M59 0l120 680h249q97 0 138.5 -34.5t41.5 -115.5q0 -99 -53.5 -157.5t-152.5 -68.5l140 -304h-34l-140 302h-225l-53 -302h-31zM148 331h218q103 0 157.5 51.5t54.5 147.5q0 68 -33.5 94.5t-119.5 26.5h-220z" />
    <glyph glyph-name="S" unicode="S" horiz-adv-x="555" 
d="M239 -12q-104 0 -160 39t-56 108q0 16 3 34h30q-3 -17 -3 -31q0 -121 187 -121q110 0 171 51t61 147q0 50 -41.5 78t-138.5 42q-107 16 -151.5 47.5t-44.5 90.5q0 103 70.5 161t186.5 58q96 0 146.5 -36.5t50.5 -104.5q0 -17 -3 -36h-30q3 19 3 35q0 113 -164 113
q-105 0 -167 -49.5t-62 -138.5q0 -46 38.5 -71t133.5 -40q110 -17 156.5 -51t46.5 -98q0 -109 -70.5 -168t-192.5 -59z" />
    <glyph glyph-name="T" unicode="T" horiz-adv-x="497" 
d="M188 0l115 651h-225l5 29h481l-5 -29h-225l-115 -651h-31z" />
    <glyph glyph-name="U" unicode="U" horiz-adv-x="646" 
d="M278 -12q-107 0 -157 39t-50 123q0 32 7 71l81 459h31l-81 -459q-7 -41 -7 -71q0 -73 41.5 -103t134.5 -30q116 0 172.5 46t75.5 158l81 459h30l-81 -459q-22 -122 -85 -177.5t-193 -55.5z" />
    <glyph glyph-name="V" unicode="V" horiz-adv-x="573" 
d="M225 0l-136 680h32l128 -637l352 637h33l-376 -680h-33z" />
    <glyph glyph-name="W" unicode="W" horiz-adv-x="876" 
d="M169 0l-80 680h31l74 -633l302 633h33l78 -633l298 633h32l-320 -680h-33l-80 630l-302 -630h-33z" />
    <glyph glyph-name="X" unicode="X" horiz-adv-x="560" 
d="M-22 0l299 349l-171 331h35l159 -311l266 311h38l-288 -337l176 -343h-35l-165 323l-276 -323h-38z" />
    <glyph glyph-name="Y" unicode="Y" horiz-adv-x="530" 
d="M205 0l54 307l-180 373h35l164 -342l285 342h38l-312 -376l-54 -304h-30z" />
    <glyph glyph-name="Z" unicode="Z" horiz-adv-x="536" 
d="M-13 0l5 27l532 624h-404l5 29h445l-5 -27l-532 -624h431l-5 -29h-472z" />
    <glyph glyph-name="bracketleft" unicode="[" horiz-adv-x="317" 
d="M38 -118l150 848h192l-4 -24h-163l-142 -800h164l-5 -24h-192z" />
    <glyph glyph-name="backslash" unicode="\" horiz-adv-x="420" 
d="M307 -140l-211 870h31l211 -870h-31z" />
    <glyph glyph-name="bracketright" unicode="]" horiz-adv-x="317" 
d="M-45 -118l4 24h163l142 800h-164l5 24h192l-150 -848h-192z" />
    <glyph glyph-name="asciicircum" unicode="^" horiz-adv-x="600" 
d="M44 333l315 347h32l193 -347h-32l-178 321l-292 -321h-38z" />
    <glyph glyph-name="underscore" unicode="_" horiz-adv-x="500" 
d="M-63 -104l4 26h500l-4 -26h-500z" />
    <glyph glyph-name="grave" unicode="`" horiz-adv-x="500" 
d="M325 600l-94 122h39l85 -122h-30z" />
    <glyph glyph-name="a" unicode="a" horiz-adv-x="541" 
d="M173 -12q-142 0 -142 125q0 84 62 128t171 44h168l11 61q4 22 4 41q0 107 -138 107q-155 0 -189 -127h-30q42 154 220 154q167 0 167 -135q0 -17 -4 -40l-61 -346h-26l15 93q-96 -105 -228 -105zM176 14q132 0 230 121l21 123h-161q-98 0 -151.5 -36t-53.5 -108
q0 -100 115 -100z" />
    <glyph glyph-name="b" unicode="b" horiz-adv-x="582" 
d="M286 -12q-138 0 -186 135l-24 -123h-26l129 730h30l-60 -337q96 128 228 128q74 0 113.5 -40t39.5 -115q0 -28 -5 -55l-21 -119q-17 -95 -74.5 -149.5t-143.5 -54.5zM287 15q77 0 125 48.5t63 135.5l20 113q5 28 5 52q0 130 -125 130q-139 0 -235 -156l-30 -168
q41 -155 177 -155z" />
    <glyph glyph-name="c" unicode="c" horiz-adv-x="512" 
d="M226 -12q-83 0 -128 41t-45 121q0 25 5 54l18 102q19 105 81 160t158 55q82 0 125.5 -39t43.5 -106q0 -15 -1 -21h-29q1 8 1 21q0 118 -139 118q-177 0 -211 -194l-16 -91q-5 -27 -5 -58q0 -136 143 -136q155 0 191 139h29q-18 -77 -75.5 -121.5t-145.5 -44.5z" />
    <glyph glyph-name="d" unicode="d" horiz-adv-x="582" 
d="M205 -12q-74 0 -113.5 40t-39.5 115q0 27 5 55l21 119q17 95 74.5 149.5t143.5 54.5q135 0 185 -131l60 340h30l-129 -730h-26l19 120q-95 -132 -230 -132zM207 15q137 0 235 155l30 170q-41 154 -177 154q-77 0 -125 -48.5t-63 -135.5l-20 -113q-5 -27 -5 -52
q0 -130 125 -130z" />
    <glyph glyph-name="e" unicode="e" horiz-adv-x="545" 
d="M233 -12q-87 0 -133 42t-46 123q0 28 4 51l18 102q18 104 79.5 159.5t162.5 55.5q87 0 131.5 -41t44.5 -120q0 -27 -5 -56l-9 -51h-383l-8 -44q-5 -27 -5 -56q0 -71 37 -104.5t111 -33.5q77 0 128 34t68 97h29q-19 -76 -77.5 -117t-146.5 -41zM101 280h354l3 18
q6 35 6 62q0 134 -145 134q-180 0 -214 -194z" />
    <glyph glyph-name="f" unicode="f" horiz-adv-x="324" 
d="M77 0l85 484h-108l5 25h108l14 80q25 141 148 141h70l-5 -27h-66q-50 0 -78.5 -29t-39.5 -91l-13 -74h159l-5 -25h-158l-86 -484h-30z" />
    <glyph glyph-name="g" unicode="g" horiz-adv-x="582" 
d="M203 -194q-87 0 -132.5 33t-45.5 93q0 9 1 17h29q-1 -5 -1 -12q0 -104 149 -104q180 0 210 171l23 129q-96 -128 -228 -128q-74 0 -113.5 40t-39.5 115q0 28 5 55l18 102q17 95 74.5 149.5t143.5 54.5q138 0 186 -135l24 123h26l-90 -510q-34 -193 -239 -193zM210 32
q138 0 235 156l27 151q-41 155 -177 155q-77 0 -125 -48.5t-63 -135.5l-17 -96q-5 -27 -5 -52q0 -130 125 -130z" />
    <glyph glyph-name="h" unicode="h" horiz-adv-x="563" 
d="M50 0l129 730h30l-59 -333q85 124 212 124q133 0 133 -130q0 -23 -5 -51l-60 -340h-30l59 334q5 29 5 56q0 104 -106 104q-129 0 -218 -153l-60 -341h-30z" />
    <glyph glyph-name="i" unicode="i" horiz-adv-x="220" 
d="M158 626l12 70h36l-12 -70h-36zM50 0l90 509h30l-90 -509h-30z" />
    <glyph glyph-name="j" unicode="j" horiz-adv-x="220" 
d="M158 626l12 70h36l-12 -70h-36zM-83 -182l5 27h20q46 0 67 22t32 81l99 561h30l-100 -565q-12 -68 -41.5 -97t-87.5 -29h-24z" />
    <glyph glyph-name="k" unicode="k" horiz-adv-x="517" 
d="M50 0l129 730h30l-94 -530l380 309h42l-258 -209l172 -300h-34l-161 281l-148 -120l-28 -161h-30z" />
    <glyph glyph-name="l" unicode="l" horiz-adv-x="220" 
d="M50 0l129 730h30l-129 -730h-30z" />
    <glyph glyph-name="m" unicode="m" horiz-adv-x="877" 
d="M50 0l90 509h26l-17 -108q81 120 200 120q63 0 96 -31.5t33 -91.5q84 123 203 123q63 0 96 -32t33 -91q0 -27 -5 -52l-61 -346h-30l61 346q4 23 4 45q0 103 -101 103q-115 0 -204 -143l-62 -351h-30l61 346q5 28 5 48q0 100 -102 100q-117 0 -204 -144l-62 -350h-30z" />
    <glyph glyph-name="n" unicode="n" horiz-adv-x="563" 
d="M50 0l90 509h26l-19 -116q87 128 215 128q133 0 133 -130q0 -23 -5 -51l-60 -340h-30l59 334q5 29 5 56q0 104 -106 104q-129 0 -218 -153l-60 -341h-30z" />
    <glyph glyph-name="o" unicode="o" horiz-adv-x="558" 
d="M235 -12q-89 0 -135.5 42.5t-46.5 120.5q0 25 5 53l18 102q18 103 81.5 159t165.5 56q89 0 135.5 -42.5t46.5 -120.5q0 -25 -5 -53l-18 -102q-18 -103 -81.5 -159t-165.5 -56zM234 15q91 0 146.5 50t72.5 144l17 96q4 23 4 49q0 140 -150 140q-91 0 -146.5 -50
t-72.5 -144l-17 -96q-4 -23 -4 -49q0 -140 150 -140z" />
    <glyph glyph-name="p" unicode="p" horiz-adv-x="582" 
d="M18 -182l122 691h26l-19 -120q95 132 230 132q74 0 113.5 -40t39.5 -115q0 -28 -5 -55l-21 -119q-17 -95 -74.5 -149.5t-143.5 -54.5q-135 0 -185 131l-53 -301h-30zM287 15q77 0 125 48.5t63 135.5l20 113q5 28 5 52q0 130 -125 130q-137 0 -235 -155l-30 -170
q43 -154 177 -154z" />
    <glyph glyph-name="q" unicode="q" horiz-adv-x="582" 
d="M380 -182l53 298q-96 -128 -228 -128q-74 0 -113.5 40t-39.5 115q0 27 5 55l21 119q17 95 74.5 149.5t143.5 54.5q138 0 186 -135l24 123h26l-122 -691h-30zM207 15q139 0 235 156l30 168q-41 155 -177 155q-77 0 -125 -48.5t-63 -135.5l-20 -113q-5 -27 -5 -52
q0 -130 125 -130z" />
    <glyph glyph-name="r" unicode="r" horiz-adv-x="336" 
d="M50 0l90 509h26l-18 -112q66 121 187 121h33l-5 -27h-27q-67 0 -115.5 -41t-83.5 -129l-57 -321h-30z" />
    <glyph glyph-name="s" unicode="s" horiz-adv-x="495" 
d="M199 -12q-85 0 -131 31.5t-46 89.5q0 15 3 30h28q-3 -13 -3 -27q0 -97 148 -97q89 0 143 36t54 101q0 43 -35 65t-118 31q-89 10 -127 35t-38 74q0 74 59.5 119t154.5 45q77 0 120 -31t43 -87q0 -14 -3 -29h-28q2 9 2 26q0 46 -34.5 70t-99.5 24q-81 0 -132.5 -36.5
t-51.5 -96.5q0 -38 33.5 -58t112.5 -29q93 -10 132.5 -37t39.5 -80q0 -80 -62 -124.5t-164 -44.5z" />
    <glyph glyph-name="t" unicode="t" horiz-adv-x="325" 
d="M196 0q-53 0 -78 23t-25 72q0 22 5 50l60 339h-104l5 25h103l28 143h27l-25 -143h150l-5 -25h-149l-60 -339q-5 -28 -5 -49q0 -37 18 -53t60 -16h63l-5 -27h-63z" />
    <glyph glyph-name="u" unicode="u" horiz-adv-x="567" 
d="M203 -12q-66 0 -100.5 34t-34.5 97q0 22 5 50l60 340h30l-59 -334q-5 -29 -5 -55q0 -105 108 -105q131 0 220 153l60 341h30l-90 -509h-26l19 116q-87 -128 -217 -128z" />
    <glyph glyph-name="v" unicode="v" horiz-adv-x="466" 
d="M171 0l-107 509h31l99 -474l266 474h32l-287 -509h-34z" />
    <glyph glyph-name="w" unicode="w" horiz-adv-x="769" 
d="M148 0l-84 509h31l76 -471l242 471h31l76 -472l243 472h32l-264 -509h-34l-76 465l-240 -465h-33z" />
    <glyph glyph-name="x" unicode="x" horiz-adv-x="483" 
d="M-24 0l248 262l-150 247h34l137 -228l216 228h38l-237 -251l155 -258h-34l-143 239l-226 -239h-38z" />
    <glyph glyph-name="y" unicode="y" horiz-adv-x="456" 
d="M-20 -182l5 27h24q40 0 62.5 16t50.5 67l56 102l-114 479h32l104 -445l251 445h31l-334 -594q-32 -56 -61 -76.5t-78 -20.5h-29z" />
    <glyph glyph-name="z" unicode="z" horiz-adv-x="448" 
d="M-12 0l4 23l415 459h-313l5 27h354l-4 -23l-415 -459h339l-5 -27h-380z" />
    <glyph glyph-name="braceleft" unicode="{" horiz-adv-x="317" 
d="M195 -118q-111 0 -111 102q0 20 5 48l32 181q3 16 3 29q0 29 -18 40.5t-61 11.5l4 24q51 0 74 18t31 64l32 182q13 76 51.5 112t105.5 36h37l-4 -24h-34q-106 0 -128 -126l-31 -176q-8 -45 -25 -68t-47 -30v-1q41 -12 41 -63q0 -14 -3 -31l-32 -181q-4 -23 -4 -41
q0 -83 86 -83h36l-5 -24h-35z" />
    <glyph glyph-name="bar" unicode="|" horiz-adv-x="270" 
d="M35 -226l177 1000h30l-177 -1000h-30z" />
    <glyph glyph-name="braceright" unicode="}" horiz-adv-x="317" 
d="M-45 -118l4 24h34q106 0 128 126l31 176q8 45 25 68t47 30v1q-41 12 -41 63q0 14 3 31l32 181q4 23 4 41q0 83 -86 83h-36l5 24h35q111 0 111 -102q0 -20 -5 -48l-32 -181q-3 -16 -3 -29q0 -29 18 -40.5t61 -11.5l-4 -24q-51 0 -74 -18t-31 -64l-32 -182
q-13 -76 -51.5 -112t-105.5 -36h-37z" />
    <glyph glyph-name="asciitilde" unicode="~" horiz-adv-x="600" 
d="M413 244q-62 0 -112 53q-27 28 -48 38.5t-50 10.5q-88 0 -116 -96h-26q33 123 145 123q62 0 112 -53q27 -28 48.5 -38.5t49.5 -10.5q88 0 116 96h26q-33 -123 -145 -123z" />
    <glyph glyph-name="uni00A0" unicode="&#xa0;" horiz-adv-x="274" 
 />
    <glyph glyph-name="exclamdown" unicode="&#xa1;" horiz-adv-x="257" 
d="M139 430l14 79h41l-14 -79h-41zM38 -171l26 144l63 331h21l-55 -331l-24 -144h-31z" />
    <glyph glyph-name="cent" unicode="&#xa2;" horiz-adv-x="600" 
d="M239 -72l13 72q-164 8 -164 153q0 26 5 54l17 97q35 200 232 205l12 72h27l-12 -72q78 -4 118 -40t40 -98q0 -14 -1 -21h-29q1 6 1 18q0 108 -134 114l-80 -455q148 9 179 132h29q-18 -73 -72.5 -114.5t-140.5 -44.5l-13 -72h-27zM257 27l80 455q-167 -6 -198 -184
l-16 -90q-5 -28 -5 -53q0 -63 33.5 -94.5t105.5 -33.5z" />
    <glyph glyph-name="sterling" unicode="&#xa3;" horiz-adv-x="600" 
d="M41 0l5 27q131 81 131 232q0 18 -4 48h-99l5 27h88q-2 10 -7 28.5t-7.5 30t-5 28t-2.5 31.5q0 111 67.5 175.5t183.5 64.5q90 0 138 -37t48 -105q0 -18 -3 -38h-28q3 18 3 35q0 118 -161 118q-105 0 -161.5 -56t-56.5 -157q0 -17 2.5 -34.5t4.5 -27.5t7 -30t7 -26h289
l-5 -27h-279q4 -30 4 -49q0 -150 -115 -230h395l-5 -28h-439z" />
    <glyph glyph-name="currency" unicode="&#xa4;" horiz-adv-x="600" 
d="M88 91l-22 22l129 130q-34 42 -34 97t34 97l-129 130l22 22l129 -130q41 35 98 35t98 -35l129 130l22 -22l-129 -130q34 -42 34 -97t-34 -97l129 -130l-22 -22l-129 130q-41 -35 -98 -35t-98 35zM315 213q53 0 88.5 36t35.5 91t-35.5 91t-88.5 36t-88.5 -36t-35.5 -91
t35.5 -91t88.5 -36z" />
    <glyph glyph-name="yen" unicode="&#xa5;" horiz-adv-x="600" 
d="M240 0l28 155h-210l5 27h209l21 118h-209l5 27h205l-177 353h34l165 -329l280 329h37l-300 -353h204l-5 -27h-209l-21 -118h209l-5 -27h-208l-28 -155h-30z" />
    <glyph glyph-name="brokenbar" unicode="&#xa6;" horiz-adv-x="270" 
d="M141 374l71 400h30l-71 -400h-30zM35 -226l71 400h30l-71 -400h-30z" />
    <glyph glyph-name="section" unicode="&#xa7;" horiz-adv-x="576" 
d="M204 -196q-88 0 -137.5 35t-49.5 99q0 15 3 33h29q-3 -15 -3 -29q0 -54 41.5 -82t117.5 -28q95 0 154 42t59 114q0 50 -33 72t-143 47q-109 25 -147 52.5t-38 82.5q0 57 37 100.5t102 67.5v2q-36 17 -50.5 40t-14.5 61q0 80 63.5 129.5t164.5 49.5q82 0 128 -34t46 -96
q0 -16 -3 -32h-29q3 15 3 29q0 51 -37.5 78t-107.5 27q-88 0 -143.5 -41t-55.5 -107q0 -48 32 -70t140 -47q111 -25 149 -53t38 -83q0 -59 -36.5 -101.5t-101.5 -64.5v-2q37 -18 51.5 -42t14.5 -63q0 -84 -67 -135t-176 -51zM347 110q66 17 104.5 57.5t38.5 92.5
q0 47 -33.5 69.5t-138.5 44.5q-64 15 -89 23q-66 -20 -104.5 -60.5t-38.5 -92.5q0 -45 33.5 -67t135.5 -43q63 -14 92 -24z" />
    <glyph glyph-name="dieresis" unicode="&#xa8;" horiz-adv-x="500" 
d="M218 629l11 64h36l-11 -64h-36zM378 629l11 64h36l-11 -64h-36z" />
    <glyph glyph-name="copyright" unicode="&#xa9;" horiz-adv-x="784" 
d="M407 -12q-151 0 -251.5 100t-100.5 252t100.5 252t251.5 100q152 0 252 -100t100 -252t-100 -252t-252 -100zM407 15q142 0 232 91.5t90 233.5t-90 233.5t-232 91.5q-141 0 -231.5 -91.5t-90.5 -233.5t90.5 -233.5t231.5 -91.5zM407 149q-70 0 -106 36t-36 105v99
q0 142 142 142q63 0 99 -29.5t39 -87.5h-29q-6 90 -108 90q-113 0 -113 -117v-93q0 -118 113 -118q102 0 108 90h29q-3 -58 -39 -87.5t-99 -29.5z" />
    <glyph glyph-name="ordfeminine" unicode="&#xaa;" horiz-adv-x="424" 
d="M179 318q-107 0 -107 90q0 56 41 88.5t111 32.5h138l8 44q2 9 2 22q0 70 -95 70q-109 0 -134 -81h-28q13 52 55 80t108 28q124 0 124 -95q0 -14 -3 -29l-42 -238h-26l9 58q-70 -70 -161 -70zM184 345q91 0 160 82l14 76h-132q-58 0 -91.5 -24.5t-33.5 -68.5q0 -65 83 -65
zM37 194l5 27h296l-5 -27h-296z" />
    <glyph glyph-name="guillemotleft" unicode="&#xab;" horiz-adv-x="430" 
d="M151 82l-120 173l178 171h41l-181 -174l117 -170h-35zM334 82l-120 173l178 171h41l-181 -174l117 -170h-35z" />
    <glyph glyph-name="logicalnot" unicode="&#xac;" horiz-adv-x="600" 
d="M490 129l41 235h-454l5 28h484l-46 -263h-30z" />
    <glyph glyph-name="uni00AD" unicode="&#xad;" horiz-adv-x="355" 
d="M39 275l5 28h285l-5 -28h-285z" />
    <glyph glyph-name="registered" unicode="&#xae;" horiz-adv-x="784" 
d="M407 -12q-151 0 -251.5 100t-100.5 252t100.5 252t251.5 100q152 0 252 -100t100 -252t-100 -252t-252 -100zM407 15q142 0 232 91.5t90 233.5t-90 233.5t-232 91.5q-141 0 -231.5 -91.5t-90.5 -233.5t90.5 -233.5t231.5 -91.5zM277 159v362h147q63 0 92.5 -24.5
t29.5 -78.5q0 -46 -21.5 -70.5t-66.5 -30.5l110 -158h-36l-108 156h-117v-156h-30zM307 342h114q50 0 72.5 18t22.5 58t-22.5 58t-72.5 18h-114v-152z" />
    <glyph glyph-name="macron" unicode="&#xaf;" horiz-adv-x="500" 
d="M228 648l5 26h182l-5 -26h-182z" />
    <glyph glyph-name="degree" unicode="&#xb0;" horiz-adv-x="352" 
d="M213 426q-56 0 -91.5 35t-35.5 90q0 67 48.5 115t115.5 48q56 0 91.5 -35t35.5 -90q0 -67 -48.5 -115t-115.5 -48zM213 453q55 0 94.5 40t39.5 96q0 46 -27 72t-70 26q-55 0 -94.5 -40t-39.5 -96q0 -46 27 -72t70 -26z" />
    <glyph glyph-name="plusminus" unicode="&#xb1;" horiz-adv-x="600" 
d="M254 75l42 235h-228l5 28h227l42 236h30l-42 -236h227l-5 -28h-226l-42 -235h-30zM13 0l5 28h484l-5 -28h-484z" />
    <glyph glyph-name="uni00B2" unicode="&#xb2;" 
d="M76 416l4 22q10 55 46.5 91.5t117.5 71.5q67 29 97.5 59.5t30.5 68.5q0 66 -86 66q-104 0 -123 -93l-1 -5h-30l2 10q23 115 154 115q113 0 113 -93q0 -49 -34.5 -85t-113.5 -70q-70 -30 -102 -59.5t-40 -71.5h241l-5 -27h-271z" />
    <glyph glyph-name="uni00B3" unicode="&#xb3;" 
d="M212 404q-59 0 -92 22.5t-33 61.5q0 11 2 23l2 11h29l-1 -6q-2 -12 -2 -20q0 -65 94 -65q63 0 98 29t35 78q0 35 -21.5 51.5t-71.5 16.5h-50l4 27h50q51 0 81.5 27t30.5 69q0 66 -86 66q-105 0 -122 -83l-1 -5h-29l1 6q9 52 51 80.5t103 28.5q112 0 112 -92
q0 -41 -23 -69.5t-64 -39.5v-1q64 -16 64 -85q0 -61 -44 -96t-117 -35z" />
    <glyph glyph-name="acute" unicode="&#xb4;" horiz-adv-x="500" 
d="M265 600l127 122h43l-136 -122h-34z" />
    <glyph glyph-name="uni00B5" unicode="&#xb5;" horiz-adv-x="574" 
d="M18 -182l122 691h30l-59 -336q-5 -32 -5 -53q0 -105 107 -105q131 0 221 155l60 339h30l-90 -509h-26l19 118q-88 -130 -216 -130q-94 0 -120 71l-43 -241h-30z" />
    <glyph glyph-name="paragraph" unicode="&#xb6;" horiz-adv-x="576" 
d="M162 -183l85 485h-11q-89 0 -129 35t-40 113q0 108 62 169t172 61h236l-152 -863h-30l147 836h-163l-147 -836h-30z" />
    <glyph glyph-name="periodcentered" unicode="&#xb7;" horiz-adv-x="239" 
d="M98 250l14 79h41l-14 -79h-41z" />
    <glyph glyph-name="cedilla" unicode="&#xb8;" horiz-adv-x="500" 
d="M154 -194q-45 0 -78 18l13 23q24 -18 63 -18q74 0 74 48q0 15 -12.5 20.5t-46.5 5.5h-25l61 112h25l-50 -91h5q38 0 54.5 -11.5t16.5 -36.5q0 -33 -26.5 -51.5t-73.5 -18.5z" />
    <glyph glyph-name="uni00B9" unicode="&#xb9;" 
d="M122 416l5 27h100l57 327q-53 -30 -117 -33l4 23q65 5 122 50h29l-65 -367h100l-5 -27h-230z" />
    <glyph glyph-name="ordmasculine" unicode="&#xba;" horiz-adv-x="418" 
d="M224 318q-65 0 -98.5 29.5t-33.5 85.5q0 16 4 40l12 68q13 72 57.5 111.5t117.5 39.5q65 0 98.5 -29.5t33.5 -85.5q0 -16 -4 -40l-12 -68q-13 -72 -57.5 -111.5t-117.5 -39.5zM224 345q123 0 146 129l11 62q4 19 4 39q0 90 -102 90q-123 0 -146 -129l-11 -62
q-4 -19 -4 -39q0 -90 102 -90zM50 194l5 27h296l-5 -27h-296z" />
    <glyph glyph-name="guillemotright" unicode="&#xbb;" horiz-adv-x="430" 
d="M-3 82l181 174l-117 170h35l120 -173l-178 -171h-41zM180 82l181 174l-117 170h35l120 -173l-178 -171h-41z" />
    <glyph glyph-name="onequarter" unicode="&#xbc;" horiz-adv-x="830" 
d="M208 -12l498 704h32l-498 -704h-32zM99 286l5 27h100l57 327q-53 -30 -117 -33l4 23q65 5 122 50h29l-65 -367h100l-5 -27h-230zM681 0l16 90h-229l5 29l275 275h33l-49 -277h55l-5 -27h-55l-16 -90h-30zM508 117h194l42 237z" />
    <glyph glyph-name="onehalf" unicode="&#xbd;" horiz-adv-x="830" 
d="M165 -12l498 704h32l-498 -704h-32zM99 286l5 27h100l57 327q-53 -30 -117 -33l4 23q65 5 122 50h29l-65 -367h100l-5 -27h-230zM467 0l4 22q10 55 46.5 91.5t117.5 71.5q67 29 97.5 59.5t30.5 68.5q0 66 -86 66q-104 0 -123 -93l-1 -5h-30l2 10q23 115 154 115
q113 0 113 -93q0 -49 -34.5 -85t-113.5 -70q-70 -30 -102 -59.5t-40 -71.5h241l-5 -27h-271z" />
    <glyph glyph-name="threequarters" unicode="&#xbe;" horiz-adv-x="830" 
d="M189 274q-59 0 -92 22.5t-33 61.5q0 11 2 23l2 11h29l-1 -6q-2 -12 -2 -20q0 -65 94 -65q63 0 98 29t35 78q0 35 -21.5 51.5t-71.5 16.5h-50l4 27h50q51 0 81.5 27t30.5 69q0 66 -86 66q-105 0 -122 -83l-1 -5h-29l1 6q9 52 51 80.5t103 28.5q112 0 112 -92
q0 -41 -23 -69.5t-64 -39.5v-1q64 -16 64 -85q0 -61 -44 -96t-117 -35zM208 -12l498 704h32l-498 -704h-32zM681 0l16 90h-229l5 29l275 275h33l-49 -277h55l-5 -27h-55l-16 -90h-30zM508 117h194l42 237z" />
    <glyph glyph-name="questiondown" unicode="&#xbf;" horiz-adv-x="413" 
d="M235 430l14 79h41l-14 -79h-41zM134 -183q-75 0 -116 34.5t-41 96.5q0 64 27.5 106t94.5 79q57 32 83 63t34 80l5 28h25l-5 -28q-10 -58 -37 -93t-88 -70q-61 -34 -85.5 -70.5t-24.5 -93.5q0 -51 33.5 -78t97.5 -27q76 0 124 39t61 112h28q-15 -84 -71.5 -131t-144.5 -47
z" />
    <glyph glyph-name="Agrave" unicode="&#xc0;" horiz-adv-x="598" 
d="M402 759l-94 122h39l85 -122h-30zM-31 0l389 680h32l149 -680h-32l-44 207h-342l-119 -207h-33zM137 236h320l-89 405z" />
    <glyph glyph-name="Aacute" unicode="&#xc1;" horiz-adv-x="598" 
d="M342 759l127 122h43l-136 -122h-34zM-31 0l389 680h32l149 -680h-32l-44 207h-342l-119 -207h-33zM137 236h320l-89 405z" />
    <glyph glyph-name="Acircumflex" unicode="&#xc2;" horiz-adv-x="598" 
d="M269 759l126 122h28l84 -122h-30l-70 95l-104 -95h-34zM-31 0l389 680h32l149 -680h-32l-44 207h-342l-119 -207h-33zM137 236h320l-89 405z" />
    <glyph glyph-name="Atilde" unicode="&#xc3;" horiz-adv-x="598" 
d="M446 778q-31 0 -57 30q-22 25 -41 25q-35 0 -54 -57h-25q22 83 82 83q31 0 57 -30q22 -25 41 -25q35 0 54 57h25q-22 -83 -82 -83zM-31 0l389 680h32l149 -680h-32l-44 207h-342l-119 -207h-33zM137 236h320l-89 405z" />
    <glyph glyph-name="Adieresis" unicode="&#xc4;" horiz-adv-x="598" 
d="M295 788l11 64h36l-11 -64h-36zM455 788l11 64h36l-11 -64h-36zM-31 0l389 680h32l149 -680h-32l-44 207h-342l-119 -207h-33zM137 236h320l-89 405z" />
    <glyph glyph-name="Aring" unicode="&#xc5;" horiz-adv-x="598" 
d="M392 751q-32 0 -52 19.5t-20 50.5q0 36 26 61t63 25q32 0 52 -19.5t20 -50.5q0 -36 -26 -61t-63 -25zM393 775q26 0 44 18.5t18 44.5q0 21 -13 33t-34 12q-26 0 -44 -18.5t-18 -44.5q0 -21 13 -33t34 -12zM-31 0l389 680h32l149 -680h-32l-44 207h-342l-119 -207h-33z
M137 236h320l-89 405z" />
    <glyph glyph-name="AE" unicode="&#xc6;" horiz-adv-x="895" 
d="M-41 0l551 680h413l-5 -29h-371l-51 -286h321l-5 -29h-321l-54 -307h381l-5 -29h-412l37 207h-276l-168 -207h-35zM186 236h257l71 406z" />
    <glyph glyph-name="Ccedilla" unicode="&#xc7;" horiz-adv-x="612" 
d="M391 692q100 0 153.5 -44.5t53.5 -125.5q0 -16 -2 -38h-30q2 18 2 32q0 72 -45 109.5t-132 37.5q-217 0 -259 -236l-31 -176q-7 -39 -7 -70q0 -164 180 -164q95 0 157 45.5t84 133.5h31q-23 -97 -88 -150.5t-166 -57.5l-35 -64h5q38 0 54.5 -11.5t16.5 -36.5
q0 -33 -26.5 -51.5t-73.5 -18.5q-45 0 -78 18l13 23q24 -18 63 -18q74 0 74 48q0 15 -12.5 20.5t-46.5 5.5h-25l46 85q-99 2 -151.5 50.5t-52.5 139.5q0 29 7 69l33 187q22 127 95.5 192.5t192.5 65.5z" />
    <glyph glyph-name="Egrave" unicode="&#xc8;" horiz-adv-x="581" 
d="M422 759l-94 122h39l85 -122h-30zM59 0l120 680h430l-5 -29h-399l-51 -286h349l-5 -29h-349l-54 -307h409l-5 -29h-440z" />
    <glyph glyph-name="Eacute" unicode="&#xc9;" horiz-adv-x="581" 
d="M362 759l127 122h43l-136 -122h-34zM59 0l120 680h430l-5 -29h-399l-51 -286h349l-5 -29h-349l-54 -307h409l-5 -29h-440z" />
    <glyph glyph-name="Ecircumflex" unicode="&#xca;" horiz-adv-x="581" 
d="M289 759l126 122h28l84 -122h-30l-70 95l-104 -95h-34zM59 0l120 680h430l-5 -29h-399l-51 -286h349l-5 -29h-349l-54 -307h409l-5 -29h-440z" />
    <glyph glyph-name="Edieresis" unicode="&#xcb;" horiz-adv-x="581" 
d="M315 788l11 64h36l-11 -64h-36zM475 788l11 64h36l-11 -64h-36zM59 0l120 680h430l-5 -29h-399l-51 -286h349l-5 -29h-349l-54 -307h409l-5 -29h-440z" />
    <glyph glyph-name="Igrave" unicode="&#xcc;" horiz-adv-x="239" 
d="M223 759l-94 122h39l85 -122h-30zM59 0l120 680h31l-120 -680h-31z" />
    <glyph glyph-name="Iacute" unicode="&#xcd;" horiz-adv-x="239" 
d="M163 759l127 122h43l-136 -122h-34zM59 0l120 680h31l-120 -680h-31z" />
    <glyph glyph-name="Icircumflex" unicode="&#xce;" horiz-adv-x="239" 
d="M95 759l121 122h28l79 -122h-30l-65 95l-99 -95h-34zM59 0l120 680h31l-120 -680h-31z" />
    <glyph glyph-name="Idieresis" unicode="&#xcf;" horiz-adv-x="239" 
d="M131 788l11 64h36l-11 -64h-36zM261 788l11 64h36l-11 -64h-36zM59 0l120 680h31l-120 -680h-31z" />
    <glyph glyph-name="Eth" unicode="&#xd0;" horiz-adv-x="659" 
d="M407 680q219 0 219 -181q0 -33 -8 -78l-29 -164q-24 -135 -96 -196t-202 -61h-222l59 336h-84l5 29h84l56 315h218zM588 423q7 39 7 72q0 83 -46 119.5t-144 36.5h-190l-51 -286h201l-5 -29h-201l-54 -307h188q117 0 181 55.5t85 174.5z" />
    <glyph glyph-name="Ntilde" unicode="&#xd1;" horiz-adv-x="694" 
d="M494 778q-31 0 -57 30q-22 25 -41 25q-35 0 -54 -57h-25q22 83 82 83q31 0 57 -30q22 -25 41 -25q35 0 54 57h25q-22 -83 -82 -83zM59 0l120 680h38l307 -631l111 631h30l-120 -680h-30l-313 642l-113 -642h-30z" />
    <glyph glyph-name="Ograve" unicode="&#xd2;" horiz-adv-x="652" 
d="M429 759l-94 122h39l85 -122h-30zM282 -12q-106 0 -162 49.5t-56 144.5q0 30 6 65l33 187q22 127 98.5 192.5t198.5 65.5q106 0 162 -49.5t56 -144.5q0 -30 -6 -65l-33 -187q-22 -127 -98.5 -192.5t-198.5 -65.5zM282 17q226 0 268 236l31 176q6 33 6 67q0 167 -187 167
q-226 0 -268 -236l-31 -176q-6 -33 -6 -67q0 -167 187 -167z" />
    <glyph glyph-name="Oacute" unicode="&#xd3;" horiz-adv-x="652" 
d="M369 759l127 122h43l-136 -122h-34zM282 -12q-106 0 -162 49.5t-56 144.5q0 30 6 65l33 187q22 127 98.5 192.5t198.5 65.5q106 0 162 -49.5t56 -144.5q0 -30 -6 -65l-33 -187q-22 -127 -98.5 -192.5t-198.5 -65.5zM282 17q226 0 268 236l31 176q6 33 6 67
q0 167 -187 167q-226 0 -268 -236l-31 -176q-6 -33 -6 -67q0 -167 187 -167z" />
    <glyph glyph-name="Ocircumflex" unicode="&#xd4;" horiz-adv-x="652" 
d="M296 759l126 122h28l84 -122h-30l-70 95l-104 -95h-34zM282 -12q-106 0 -162 49.5t-56 144.5q0 30 6 65l33 187q22 127 98.5 192.5t198.5 65.5q106 0 162 -49.5t56 -144.5q0 -30 -6 -65l-33 -187q-22 -127 -98.5 -192.5t-198.5 -65.5zM282 17q226 0 268 236l31 176
q6 33 6 67q0 167 -187 167q-226 0 -268 -236l-31 -176q-6 -33 -6 -67q0 -167 187 -167z" />
    <glyph glyph-name="Otilde" unicode="&#xd5;" horiz-adv-x="652" 
d="M473 778q-31 0 -57 30q-22 25 -41 25q-35 0 -54 -57h-25q22 83 82 83q31 0 57 -30q22 -25 41 -25q35 0 54 57h25q-22 -83 -82 -83zM282 -12q-106 0 -162 49.5t-56 144.5q0 30 6 65l33 187q22 127 98.5 192.5t198.5 65.5q106 0 162 -49.5t56 -144.5q0 -30 -6 -65l-33 -187
q-22 -127 -98.5 -192.5t-198.5 -65.5zM282 17q226 0 268 236l31 176q6 33 6 67q0 167 -187 167q-226 0 -268 -236l-31 -176q-6 -33 -6 -67q0 -167 187 -167z" />
    <glyph glyph-name="Odieresis" unicode="&#xd6;" horiz-adv-x="652" 
d="M322 788l11 64h36l-11 -64h-36zM482 788l11 64h36l-11 -64h-36zM282 -12q-106 0 -162 49.5t-56 144.5q0 30 6 65l33 187q22 127 98.5 192.5t198.5 65.5q106 0 162 -49.5t56 -144.5q0 -30 -6 -65l-33 -187q-22 -127 -98.5 -192.5t-198.5 -65.5zM282 17q226 0 268 236
l31 176q6 33 6 67q0 167 -187 167q-226 0 -268 -236l-31 -176q-6 -33 -6 -67q0 -167 187 -167z" />
    <glyph glyph-name="multiply" unicode="&#xd7;" horiz-adv-x="600" 
d="M64 81l-19 22l244 208l-171 207l22 19l171 -207l244 207l19 -22l-244 -208l171 -207l-22 -19l-171 207z" />
    <glyph glyph-name="Oslash" unicode="&#xd8;" horiz-adv-x="652" 
d="M655 674l-62 -70q25 -45 25 -106q0 -30 -6 -65l-33 -187q-22 -127 -98.5 -192.5t-198.5 -65.5q-123 0 -177 65l-58 -65l-20 18l62 70q-25 45 -25 106q0 30 6 65l33 187q22 127 98.5 192.5t198.5 65.5q123 0 177 -65l58 65zM95 184q0 -50 16 -83l446 503q-44 59 -157 59
q-226 0 -268 -236l-31 -176q-6 -33 -6 -67zM587 496q0 50 -16 83l-446 -503q44 -59 157 -59q226 0 268 236l31 176q6 33 6 67z" />
    <glyph glyph-name="Ugrave" unicode="&#xd9;" horiz-adv-x="646" 
d="M426 759l-94 122h39l85 -122h-30zM278 -12q-107 0 -157 39t-50 123q0 32 7 71l81 459h31l-81 -459q-7 -41 -7 -71q0 -73 41.5 -103t134.5 -30q116 0 172.5 46t75.5 158l81 459h30l-81 -459q-22 -122 -85 -177.5t-193 -55.5z" />
    <glyph glyph-name="Uacute" unicode="&#xda;" horiz-adv-x="646" 
d="M366 759l127 122h43l-136 -122h-34zM278 -12q-107 0 -157 39t-50 123q0 32 7 71l81 459h31l-81 -459q-7 -41 -7 -71q0 -73 41.5 -103t134.5 -30q116 0 172.5 46t75.5 158l81 459h30l-81 -459q-22 -122 -85 -177.5t-193 -55.5z" />
    <glyph glyph-name="Ucircumflex" unicode="&#xdb;" horiz-adv-x="646" 
d="M293 759l126 122h28l84 -122h-30l-70 95l-104 -95h-34zM278 -12q-107 0 -157 39t-50 123q0 32 7 71l81 459h31l-81 -459q-7 -41 -7 -71q0 -73 41.5 -103t134.5 -30q116 0 172.5 46t75.5 158l81 459h30l-81 -459q-22 -122 -85 -177.5t-193 -55.5z" />
    <glyph glyph-name="Udieresis" unicode="&#xdc;" horiz-adv-x="646" 
d="M319 788l11 64h36l-11 -64h-36zM479 788l11 64h36l-11 -64h-36zM278 -12q-107 0 -157 39t-50 123q0 32 7 71l81 459h31l-81 -459q-7 -41 -7 -71q0 -73 41.5 -103t134.5 -30q116 0 172.5 46t75.5 158l81 459h30l-81 -459q-22 -122 -85 -177.5t-193 -55.5z" />
    <glyph glyph-name="Yacute" unicode="&#xdd;" horiz-adv-x="530" 
d="M308 759l127 122h43l-136 -122h-34zM205 0l54 307l-180 373h35l164 -342l285 342h38l-312 -376l-54 -304h-30z" />
    <glyph glyph-name="Thorn" unicode="&#xde;" horiz-adv-x="597" 
d="M59 0l120 680h31l-21 -118h217q100 0 143 -36t43 -119q0 -110 -66 -171.5t-186 -61.5h-219l-31 -174h-31zM126 203h217q105 0 162 53t57 150q0 71 -35.5 99t-123.5 28h-219z" />
    <glyph glyph-name="germandbls" unicode="&#xdf;" horiz-adv-x="587" 
d="M77 0l86 484h-109l5 25h108l12 68q14 81 69 123t145 42q152 0 152 -113q0 -76 -92 -145q-45 -34 -62.5 -59.5t-17.5 -57.5q0 -29 15 -45.5t60 -37.5q53 -25 71.5 -48t18.5 -65q0 -79 -58.5 -125t-163.5 -46h-51l5 27h47q90 0 140 37.5t50 102.5q0 35 -16.5 55t-64.5 42
q-48 23 -65 43t-17 56q0 39 20 71t69 69q83 63 83 127q0 85 -122 85q-161 0 -186 -142l-101 -573h-30z" />
    <glyph glyph-name="agrave" unicode="&#xe0;" horiz-adv-x="541" 
d="M336 600l-94 122h39l85 -122h-30zM173 -12q-142 0 -142 125q0 84 62 128t171 44h168l11 61q4 22 4 41q0 107 -138 107q-155 0 -189 -127h-30q42 154 220 154q167 0 167 -135q0 -17 -4 -40l-61 -346h-26l15 93q-96 -105 -228 -105zM176 14q132 0 230 121l21 123h-161
q-98 0 -151.5 -36t-53.5 -108q0 -100 115 -100z" />
    <glyph glyph-name="aacute" unicode="&#xe1;" horiz-adv-x="541" 
d="M276 600l127 122h43l-136 -122h-34zM173 -12q-142 0 -142 125q0 84 62 128t171 44h168l11 61q4 22 4 41q0 107 -138 107q-155 0 -189 -127h-30q42 154 220 154q167 0 167 -135q0 -17 -4 -40l-61 -346h-26l15 93q-96 -105 -228 -105zM176 14q132 0 230 121l21 123h-161
q-98 0 -151.5 -36t-53.5 -108q0 -100 115 -100z" />
    <glyph glyph-name="acircumflex" unicode="&#xe2;" horiz-adv-x="541" 
d="M203 600l126 122h28l84 -122h-30l-70 95l-104 -95h-34zM173 -12q-142 0 -142 125q0 84 62 128t171 44h168l11 61q4 22 4 41q0 107 -138 107q-155 0 -189 -127h-30q42 154 220 154q167 0 167 -135q0 -17 -4 -40l-61 -346h-26l15 93q-96 -105 -228 -105zM176 14
q132 0 230 121l21 123h-161q-98 0 -151.5 -36t-53.5 -108q0 -100 115 -100z" />
    <glyph glyph-name="atilde" unicode="&#xe3;" horiz-adv-x="541" 
d="M380 619q-31 0 -57 30q-22 25 -41 25q-35 0 -54 -57h-25q22 83 82 83q31 0 57 -30q22 -25 41 -25q35 0 54 57h25q-22 -83 -82 -83zM173 -12q-142 0 -142 125q0 84 62 128t171 44h168l11 61q4 22 4 41q0 107 -138 107q-155 0 -189 -127h-30q42 154 220 154q167 0 167 -135
q0 -17 -4 -40l-61 -346h-26l15 93q-96 -105 -228 -105zM176 14q132 0 230 121l21 123h-161q-98 0 -151.5 -36t-53.5 -108q0 -100 115 -100z" />
    <glyph glyph-name="adieresis" unicode="&#xe4;" horiz-adv-x="541" 
d="M229 629l11 64h36l-11 -64h-36zM389 629l11 64h36l-11 -64h-36zM173 -12q-142 0 -142 125q0 84 62 128t171 44h168l11 61q4 22 4 41q0 107 -138 107q-155 0 -189 -127h-30q42 154 220 154q167 0 167 -135q0 -17 -4 -40l-61 -346h-26l15 93q-96 -105 -228 -105zM176 14
q132 0 230 121l21 123h-161q-98 0 -151.5 -36t-53.5 -108q0 -100 115 -100z" />
    <glyph glyph-name="aring" unicode="&#xe5;" horiz-adv-x="541" 
d="M326 592q-32 0 -52 19.5t-20 50.5q0 36 26 61t63 25q32 0 52 -19.5t20 -50.5q0 -36 -26 -61t-63 -25zM327 616q26 0 44 18.5t18 44.5q0 21 -13 33t-34 12q-26 0 -44 -18.5t-18 -44.5q0 -21 13 -33t34 -12zM173 -12q-142 0 -142 125q0 84 62 128t171 44h168l11 61
q4 22 4 41q0 107 -138 107q-155 0 -189 -127h-30q42 154 220 154q167 0 167 -135q0 -17 -4 -40l-61 -346h-26l15 93q-96 -105 -228 -105zM176 14q132 0 230 121l21 123h-161q-98 0 -151.5 -36t-53.5 -108q0 -100 115 -100z" />
    <glyph glyph-name="ae" unicode="&#xe6;" horiz-adv-x="905" 
d="M177 -12q-146 0 -146 125q0 84 62.5 128t170.5 44h168l11 61q4 24 4 43q0 105 -138 105q-156 0 -190 -127h-29q41 154 221 154q153 0 161 -119q61 119 208 119q84 0 129 -40.5t45 -121.5q0 -27 -5 -55l-9 -51h-383l-8 -44q-5 -27 -5 -55q0 -72 36.5 -105.5t111.5 -33.5
q77 0 128 34t68 97h29q-19 -76 -78 -117t-145 -41q-76 0 -121.5 31.5t-56.5 89.5q-104 -121 -239 -121zM461 280h354l3 18q6 33 6 62q0 134 -146 134q-179 0 -213 -194zM180 14q133 0 232 130v4q0 24 6 57l9 53h-161q-97 0 -151 -35.5t-54 -108.5q0 -51 29 -75.5t90 -24.5z
" />
    <glyph glyph-name="ccedilla" unicode="&#xe7;" horiz-adv-x="512" 
d="M315 521q82 0 125.5 -39t43.5 -106q0 -15 -1 -21h-29q1 8 1 21q0 118 -139 118q-177 0 -211 -194l-16 -91q-5 -27 -5 -58q0 -136 143 -136q155 0 191 139h29q-17 -72 -68 -115.5t-130 -49.5l-36 -65h5q38 0 54.5 -11.5t16.5 -36.5q0 -33 -26.5 -51.5t-73.5 -18.5
q-45 0 -78 18l13 23q24 -18 63 -18q74 0 74 48q0 15 -12.5 20.5t-46.5 5.5h-25l46 85q-81 1 -125.5 42t-44.5 120q0 25 5 54l18 102q19 105 81 160t158 55z" />
    <glyph glyph-name="egrave" unicode="&#xe8;" horiz-adv-x="545" 
d="M349 600l-94 122h39l85 -122h-30zM233 -12q-87 0 -133 42t-46 123q0 28 4 51l18 102q18 104 79.5 159.5t162.5 55.5q87 0 131.5 -41t44.5 -120q0 -27 -5 -56l-9 -51h-383l-8 -44q-5 -27 -5 -56q0 -71 37 -104.5t111 -33.5q77 0 128 34t68 97h29q-19 -76 -77.5 -117
t-146.5 -41zM101 280h354l3 18q6 35 6 62q0 134 -145 134q-180 0 -214 -194z" />
    <glyph glyph-name="eacute" unicode="&#xe9;" horiz-adv-x="545" 
d="M289 600l127 122h43l-136 -122h-34zM233 -12q-87 0 -133 42t-46 123q0 28 4 51l18 102q18 104 79.5 159.5t162.5 55.5q87 0 131.5 -41t44.5 -120q0 -27 -5 -56l-9 -51h-383l-8 -44q-5 -27 -5 -56q0 -71 37 -104.5t111 -33.5q77 0 128 34t68 97h29q-19 -76 -77.5 -117
t-146.5 -41zM101 280h354l3 18q6 35 6 62q0 134 -145 134q-180 0 -214 -194z" />
    <glyph glyph-name="ecircumflex" unicode="&#xea;" horiz-adv-x="545" 
d="M216 600l126 122h28l84 -122h-30l-70 95l-104 -95h-34zM233 -12q-87 0 -133 42t-46 123q0 28 4 51l18 102q18 104 79.5 159.5t162.5 55.5q87 0 131.5 -41t44.5 -120q0 -27 -5 -56l-9 -51h-383l-8 -44q-5 -27 -5 -56q0 -71 37 -104.5t111 -33.5q77 0 128 34t68 97h29
q-19 -76 -77.5 -117t-146.5 -41zM101 280h354l3 18q6 35 6 62q0 134 -145 134q-180 0 -214 -194z" />
    <glyph glyph-name="edieresis" unicode="&#xeb;" horiz-adv-x="545" 
d="M242 629l11 64h36l-11 -64h-36zM402 629l11 64h36l-11 -64h-36zM233 -12q-87 0 -133 42t-46 123q0 28 4 51l18 102q18 104 79.5 159.5t162.5 55.5q87 0 131.5 -41t44.5 -120q0 -27 -5 -56l-9 -51h-383l-8 -44q-5 -27 -5 -56q0 -71 37 -104.5t111 -33.5q77 0 128 34t68 97
h29q-19 -76 -77.5 -117t-146.5 -41zM101 280h354l3 18q6 35 6 62q0 134 -145 134q-180 0 -214 -194z" />
    <glyph glyph-name="igrave" unicode="&#xec;" horiz-adv-x="220" 
d="M185 600l-94 122h39l85 -122h-30zM50 0l90 509h30l-90 -509h-30z" />
    <glyph glyph-name="iacute" unicode="&#xed;" horiz-adv-x="220" 
d="M125 600l127 122h43l-136 -122h-34zM50 0l90 509h30l-90 -509h-30z" />
    <glyph glyph-name="icircumflex" unicode="&#xee;" horiz-adv-x="220" 
d="M57 600l121 122h28l79 -122h-30l-65 95l-99 -95h-34zM50 0l90 509h30l-90 -509h-30z" />
    <glyph glyph-name="idieresis" unicode="&#xef;" horiz-adv-x="220" 
d="M93 629l11 64h36l-11 -64h-36zM223 629l11 64h36l-11 -64h-36zM50 0l90 509h30l-90 -509h-30z" />
    <glyph glyph-name="eth" unicode="&#xf0;" horiz-adv-x="553" 
d="M232 -12q-89 0 -135.5 42.5t-46.5 120.5q0 25 5 53l13 74q17 98 79 152.5t151 54.5q118 0 169 -99q-14 124 -95 224l-158 -58l-8 22l150 55q-56 62 -134 101h51q61 -35 111 -91l108 40l8 -22l-100 -37q99 -125 99 -271q0 -33 -6 -67l-14 -79q-18 -104 -82 -159.5
t-165 -55.5zM230 15q185 0 220 194l14 79q3 15 3 27q-37 143 -168 143q-80 0 -133 -48.5t-69 -137.5l-12 -68q-5 -28 -5 -54q0 -135 150 -135z" />
    <glyph glyph-name="ntilde" unicode="&#xf1;" horiz-adv-x="563" 
d="M402 619q-31 0 -57 30q-22 25 -41 25q-35 0 -54 -57h-25q22 83 82 83q31 0 57 -30q22 -25 41 -25q35 0 54 57h25q-22 -83 -82 -83zM50 0l90 509h26l-19 -116q87 128 215 128q133 0 133 -130q0 -23 -5 -51l-60 -340h-30l59 334q5 29 5 56q0 104 -106 104q-129 0 -218 -153
l-60 -341h-30z" />
    <glyph glyph-name="ograve" unicode="&#xf2;" horiz-adv-x="558" 
d="M354 600l-94 122h39l85 -122h-30zM235 -12q-89 0 -135.5 42.5t-46.5 120.5q0 25 5 53l18 102q18 103 81.5 159t165.5 56q89 0 135.5 -42.5t46.5 -120.5q0 -25 -5 -53l-18 -102q-18 -103 -81.5 -159t-165.5 -56zM234 15q91 0 146.5 50t72.5 144l17 96q4 23 4 49
q0 140 -150 140q-91 0 -146.5 -50t-72.5 -144l-17 -96q-4 -23 -4 -49q0 -140 150 -140z" />
    <glyph glyph-name="oacute" unicode="&#xf3;" horiz-adv-x="558" 
d="M294 600l127 122h43l-136 -122h-34zM235 -12q-89 0 -135.5 42.5t-46.5 120.5q0 25 5 53l18 102q18 103 81.5 159t165.5 56q89 0 135.5 -42.5t46.5 -120.5q0 -25 -5 -53l-18 -102q-18 -103 -81.5 -159t-165.5 -56zM234 15q91 0 146.5 50t72.5 144l17 96q4 23 4 49
q0 140 -150 140q-91 0 -146.5 -50t-72.5 -144l-17 -96q-4 -23 -4 -49q0 -140 150 -140z" />
    <glyph glyph-name="ocircumflex" unicode="&#xf4;" horiz-adv-x="558" 
d="M221 600l126 122h28l84 -122h-30l-70 95l-104 -95h-34zM235 -12q-89 0 -135.5 42.5t-46.5 120.5q0 25 5 53l18 102q18 103 81.5 159t165.5 56q89 0 135.5 -42.5t46.5 -120.5q0 -25 -5 -53l-18 -102q-18 -103 -81.5 -159t-165.5 -56zM234 15q91 0 146.5 50t72.5 144l17 96
q4 23 4 49q0 140 -150 140q-91 0 -146.5 -50t-72.5 -144l-17 -96q-4 -23 -4 -49q0 -140 150 -140z" />
    <glyph glyph-name="otilde" unicode="&#xf5;" horiz-adv-x="558" 
d="M398 619q-31 0 -57 30q-22 25 -41 25q-35 0 -54 -57h-25q22 83 82 83q31 0 57 -30q22 -25 41 -25q35 0 54 57h25q-22 -83 -82 -83zM235 -12q-89 0 -135.5 42.5t-46.5 120.5q0 25 5 53l18 102q18 103 81.5 159t165.5 56q89 0 135.5 -42.5t46.5 -120.5q0 -25 -5 -53
l-18 -102q-18 -103 -81.5 -159t-165.5 -56zM234 15q91 0 146.5 50t72.5 144l17 96q4 23 4 49q0 140 -150 140q-91 0 -146.5 -50t-72.5 -144l-17 -96q-4 -23 -4 -49q0 -140 150 -140z" />
    <glyph glyph-name="odieresis" unicode="&#xf6;" horiz-adv-x="558" 
d="M247 629l11 64h36l-11 -64h-36zM407 629l11 64h36l-11 -64h-36zM235 -12q-89 0 -135.5 42.5t-46.5 120.5q0 25 5 53l18 102q18 103 81.5 159t165.5 56q89 0 135.5 -42.5t46.5 -120.5q0 -25 -5 -53l-18 -102q-18 -103 -81.5 -159t-165.5 -56zM234 15q91 0 146.5 50
t72.5 144l17 96q4 23 4 49q0 140 -150 140q-91 0 -146.5 -50t-72.5 -144l-17 -96q-4 -23 -4 -49q0 -140 150 -140z" />
    <glyph glyph-name="divide" unicode="&#xf7;" horiz-adv-x="600" 
d="M321 472l12 70h34l-12 -70h-34zM65 294l5 28h484l-5 -28h-484zM251 75l12 70h34l-12 -70h-34z" />
    <glyph glyph-name="oslash" unicode="&#xf8;" horiz-adv-x="558" 
d="M535 503l-52 -54q22 -37 22 -91q0 -25 -5 -53l-18 -102q-18 -103 -81.5 -159t-165.5 -56q-97 0 -145 51l-49 -51l-18 18l52 54q-22 37 -22 91q0 25 5 53l18 102q18 103 81.5 159t165.5 56q97 0 145 -51l49 51zM84 155q0 -44 13 -71l350 364q-36 46 -123 46
q-91 0 -146.5 -50t-72.5 -144l-17 -96q-4 -23 -4 -49zM474 354q0 44 -13 71l-350 -364q36 -46 123 -46q91 0 146.5 50t72.5 144l17 96q4 23 4 49z" />
    <glyph glyph-name="ugrave" unicode="&#xf9;" horiz-adv-x="567" 
d="M355 600l-94 122h39l85 -122h-30zM203 -12q-66 0 -100.5 34t-34.5 97q0 22 5 50l60 340h30l-59 -334q-5 -29 -5 -55q0 -105 108 -105q131 0 220 153l60 341h30l-90 -509h-26l19 116q-87 -128 -217 -128z" />
    <glyph glyph-name="uacute" unicode="&#xfa;" horiz-adv-x="567" 
d="M295 600l127 122h43l-136 -122h-34zM203 -12q-66 0 -100.5 34t-34.5 97q0 22 5 50l60 340h30l-59 -334q-5 -29 -5 -55q0 -105 108 -105q131 0 220 153l60 341h30l-90 -509h-26l19 116q-87 -128 -217 -128z" />
    <glyph glyph-name="ucircumflex" unicode="&#xfb;" horiz-adv-x="567" 
d="M222 600l126 122h28l84 -122h-30l-70 95l-104 -95h-34zM203 -12q-66 0 -100.5 34t-34.5 97q0 22 5 50l60 340h30l-59 -334q-5 -29 -5 -55q0 -105 108 -105q131 0 220 153l60 341h30l-90 -509h-26l19 116q-87 -128 -217 -128z" />
    <glyph glyph-name="udieresis" unicode="&#xfc;" horiz-adv-x="567" 
d="M248 629l11 64h36l-11 -64h-36zM408 629l11 64h36l-11 -64h-36zM203 -12q-66 0 -100.5 34t-34.5 97q0 22 5 50l60 340h30l-59 -334q-5 -29 -5 -55q0 -105 108 -105q131 0 220 153l60 341h30l-90 -509h-26l19 116q-87 -128 -217 -128z" />
    <glyph glyph-name="yacute" unicode="&#xfd;" horiz-adv-x="456" 
d="M244 600l127 122h43l-136 -122h-34zM-20 -182l5 27h24q40 0 62.5 16t50.5 67l56 102l-114 479h32l104 -445l251 445h31l-334 -594q-32 -56 -61 -76.5t-78 -20.5h-29z" />
    <glyph glyph-name="thorn" unicode="&#xfe;" horiz-adv-x="582" 
d="M18 -182l161 912h30l-59 -337q94 128 227 128q74 0 113.5 -40t39.5 -115q0 -28 -5 -55l-21 -119q-17 -95 -74.5 -149.5t-143.5 -54.5q-135 0 -185 131l-53 -301h-30zM287 15q77 0 125 48.5t63 135.5l20 113q5 28 5 52q0 130 -125 130q-138 0 -235 -155l-30 -170
q41 -154 177 -154z" />
    <glyph glyph-name="ydieresis" unicode="&#xff;" horiz-adv-x="456" 
d="M197 629l11 64h36l-11 -64h-36zM357 629l11 64h36l-11 -64h-36zM-20 -182l5 27h24q40 0 62.5 16t50.5 67l56 102l-114 479h32l104 -445l251 445h31l-334 -594q-32 -56 -61 -76.5t-78 -20.5h-29z" />
    <glyph glyph-name="Amacron" unicode="&#x100;" horiz-adv-x="598" 
d="M305 807l5 26h182l-5 -26h-182zM-31 0l389 680h32l149 -680h-32l-44 207h-342l-119 -207h-33zM137 236h320l-89 405z" />
    <glyph glyph-name="amacron" unicode="&#x101;" horiz-adv-x="541" 
d="M239 648l5 26h182l-5 -26h-182zM173 -12q-142 0 -142 125q0 84 62 128t171 44h168l11 61q4 22 4 41q0 107 -138 107q-155 0 -189 -127h-30q42 154 220 154q167 0 167 -135q0 -17 -4 -40l-61 -346h-26l15 93q-96 -105 -228 -105zM176 14q132 0 230 121l21 123h-161
q-98 0 -151.5 -36t-53.5 -108q0 -100 115 -100z" />
    <glyph glyph-name="Abreve" unicode="&#x102;" horiz-adv-x="598" 
d="M391 766q-91 0 -91 93v11h25v-11q0 -65 67 -65q76 0 96 76h26q-26 -104 -123 -104zM-31 0l389 680h32l149 -680h-32l-44 207h-342l-119 -207h-33zM137 236h320l-89 405z" />
    <glyph glyph-name="abreve" unicode="&#x103;" horiz-adv-x="541" 
d="M325 607q-91 0 -91 93v11h25v-11q0 -65 67 -65q76 0 96 76h26q-26 -104 -123 -104zM173 -12q-142 0 -142 125q0 84 62 128t171 44h168l11 61q4 22 4 41q0 107 -138 107q-155 0 -189 -127h-30q42 154 220 154q167 0 167 -135q0 -17 -4 -40l-61 -346h-26l15 93
q-96 -105 -228 -105zM176 14q132 0 230 121l21 123h-161q-98 0 -151.5 -36t-53.5 -108q0 -100 115 -100z" />
    <glyph glyph-name="Aogonek" unicode="&#x104;" horiz-adv-x="598" 
d="M409 -131q0 -40 43 -40q28 0 60 18l-5 -27q-31 -14 -58 -14q-68 0 -68 61q0 80 124 144l-42 196h-342l-119 -207h-33l389 680h32l149 -680h-6q-124 -60 -124 -131zM137 236h320l-89 405z" />
    <glyph glyph-name="aogonek" unicode="&#x105;" horiz-adv-x="541" 
d="M310 521q167 0 167 -135q0 -17 -4 -40l-61 -346h-6q-124 -60 -124 -131q0 -40 43 -40q28 0 60 18l-5 -27q-31 -14 -58 -14q-68 0 -68 61q0 83 135 150l12 76q-96 -105 -228 -105q-142 0 -142 125q0 84 62 128t171 44h168l11 61q4 22 4 41q0 107 -138 107
q-155 0 -189 -127h-30q42 154 220 154zM406 135l21 123h-161q-98 0 -151.5 -36t-53.5 -108q0 -100 115 -100q132 0 230 121z" />
    <glyph glyph-name="Cacute" unicode="&#x106;" horiz-adv-x="612" 
d="M359 759l127 122h43l-136 -122h-34zM275 -12q-103 0 -157.5 48.5t-54.5 141.5q0 29 7 69l33 187q22 127 95.5 192.5t192.5 65.5q100 0 153.5 -44.5t53.5 -125.5q0 -16 -2 -38h-30q2 18 2 32q0 72 -45 109.5t-132 37.5q-217 0 -259 -236l-31 -176q-7 -39 -7 -70
q0 -164 180 -164q95 0 157 45.5t84 133.5h31q-24 -101 -93.5 -154.5t-177.5 -53.5z" />
    <glyph glyph-name="cacute" unicode="&#x107;" horiz-adv-x="512" 
d="M283 600l127 122h43l-136 -122h-34zM226 -12q-83 0 -128 41t-45 121q0 25 5 54l18 102q19 105 81 160t158 55q82 0 125.5 -39t43.5 -106q0 -15 -1 -21h-29q1 8 1 21q0 118 -139 118q-177 0 -211 -194l-16 -91q-5 -27 -5 -58q0 -136 143 -136q155 0 191 139h29
q-18 -77 -75.5 -121.5t-145.5 -44.5z" />
    <glyph glyph-name="Ccircumflex" unicode="&#x108;" horiz-adv-x="612" 
d="M286 759l126 122h28l84 -122h-30l-70 95l-104 -95h-34zM275 -12q-103 0 -157.5 48.5t-54.5 141.5q0 29 7 69l33 187q22 127 95.5 192.5t192.5 65.5q100 0 153.5 -44.5t53.5 -125.5q0 -16 -2 -38h-30q2 18 2 32q0 72 -45 109.5t-132 37.5q-217 0 -259 -236l-31 -176
q-7 -39 -7 -70q0 -164 180 -164q95 0 157 45.5t84 133.5h31q-24 -101 -93.5 -154.5t-177.5 -53.5z" />
    <glyph glyph-name="ccircumflex" unicode="&#x109;" horiz-adv-x="512" 
d="M210 600l126 122h28l84 -122h-30l-70 95l-104 -95h-34zM226 -12q-83 0 -128 41t-45 121q0 25 5 54l18 102q19 105 81 160t158 55q82 0 125.5 -39t43.5 -106q0 -15 -1 -21h-29q1 8 1 21q0 118 -139 118q-177 0 -211 -194l-16 -91q-5 -27 -5 -58q0 -136 143 -136
q155 0 191 139h29q-18 -77 -75.5 -121.5t-145.5 -44.5z" />
    <glyph glyph-name="Cdotaccent" unicode="&#x10a;" horiz-adv-x="612" 
d="M392 788l11 64h36l-11 -64h-36zM275 -12q-103 0 -157.5 48.5t-54.5 141.5q0 29 7 69l33 187q22 127 95.5 192.5t192.5 65.5q100 0 153.5 -44.5t53.5 -125.5q0 -16 -2 -38h-30q2 18 2 32q0 72 -45 109.5t-132 37.5q-217 0 -259 -236l-31 -176q-7 -39 -7 -70
q0 -164 180 -164q95 0 157 45.5t84 133.5h31q-24 -101 -93.5 -154.5t-177.5 -53.5z" />
    <glyph glyph-name="cdotaccent" unicode="&#x10b;" horiz-adv-x="512" 
d="M316 629l11 64h36l-11 -64h-36zM226 -12q-83 0 -128 41t-45 121q0 25 5 54l18 102q19 105 81 160t158 55q82 0 125.5 -39t43.5 -106q0 -15 -1 -21h-29q1 8 1 21q0 118 -139 118q-177 0 -211 -194l-16 -91q-5 -27 -5 -58q0 -136 143 -136q155 0 191 139h29
q-18 -77 -75.5 -121.5t-145.5 -44.5z" />
    <glyph glyph-name="Ccaron" unicode="&#x10c;" horiz-adv-x="612" 
d="M391 759l-84 122h30l70 -95l104 95h34l-126 -122h-28zM275 -12q-103 0 -157.5 48.5t-54.5 141.5q0 29 7 69l33 187q22 127 95.5 192.5t192.5 65.5q100 0 153.5 -44.5t53.5 -125.5q0 -16 -2 -38h-30q2 18 2 32q0 72 -45 109.5t-132 37.5q-217 0 -259 -236l-31 -176
q-7 -39 -7 -70q0 -164 180 -164q95 0 157 45.5t84 133.5h31q-24 -101 -93.5 -154.5t-177.5 -53.5z" />
    <glyph glyph-name="ccaron" unicode="&#x10d;" horiz-adv-x="512" 
d="M315 600l-84 122h30l70 -95l104 95h34l-126 -122h-28zM226 -12q-83 0 -128 41t-45 121q0 25 5 54l18 102q19 105 81 160t158 55q82 0 125.5 -39t43.5 -106q0 -15 -1 -21h-29q1 8 1 21q0 118 -139 118q-177 0 -211 -194l-16 -91q-5 -27 -5 -58q0 -136 143 -136
q155 0 191 139h29q-18 -77 -75.5 -121.5t-145.5 -44.5z" />
    <glyph glyph-name="Dcaron" unicode="&#x10e;" horiz-adv-x="649" 
d="M391 759l-84 122h30l70 -95l104 95h34l-126 -122h-28zM59 0l120 680h218q219 0 219 -181q0 -33 -8 -78l-29 -164q-24 -135 -96 -196t-202 -61h-222zM95 29h188q117 0 181 55.5t85 174.5l29 164q7 39 7 72q0 83 -46 119.5t-144 36.5h-190z" />
    <glyph glyph-name="dcaron" unicode="&#x10f;" horiz-adv-x="582" 
d="M205 -12q-74 0 -113.5 40t-39.5 115q0 27 5 55l21 119q17 95 74.5 149.5t143.5 54.5q135 0 185 -131l60 340h30l-129 -730h-26l19 120q-95 -132 -230 -132zM593 545l74 185h34l-83 -185h-25zM207 15q137 0 235 155l30 170q-41 154 -177 154q-77 0 -125 -48.5t-63 -135.5
l-20 -113q-5 -27 -5 -52q0 -130 125 -130z" />
    <glyph glyph-name="Dcroat" unicode="&#x110;" horiz-adv-x="659" 
d="M407 680q219 0 219 -181q0 -33 -8 -78l-29 -164q-24 -135 -96 -196t-202 -61h-222l59 336h-84l5 29h84l56 315h218zM588 423q7 39 7 72q0 83 -46 119.5t-144 36.5h-190l-51 -286h201l-5 -29h-201l-54 -307h188q117 0 181 55.5t85 174.5z" />
    <glyph glyph-name="dcroat" unicode="&#x111;" horiz-adv-x="590" 
d="M645 622l-5 -25h-93l-105 -597h-26l19 120q-95 -132 -230 -132q-74 0 -113.5 40t-39.5 115q0 27 5 55l21 119q17 95 74.5 149.5t143.5 54.5q135 0 185 -131l37 207h-144l5 25h143l19 108h30l-19 -108h93zM442 170l30 170q-41 154 -177 154q-77 0 -125 -48.5t-63 -135.5
l-20 -113q-5 -27 -5 -52q0 -130 125 -130q137 0 235 155z" />
    <glyph glyph-name="Emacron" unicode="&#x112;" horiz-adv-x="581" 
d="M325 807l5 26h182l-5 -26h-182zM59 0l120 680h430l-5 -29h-399l-51 -286h349l-5 -29h-349l-54 -307h409l-5 -29h-440z" />
    <glyph glyph-name="emacron" unicode="&#x113;" horiz-adv-x="545" 
d="M252 648l5 26h182l-5 -26h-182zM233 -12q-87 0 -133 42t-46 123q0 28 4 51l18 102q18 104 79.5 159.5t162.5 55.5q87 0 131.5 -41t44.5 -120q0 -27 -5 -56l-9 -51h-383l-8 -44q-5 -27 -5 -56q0 -71 37 -104.5t111 -33.5q77 0 128 34t68 97h29q-19 -76 -77.5 -117
t-146.5 -41zM101 280h354l3 18q6 35 6 62q0 134 -145 134q-180 0 -214 -194z" />
    <glyph glyph-name="Ebreve" unicode="&#x114;" horiz-adv-x="581" 
d="M411 766q-91 0 -91 93v11h25v-11q0 -65 67 -65q76 0 96 76h26q-26 -104 -123 -104zM59 0l120 680h430l-5 -29h-399l-51 -286h349l-5 -29h-349l-54 -307h409l-5 -29h-440z" />
    <glyph glyph-name="ebreve" unicode="&#x115;" horiz-adv-x="545" 
d="M338 607q-91 0 -91 93v11h25v-11q0 -65 67 -65q76 0 96 76h26q-26 -104 -123 -104zM233 -12q-87 0 -133 42t-46 123q0 28 4 51l18 102q18 104 79.5 159.5t162.5 55.5q87 0 131.5 -41t44.5 -120q0 -27 -5 -56l-9 -51h-383l-8 -44q-5 -27 -5 -56q0 -71 37 -104.5t111 -33.5
q77 0 128 34t68 97h29q-19 -76 -77.5 -117t-146.5 -41zM101 280h354l3 18q6 35 6 62q0 134 -145 134q-180 0 -214 -194z" />
    <glyph glyph-name="Edotaccent" unicode="&#x116;" horiz-adv-x="581" 
d="M395 788l11 64h36l-11 -64h-36zM59 0l120 680h430l-5 -29h-399l-51 -286h349l-5 -29h-349l-54 -307h409l-5 -29h-440z" />
    <glyph glyph-name="edotaccent" unicode="&#x117;" horiz-adv-x="545" 
d="M322 629l11 64h36l-11 -64h-36zM233 -12q-87 0 -133 42t-46 123q0 28 4 51l18 102q18 104 79.5 159.5t162.5 55.5q87 0 131.5 -41t44.5 -120q0 -27 -5 -56l-9 -51h-383l-8 -44q-5 -27 -5 -56q0 -71 37 -104.5t111 -33.5q77 0 128 34t68 97h29q-19 -76 -77.5 -117
t-146.5 -41zM101 280h354l3 18q6 35 6 62q0 134 -145 134q-180 0 -214 -194z" />
    <glyph glyph-name="Eogonek" unicode="&#x118;" horiz-adv-x="581" 
d="M604 651h-399l-51 -286h349l-5 -29h-349l-54 -307h409l-5 -29h-6q-124 -60 -124 -131q0 -40 43 -40q28 0 60 18l-5 -27q-31 -14 -58 -14q-68 0 -68 61q0 74 103 133h-385l120 680h430z" />
    <glyph glyph-name="eogonek" unicode="&#x119;" horiz-adv-x="545" 
d="M318 521q87 0 131.5 -41t44.5 -120q0 -27 -5 -56l-9 -51h-383l-8 -44q-5 -27 -5 -56q0 -71 37 -104.5t111 -33.5q77 0 128 34t68 97h29q-18 -69 -68 -110q-120 -91 -120 -163q0 -44 44 -44q29 0 59 18l-5 -27q-31 -14 -59 -14q-67 0 -67 64q0 61 68 127q-35 -9 -76 -9
q-87 0 -133 42t-46 123q0 28 4 51l18 102q18 104 79.5 159.5t162.5 55.5zM458 298q6 35 6 62q0 134 -145 134q-180 0 -214 -194l-4 -20h354z" />
    <glyph glyph-name="Ecaron" unicode="&#x11a;" horiz-adv-x="581" 
d="M394 759l-84 122h30l70 -95l104 95h34l-126 -122h-28zM59 0l120 680h430l-5 -29h-399l-51 -286h349l-5 -29h-349l-54 -307h409l-5 -29h-440z" />
    <glyph glyph-name="ecaron" unicode="&#x11b;" horiz-adv-x="545" 
d="M321 600l-84 122h30l70 -95l104 95h34l-126 -122h-28zM233 -12q-87 0 -133 42t-46 123q0 28 4 51l18 102q18 104 79.5 159.5t162.5 55.5q87 0 131.5 -41t44.5 -120q0 -27 -5 -56l-9 -51h-383l-8 -44q-5 -27 -5 -56q0 -71 37 -104.5t111 -33.5q77 0 128 34t68 97h29
q-19 -76 -77.5 -117t-146.5 -41zM101 280h354l3 18q6 35 6 62q0 134 -145 134q-180 0 -214 -194z" />
    <glyph glyph-name="Gcircumflex" unicode="&#x11c;" horiz-adv-x="636" 
d="M290 759l126 122h28l84 -122h-30l-70 95l-104 -95h-34zM280 -12q-105 0 -161 49t-56 141q0 30 6 64l35 198q21 121 99 186.5t193 65.5q99 0 153 -47.5t54 -131.5q0 -17 -3 -34h-29q2 14 2 31q0 73 -45.5 113t-130.5 40q-106 0 -175.5 -60.5t-87.5 -164.5l-34 -192
q-6 -34 -6 -63q0 -166 187 -166q215 0 255 226l10 56h-185l5 30h215l-16 -91q-22 -125 -95 -187.5t-190 -62.5z" />
    <glyph glyph-name="gcircumflex" unicode="&#x11d;" horiz-adv-x="582" 
d="M221 600l126 122h28l84 -122h-30l-70 95l-104 -95h-34zM203 -194q-87 0 -132.5 33t-45.5 93q0 9 1 17h29q-1 -5 -1 -12q0 -104 149 -104q180 0 210 171l23 129q-96 -128 -228 -128q-74 0 -113.5 40t-39.5 115q0 28 5 55l18 102q17 95 74.5 149.5t143.5 54.5
q138 0 186 -135l24 123h26l-90 -510q-34 -193 -239 -193zM210 32q138 0 235 156l27 151q-41 155 -177 155q-77 0 -125 -48.5t-63 -135.5l-17 -96q-5 -27 -5 -52q0 -130 125 -130z" />
    <glyph glyph-name="Gbreve" unicode="&#x11e;" horiz-adv-x="636" 
d="M412 766q-91 0 -91 93v11h25v-11q0 -65 67 -65q76 0 96 76h26q-26 -104 -123 -104zM280 -12q-105 0 -161 49t-56 141q0 30 6 64l35 198q21 121 99 186.5t193 65.5q99 0 153 -47.5t54 -131.5q0 -17 -3 -34h-29q2 14 2 31q0 73 -45.5 113t-130.5 40q-106 0 -175.5 -60.5
t-87.5 -164.5l-34 -192q-6 -34 -6 -63q0 -166 187 -166q215 0 255 226l10 56h-185l5 30h215l-16 -91q-22 -125 -95 -187.5t-190 -62.5z" />
    <glyph glyph-name="gbreve" unicode="&#x11f;" horiz-adv-x="582" 
d="M343 607q-91 0 -91 93v11h25v-11q0 -65 67 -65q76 0 96 76h26q-26 -104 -123 -104zM203 -194q-87 0 -132.5 33t-45.5 93q0 9 1 17h29q-1 -5 -1 -12q0 -104 149 -104q180 0 210 171l23 129q-96 -128 -228 -128q-74 0 -113.5 40t-39.5 115q0 28 5 55l18 102
q17 95 74.5 149.5t143.5 54.5q138 0 186 -135l24 123h26l-90 -510q-34 -193 -239 -193zM210 32q138 0 235 156l27 151q-41 155 -177 155q-77 0 -125 -48.5t-63 -135.5l-17 -96q-5 -27 -5 -52q0 -130 125 -130z" />
    <glyph glyph-name="Gdotaccent" unicode="&#x120;" horiz-adv-x="636" 
d="M396 788l11 64h36l-11 -64h-36zM280 -12q-105 0 -161 49t-56 141q0 30 6 64l35 198q21 121 99 186.5t193 65.5q99 0 153 -47.5t54 -131.5q0 -17 -3 -34h-29q2 14 2 31q0 73 -45.5 113t-130.5 40q-106 0 -175.5 -60.5t-87.5 -164.5l-34 -192q-6 -34 -6 -63
q0 -166 187 -166q215 0 255 226l10 56h-185l5 30h215l-16 -91q-22 -125 -95 -187.5t-190 -62.5z" />
    <glyph glyph-name="gdotaccent" unicode="&#x121;" horiz-adv-x="582" 
d="M327 629l11 64h36l-11 -64h-36zM203 -194q-87 0 -132.5 33t-45.5 93q0 9 1 17h29q-1 -5 -1 -12q0 -104 149 -104q180 0 210 171l23 129q-96 -128 -228 -128q-74 0 -113.5 40t-39.5 115q0 28 5 55l18 102q17 95 74.5 149.5t143.5 54.5q138 0 186 -135l24 123h26l-90 -510
q-34 -193 -239 -193zM210 32q138 0 235 156l27 151q-41 155 -177 155q-77 0 -125 -48.5t-63 -135.5l-17 -96q-5 -27 -5 -52q0 -130 125 -130z" />
    <glyph glyph-name="Gcommaaccent" unicode="&#x122;" horiz-adv-x="636" 
d="M280 -12q-105 0 -161 49t-56 141q0 30 6 64l35 198q21 121 99 186.5t193 65.5q99 0 153 -47.5t54 -131.5q0 -17 -3 -34h-29q2 14 2 31q0 73 -45.5 113t-130.5 40q-106 0 -175.5 -60.5t-87.5 -164.5l-34 -192q-6 -34 -6 -63q0 -166 187 -166q215 0 255 226l10 56h-185
l5 30h215l-16 -91q-22 -125 -95 -187.5t-190 -62.5zM210 -214l4 23q27 2 35 48h-12l9 52h36l-9 -51q-12 -69 -63 -72z" />
    <glyph glyph-name="gcommaaccent" unicode="&#x123;" horiz-adv-x="582" 
d="M394 723l-4 -23q-27 -2 -35 -48h12l-9 -52h-36l9 51q12 69 63 72zM203 -194q-87 0 -132.5 33t-45.5 93q0 9 1 17h29q-1 -5 -1 -12q0 -104 149 -104q180 0 210 171l23 129q-96 -128 -228 -128q-74 0 -113.5 40t-39.5 115q0 28 5 55l18 102q17 95 74.5 149.5t143.5 54.5
q138 0 186 -135l24 123h26l-90 -510q-34 -193 -239 -193zM210 32q138 0 235 156l27 151q-41 155 -177 155q-77 0 -125 -48.5t-63 -135.5l-17 -96q-5 -27 -5 -52q0 -130 125 -130z" />
    <glyph glyph-name="Hcircumflex" unicode="&#x124;" horiz-adv-x="698" 
d="M320 759l126 122h28l84 -122h-30l-70 95l-104 -95h-34zM59 0l120 681h31l-56 -315h428l56 315h31l-120 -681h-31l59 337h-428l-59 -337h-31z" />
    <glyph glyph-name="hcircumflex" unicode="&#x125;" horiz-adv-x="563" 
d="M89 809l126 122h28l84 -122h-30l-70 95l-104 -95h-34zM50 0l129 730h30l-59 -333q85 124 212 124q133 0 133 -130q0 -23 -5 -51l-60 -340h-30l59 334q5 29 5 56q0 104 -106 104q-129 0 -218 -153l-60 -341h-30z" />
    <glyph glyph-name="Hbar" unicode="&#x126;" horiz-adv-x="718" 
d="M736 527l-5 -29h-84l-88 -498h-31l59 337h-428l-59 -337h-31l88 498h-84l5 29h84l27 154h31l-27 -154h428l27 154h31l-27 -154h84zM592 366l23 132h-428l-23 -132h428z" />
    <glyph glyph-name="hbar" unicode="&#x127;" horiz-adv-x="571" 
d="M370 521q133 0 133 -130q0 -23 -5 -51l-60 -340h-30l59 334q5 29 5 56q0 104 -106 104q-129 0 -218 -153l-60 -341h-30l105 597h-93l5 25h93l19 108h30l-19 -108h143l-5 -25h-143l-35 -200q85 124 212 124z" />
    <glyph glyph-name="Itilde" unicode="&#x128;" horiz-adv-x="239" 
d="M265 778q-28 0 -55 31q-21 24 -39 24q-35 0 -52 -57h-24q22 83 79 83q28 0 55 -31q21 -24 39 -24q35 0 52 57h24q-22 -83 -79 -83zM59 0l120 680h31l-120 -680h-31z" />
    <glyph glyph-name="itilde" unicode="&#x129;" horiz-adv-x="220" 
d="M227 619q-28 0 -55 31q-21 24 -39 24q-35 0 -52 -57h-24q22 83 79 83q28 0 55 -31q21 -24 39 -24q35 0 52 57h24q-22 -83 -79 -83zM50 0l90 509h30l-90 -509h-30z" />
    <glyph glyph-name="Imacron" unicode="&#x12a;" horiz-adv-x="239" 
d="M131 807l5 26h172l-5 -26h-172zM59 0l120 680h31l-120 -680h-31z" />
    <glyph glyph-name="imacron" unicode="&#x12b;" horiz-adv-x="220" 
d="M93 648l5 26h172l-5 -26h-172zM50 0l90 509h30l-90 -509h-30z" />
    <glyph glyph-name="Ibreve" unicode="&#x12c;" horiz-adv-x="239" 
d="M212 766q-87 0 -87 89q0 8 1 15h24v-16q0 -60 63 -60q37 0 60.5 20.5t30.5 55.5h26q-10 -49 -40.5 -76.5t-77.5 -27.5zM59 0l120 680h31l-120 -680h-31z" />
    <glyph glyph-name="ibreve" unicode="&#x12d;" horiz-adv-x="220" 
d="M174 607q-87 0 -87 89q0 8 1 15h24v-16q0 -60 63 -60q37 0 60.5 20.5t30.5 55.5h26q-10 -49 -40.5 -76.5t-77.5 -27.5zM50 0l90 509h30l-90 -509h-30z" />
    <glyph glyph-name="Iogonek" unicode="&#x12e;" horiz-adv-x="239" 
d="M1 -131q0 -40 43 -40q27 0 62 18l-5 -27q-28 -14 -59 -14q-69 0 -69 61q0 67 87 138l119 675h31l-120 -680q-89 -74 -89 -131z" />
    <glyph glyph-name="iogonek" unicode="&#x12f;" horiz-adv-x="220" 
d="M170 696h36l-12 -70h-36zM80 0q-89 -74 -89 -131q0 -40 43 -40q27 0 62 18l-5 -27q-28 -14 -59 -14q-69 0 -69 61q0 65 88 139l89 503h30z" />
    <glyph glyph-name="Idotaccent" unicode="&#x130;" horiz-adv-x="239" 
d="M196 788l11 64h36l-11 -64h-36zM59 0l120 680h31l-120 -680h-31z" />
    <glyph glyph-name="dotlessi" unicode="&#x131;" horiz-adv-x="220" 
d="M50 0l90 509h30l-90 -509h-30z" />
    <glyph glyph-name="IJ" unicode="&#x132;" horiz-adv-x="787" 
d="M59 0l120 680h31l-120 -680h-31zM432 -12q-97 0 -142.5 39.5t-45.5 122.5q0 26 5 55l2 11h29l-1 -6q-6 -33 -6 -63q0 -69 38.5 -99.5t120.5 -30.5q105 0 160.5 50.5t75.5 164.5l79 448h31l-80 -455q-21 -121 -84.5 -179t-181.5 -58z" />
    <glyph glyph-name="ij" unicode="&#x133;" horiz-adv-x="440" 
d="M158 626l12 70h36l-12 -70h-36zM378 626l12 70h36l-12 -70h-36zM50 0l90 509h30l-90 -509h-30zM137 -182l5 27h20q46 0 67 22t32 81l99 561h30l-100 -565q-12 -68 -41.5 -97t-87.5 -29h-24z" />
    <glyph glyph-name="Jcircumflex" unicode="&#x134;" horiz-adv-x="548" 
d="M423 759l121 122h28l79 -122h-30l-65 95l-99 -95h-34zM193 -12q-97 0 -142.5 39.5t-45.5 122.5q0 26 5 55l2 11h29l-1 -6q-6 -33 -6 -63q0 -69 38.5 -99.5t120.5 -30.5q105 0 160.5 50.5t75.5 164.5l79 448h31l-80 -455q-21 -121 -84.5 -179t-181.5 -58z" />
    <glyph glyph-name="jcircumflex" unicode="&#x135;" horiz-adv-x="220" 
d="M57 600l121 122h28l79 -122h-30l-65 95l-99 -95h-34zM-83 -182l5 27h20q46 0 67 22t32 81l99 561h30l-100 -565q-12 -68 -41.5 -97t-87.5 -29h-24z" />
    <glyph glyph-name="Kcommaaccent" unicode="&#x136;" horiz-adv-x="617" 
d="M59 0l120 680h31l-74 -422l492 422h42l-322 -277l206 -403h-35l-195 383l-196 -168l-38 -215h-31zM219 -214l4 23q27 2 35 48h-12l9 52h36l-9 -51q-12 -69 -63 -72z" />
    <glyph glyph-name="kcommaaccent" unicode="&#x137;" horiz-adv-x="517" 
d="M50 0l129 730h30l-94 -530l380 309h42l-258 -209l172 -300h-34l-161 281l-148 -120l-28 -161h-30zM170 -214l4 23q27 2 35 48h-12l9 52h36l-9 -51q-12 -69 -63 -72z" />
    <glyph glyph-name="kgreenlandic" unicode="&#x138;" horiz-adv-x="517" 
d="M50 0l90 509h30l-55 -309l380 309h42l-258 -209l172 -300h-34l-161 281l-148 -120l-28 -161h-30z" />
    <glyph glyph-name="Lacute" unicode="&#x139;" horiz-adv-x="523" 
d="M163 759l127 122h43l-136 -122h-34zM59 0l120 680h31l-115 -651h380l-5 -29h-411z" />
    <glyph glyph-name="lacute" unicode="&#x13a;" horiz-adv-x="220" 
d="M162 809l127 122h43l-136 -122h-34zM50 0l129 730h30l-129 -730h-30z" />
    <glyph glyph-name="Lcommaaccent" unicode="&#x13b;" horiz-adv-x="523" 
d="M59 0l120 680h31l-115 -651h380l-5 -29h-411zM194 -214l4 23q27 2 35 48h-12l9 52h36l-9 -51q-12 -69 -63 -72z" />
    <glyph glyph-name="lcommaaccent" unicode="&#x13c;" horiz-adv-x="220" 
d="M50 0l129 730h30l-129 -730h-30zM-5 -214l4 23q27 2 35 48h-12l9 52h36l-9 -51q-12 -69 -63 -72z" />
    <glyph glyph-name="Lcaron" unicode="&#x13d;" horiz-adv-x="523" 
d="M59 0l120 680h31l-115 -651h380l-5 -29h-411zM251 495l74 185h34l-83 -185h-25z" />
    <glyph glyph-name="lcaron" unicode="&#x13e;" horiz-adv-x="220" 
d="M50 0l129 730h30l-129 -730h-30zM231 545l74 185h34l-83 -185h-25z" />
    <glyph glyph-name="Ldot" unicode="&#x13f;" horiz-adv-x="523" 
d="M59 0l120 680h31l-115 -651h380l-5 -29h-411zM368 307l14 70h41l-14 -70h-41z" />
    <glyph glyph-name="ldot" unicode="&#x140;" horiz-adv-x="220" 
d="M50 0l129 730h30l-129 -730h-30zM211 325l14 70h41l-14 -70h-41z" />
    <glyph glyph-name="Lslash" unicode="&#x141;" horiz-adv-x="533" 
d="M105 29h380l-5 -29h-411l41 234l-94 -60l6 33l94 60l73 413h31l-69 -391l266 168l-6 -33l-266 -168z" />
    <glyph glyph-name="lslash" unicode="&#x142;" horiz-adv-x="240" 
d="M271 479l-6 -33l-110 -80l-65 -366h-30l60 341l-110 -80l6 33l110 80l63 356h30l-59 -331z" />
    <glyph glyph-name="Nacute" unicode="&#x143;" horiz-adv-x="694" 
d="M390 759l127 122h43l-136 -122h-34zM59 0l120 680h38l307 -631l111 631h30l-120 -680h-30l-313 642l-113 -642h-30z" />
    <glyph glyph-name="nacute" unicode="&#x144;" horiz-adv-x="563" 
d="M298 600l127 122h43l-136 -122h-34zM50 0l90 509h26l-19 -116q87 128 215 128q133 0 133 -130q0 -23 -5 -51l-60 -340h-30l59 334q5 29 5 56q0 104 -106 104q-129 0 -218 -153l-60 -341h-30z" />
    <glyph glyph-name="Ncommaaccent" unicode="&#x145;" horiz-adv-x="694" 
d="M59 0l120 680h38l307 -631l111 631h30l-120 -680h-30l-313 642l-113 -642h-30zM232 -214l4 23q27 2 35 48h-12l9 52h36l-9 -51q-12 -69 -63 -72z" />
    <glyph glyph-name="ncommaaccent" unicode="&#x146;" horiz-adv-x="563" 
d="M50 0l90 509h26l-19 -116q87 128 215 128q133 0 133 -130q0 -23 -5 -51l-60 -340h-30l59 334q5 29 5 56q0 104 -106 104q-129 0 -218 -153l-60 -341h-30zM170 -214l4 23q27 2 35 48h-12l9 52h36l-9 -51q-12 -69 -63 -72z" />
    <glyph glyph-name="Ncaron" unicode="&#x147;" horiz-adv-x="694" 
d="M422 759l-84 122h30l70 -95l104 95h34l-126 -122h-28zM59 0l120 680h38l307 -631l111 631h30l-120 -680h-30l-313 642l-113 -642h-30z" />
    <glyph glyph-name="ncaron" unicode="&#x148;" horiz-adv-x="563" 
d="M330 600l-84 122h30l70 -95l104 95h34l-126 -122h-28zM50 0l90 509h26l-19 -116q87 128 215 128q133 0 133 -130q0 -23 -5 -51l-60 -340h-30l59 334q5 29 5 56q0 104 -106 104q-129 0 -218 -153l-60 -341h-30z" />
    <glyph glyph-name="napostrophe" unicode="&#x149;" horiz-adv-x="563" 
d="M135 576l4 22q26 2 33 44l3 17h-11l10 58h36l-13 -73q-12 -65 -62 -68zM50 0l90 509h26l-19 -116q87 128 215 128q133 0 133 -130q0 -23 -5 -51l-60 -340h-30l59 334q5 29 5 56q0 104 -106 104q-129 0 -218 -153l-60 -341h-30z" />
    <glyph glyph-name="Eng" unicode="&#x14a;" horiz-adv-x="694" 
d="M379 -182l5 27h23q46 0 67 22t32 81l9 52l-313 642l-113 -642h-30l120 680h38l307 -631l111 631h30l-130 -736q-12 -68 -41.5 -97t-87.5 -29h-27z" />
    <glyph glyph-name="eng" unicode="&#x14b;" horiz-adv-x="563" 
d="M264 -182l5 26h23q46 0 67 22.5t32 82.5l68 385q5 29 5 56q0 104 -106 104q-129 0 -218 -153l-60 -341h-30l90 509h26l-19 -116q87 128 215 128q133 0 133 -130q0 -23 -5 -51l-70 -396q-12 -68 -41.5 -97t-87.5 -29h-27z" />
    <glyph glyph-name="Omacron" unicode="&#x14c;" horiz-adv-x="652" 
d="M332 807l5 26h182l-5 -26h-182zM282 -12q-106 0 -162 49.5t-56 144.5q0 30 6 65l33 187q22 127 98.5 192.5t198.5 65.5q106 0 162 -49.5t56 -144.5q0 -30 -6 -65l-33 -187q-22 -127 -98.5 -192.5t-198.5 -65.5zM282 17q226 0 268 236l31 176q6 33 6 67q0 167 -187 167
q-226 0 -268 -236l-31 -176q-6 -33 -6 -67q0 -167 187 -167z" />
    <glyph glyph-name="omacron" unicode="&#x14d;" horiz-adv-x="558" 
d="M257 648l5 26h182l-5 -26h-182zM235 -12q-89 0 -135.5 42.5t-46.5 120.5q0 25 5 53l18 102q18 103 81.5 159t165.5 56q89 0 135.5 -42.5t46.5 -120.5q0 -25 -5 -53l-18 -102q-18 -103 -81.5 -159t-165.5 -56zM234 15q91 0 146.5 50t72.5 144l17 96q4 23 4 49
q0 140 -150 140q-91 0 -146.5 -50t-72.5 -144l-17 -96q-4 -23 -4 -49q0 -140 150 -140z" />
    <glyph glyph-name="Obreve" unicode="&#x14e;" horiz-adv-x="652" 
d="M418 766q-91 0 -91 93v11h25v-11q0 -65 67 -65q76 0 96 76h26q-26 -104 -123 -104zM282 -12q-106 0 -162 49.5t-56 144.5q0 30 6 65l33 187q22 127 98.5 192.5t198.5 65.5q106 0 162 -49.5t56 -144.5q0 -30 -6 -65l-33 -187q-22 -127 -98.5 -192.5t-198.5 -65.5zM282 17
q226 0 268 236l31 176q6 33 6 67q0 167 -187 167q-226 0 -268 -236l-31 -176q-6 -33 -6 -67q0 -167 187 -167z" />
    <glyph glyph-name="obreve" unicode="&#x14f;" horiz-adv-x="558" 
d="M343 607q-91 0 -91 93v11h25v-11q0 -65 67 -65q76 0 96 76h26q-26 -104 -123 -104zM235 -12q-89 0 -135.5 42.5t-46.5 120.5q0 25 5 53l18 102q18 103 81.5 159t165.5 56q89 0 135.5 -42.5t46.5 -120.5q0 -25 -5 -53l-18 -102q-18 -103 -81.5 -159t-165.5 -56zM234 15
q91 0 146.5 50t72.5 144l17 96q4 23 4 49q0 140 -150 140q-91 0 -146.5 -50t-72.5 -144l-17 -96q-4 -23 -4 -49q0 -140 150 -140z" />
    <glyph glyph-name="Ohungarumlaut" unicode="&#x150;" horiz-adv-x="652" 
d="M309 759l106 122h42l-117 -122h-31zM450 759l107 122h41l-117 -122h-31zM282 -12q-106 0 -162 49.5t-56 144.5q0 30 6 65l33 187q22 127 98.5 192.5t198.5 65.5q106 0 162 -49.5t56 -144.5q0 -30 -6 -65l-33 -187q-22 -127 -98.5 -192.5t-198.5 -65.5zM282 17
q226 0 268 236l31 176q6 33 6 67q0 167 -187 167q-226 0 -268 -236l-31 -176q-6 -33 -6 -67q0 -167 187 -167z" />
    <glyph glyph-name="ohungarumlaut" unicode="&#x151;" horiz-adv-x="558" 
d="M234 600l106 122h42l-117 -122h-31zM375 600l107 122h41l-117 -122h-31zM235 -12q-89 0 -135.5 42.5t-46.5 120.5q0 25 5 53l18 102q18 103 81.5 159t165.5 56q89 0 135.5 -42.5t46.5 -120.5q0 -25 -5 -53l-18 -102q-18 -103 -81.5 -159t-165.5 -56zM234 15
q91 0 146.5 50t72.5 144l17 96q4 23 4 49q0 140 -150 140q-91 0 -146.5 -50t-72.5 -144l-17 -96q-4 -23 -4 -49q0 -140 150 -140z" />
    <glyph glyph-name="OE" unicode="&#x152;" horiz-adv-x="930" 
d="M282 0q-219 0 -219 181q0 33 8 78l29 164q24 135 96 196t202 61h560l-5 -29h-371l-51 -286h321l-5 -29h-321l-54 -307h381l-5 -29h-566zM284 29h157l110 622h-155q-117 0 -181 -55.5t-85 -174.5l-29 -164q-7 -39 -7 -72q0 -83 46 -119.5t144 -36.5z" />
    <glyph glyph-name="oe" unicode="&#x153;" horiz-adv-x="939" 
d="M235 -12q-89 0 -135.5 42.5t-46.5 120.5q0 24 5 54l18 101q18 103 81.5 159t166.5 56q159 0 175 -134q58 134 214 134q86 0 130.5 -41.5t44.5 -120.5q0 -27 -5 -55l-9 -51h-383l-8 -44q-5 -27 -5 -56q0 -71 37 -104.5t111 -33.5q77 0 128 34t68 97h29q-19 -76 -78 -117
t-146 -41q-159 0 -174 135q-59 -135 -218 -135zM234 15q91 0 146.5 50t72.5 144l17 96q4 23 4 49q0 140 -150 140q-91 0 -146.5 -50t-72.5 -144l-17 -96q-4 -23 -4 -49q0 -140 150 -140zM495 280h354l3 18q6 35 6 62q0 134 -145 134q-180 0 -214 -194z" />
    <glyph glyph-name="Racute" unicode="&#x154;" horiz-adv-x="628" 
d="M351 759l127 122h43l-136 -122h-34zM59 0l120 680h249q97 0 138.5 -34.5t41.5 -115.5q0 -99 -53.5 -157.5t-152.5 -68.5l140 -304h-34l-140 302h-225l-53 -302h-31zM148 331h218q103 0 157.5 51.5t54.5 147.5q0 68 -33.5 94.5t-119.5 26.5h-220z" />
    <glyph glyph-name="racute" unicode="&#x155;" horiz-adv-x="336" 
d="M200 600l127 122h43l-136 -122h-34zM50 0l90 509h26l-18 -112q66 121 187 121h33l-5 -27h-27q-67 0 -115.5 -41t-83.5 -129l-57 -321h-30z" />
    <glyph glyph-name="Rcommaaccent" unicode="&#x156;" horiz-adv-x="628" 
d="M59 0l120 680h249q97 0 138.5 -34.5t41.5 -115.5q0 -99 -53.5 -157.5t-152.5 -68.5l140 -304h-34l-140 302h-225l-53 -302h-31zM148 331h218q103 0 157.5 51.5t54.5 147.5q0 68 -33.5 94.5t-119.5 26.5h-220zM217 -214l4 23q27 2 35 48h-12l9 52h36l-9 -51
q-12 -69 -63 -72z" />
    <glyph glyph-name="rcommaaccent" unicode="&#x157;" horiz-adv-x="336" 
d="M50 0l90 509h26l-18 -112q66 121 187 121h33l-5 -27h-27q-67 0 -115.5 -41t-83.5 -129l-57 -321h-30zM-5 -214l4 23q27 2 35 48h-12l9 52h36l-9 -51q-12 -69 -63 -72z" />
    <glyph glyph-name="Rcaron" unicode="&#x158;" horiz-adv-x="628" 
d="M383 759l-84 122h30l70 -95l104 95h34l-126 -122h-28zM59 0l120 680h249q97 0 138.5 -34.5t41.5 -115.5q0 -99 -53.5 -157.5t-152.5 -68.5l140 -304h-34l-140 302h-225l-53 -302h-31zM148 331h218q103 0 157.5 51.5t54.5 147.5q0 68 -33.5 94.5t-119.5 26.5h-220z" />
    <glyph glyph-name="rcaron" unicode="&#x159;" horiz-adv-x="336" 
d="M232 600l-84 122h30l70 -95l104 95h34l-126 -122h-28zM50 0l90 509h26l-18 -112q66 121 187 121h33l-5 -27h-27q-67 0 -115.5 -41t-83.5 -129l-57 -321h-30z" />
    <glyph glyph-name="Sacute" unicode="&#x15a;" horiz-adv-x="555" 
d="M318 759l127 122h43l-136 -122h-34zM239 -12q-104 0 -160 39t-56 108q0 16 3 34h30q-3 -17 -3 -31q0 -121 187 -121q110 0 171 51t61 147q0 50 -41.5 78t-138.5 42q-107 16 -151.5 47.5t-44.5 90.5q0 103 70.5 161t186.5 58q96 0 146.5 -36.5t50.5 -104.5q0 -17 -3 -36
h-30q3 19 3 35q0 113 -164 113q-105 0 -167 -49.5t-62 -138.5q0 -46 38.5 -71t133.5 -40q110 -17 156.5 -51t46.5 -98q0 -109 -70.5 -168t-192.5 -59z" />
    <glyph glyph-name="sacute" unicode="&#x15b;" horiz-adv-x="495" 
d="M257 600l127 122h43l-136 -122h-34zM199 -12q-85 0 -131 31.5t-46 89.5q0 15 3 30h28q-3 -13 -3 -27q0 -97 148 -97q89 0 143 36t54 101q0 43 -35 65t-118 31q-89 10 -127 35t-38 74q0 74 59.5 119t154.5 45q77 0 120 -31t43 -87q0 -14 -3 -29h-28q2 9 2 26
q0 46 -34.5 70t-99.5 24q-81 0 -132.5 -36.5t-51.5 -96.5q0 -38 33.5 -58t112.5 -29q93 -10 132.5 -37t39.5 -80q0 -80 -62 -124.5t-164 -44.5z" />
    <glyph glyph-name="Scircumflex" unicode="&#x15c;" horiz-adv-x="555" 
d="M245 759l126 122h28l84 -122h-30l-70 95l-104 -95h-34zM239 -12q-104 0 -160 39t-56 108q0 16 3 34h30q-3 -17 -3 -31q0 -121 187 -121q110 0 171 51t61 147q0 50 -41.5 78t-138.5 42q-107 16 -151.5 47.5t-44.5 90.5q0 103 70.5 161t186.5 58q96 0 146.5 -36.5
t50.5 -104.5q0 -17 -3 -36h-30q3 19 3 35q0 113 -164 113q-105 0 -167 -49.5t-62 -138.5q0 -46 38.5 -71t133.5 -40q110 -17 156.5 -51t46.5 -98q0 -109 -70.5 -168t-192.5 -59z" />
    <glyph glyph-name="scircumflex" unicode="&#x15d;" horiz-adv-x="495" 
d="M184 600l126 122h28l84 -122h-30l-70 95l-104 -95h-34zM199 -12q-85 0 -131 31.5t-46 89.5q0 15 3 30h28q-3 -13 -3 -27q0 -97 148 -97q89 0 143 36t54 101q0 43 -35 65t-118 31q-89 10 -127 35t-38 74q0 74 59.5 119t154.5 45q77 0 120 -31t43 -87q0 -14 -3 -29h-28
q2 9 2 26q0 46 -34.5 70t-99.5 24q-81 0 -132.5 -36.5t-51.5 -96.5q0 -38 33.5 -58t112.5 -29q93 -10 132.5 -37t39.5 -80q0 -80 -62 -124.5t-164 -44.5z" />
    <glyph glyph-name="Scedilla" unicode="&#x15e;" horiz-adv-x="555" 
d="M353 692q96 0 146.5 -36.5t50.5 -104.5q0 -17 -3 -36h-30q3 19 3 35q0 113 -164 113q-105 0 -167 -49.5t-62 -138.5q0 -46 38.5 -71t133.5 -40q110 -17 156.5 -51t46.5 -98q0 -105 -65.5 -163.5t-180.5 -63.5l-35 -64h5q38 0 54.5 -11.5t16.5 -36.5q0 -33 -26.5 -51.5
t-73.5 -18.5q-45 0 -78 18l13 23q24 -18 63 -18q74 0 74 48q0 15 -12.5 20.5t-46.5 5.5h-25l46 85q-100 1 -154 40t-54 107q0 16 3 34h30q-3 -17 -3 -31q0 -121 187 -121q110 0 171 51t61 147q0 50 -41.5 78t-138.5 42q-107 16 -151.5 47.5t-44.5 90.5q0 103 70.5 161
t186.5 58z" />
    <glyph glyph-name="scedilla" unicode="&#x15f;" horiz-adv-x="495" 
d="M451 374h-28q2 9 2 26q0 46 -34.5 70t-99.5 24q-81 0 -132.5 -36.5t-51.5 -96.5q0 -38 33.5 -58t112.5 -29q93 -10 132.5 -37t39.5 -80q0 -75 -55.5 -119t-148.5 -49l-35 -65h5q38 0 54.5 -11.5t16.5 -36.5q0 -33 -26.5 -51.5t-73.5 -18.5q-45 0 -78 18l13 23
q24 -18 63 -18q74 0 74 48q0 15 -12.5 20.5t-46.5 5.5h-25l46 85q-83 1 -128.5 32t-45.5 89q0 15 3 30h28q-3 -13 -3 -27q0 -97 148 -97q89 0 143 36t54 101q0 43 -35 65t-118 31q-89 10 -127 35t-38 74q0 74 59.5 119t154.5 45q77 0 120 -31t43 -87q0 -14 -3 -29z" />
    <glyph glyph-name="Scaron" unicode="&#x160;" horiz-adv-x="555" 
d="M350 759l-84 122h30l70 -95l104 95h34l-126 -122h-28zM239 -12q-104 0 -160 39t-56 108q0 16 3 34h30q-3 -17 -3 -31q0 -121 187 -121q110 0 171 51t61 147q0 50 -41.5 78t-138.5 42q-107 16 -151.5 47.5t-44.5 90.5q0 103 70.5 161t186.5 58q96 0 146.5 -36.5
t50.5 -104.5q0 -17 -3 -36h-30q3 19 3 35q0 113 -164 113q-105 0 -167 -49.5t-62 -138.5q0 -46 38.5 -71t133.5 -40q110 -17 156.5 -51t46.5 -98q0 -109 -70.5 -168t-192.5 -59z" />
    <glyph glyph-name="scaron" unicode="&#x161;" horiz-adv-x="495" 
d="M289 600l-84 122h30l70 -95l104 95h34l-126 -122h-28zM199 -12q-85 0 -131 31.5t-46 89.5q0 15 3 30h28q-3 -13 -3 -27q0 -97 148 -97q89 0 143 36t54 101q0 43 -35 65t-118 31q-89 10 -127 35t-38 74q0 74 59.5 119t154.5 45q77 0 120 -31t43 -87q0 -14 -3 -29h-28
q2 9 2 26q0 46 -34.5 70t-99.5 24q-81 0 -132.5 -36.5t-51.5 -96.5q0 -38 33.5 -58t112.5 -29q93 -10 132.5 -37t39.5 -80q0 -80 -62 -124.5t-164 -44.5z" />
    <glyph glyph-name="uni0162" unicode="&#x162;" horiz-adv-x="497" 
d="M83 680h481l-5 -29h-225l-115 -651h-3l-39 -76h5q38 0 54.5 -11.5t16.5 -36.5q0 -33 -26.5 -51.5t-73.5 -18.5q-45 0 -78 18l13 23q24 -18 63 -18q74 0 74 48q0 15 -12.5 20.5t-46.5 5.5h-25l50 97h-3l115 651h-225z" />
    <glyph glyph-name="uni0163" unicode="&#x163;" horiz-adv-x="325" 
d="M188 484l-60 -339q-5 -28 -5 -49q0 -37 18 -53t60 -16h63l-5 -27h-63q-12 0 -32 2l-43 -78h5q38 0 54.5 -11.5t16.5 -36.5q0 -33 -26.5 -51.5t-73.5 -18.5q-45 0 -78 18l13 23q24 -18 63 -18q74 0 74 48q0 15 -12.5 20.5t-46.5 5.5h-25l57 105q-49 19 -49 87q0 22 5 50
l60 339h-104l5 25h103l28 143h27l-25 -143h150l-5 -25h-149z" />
    <glyph glyph-name="Tcaron" unicode="&#x164;" horiz-adv-x="497" 
d="M324 759l-84 122h30l70 -95l104 95h34l-126 -122h-28zM188 0l115 651h-225l5 29h481l-5 -29h-225l-115 -651h-31z" />
    <glyph glyph-name="tcaron" unicode="&#x165;" horiz-adv-x="325" 
d="M266 590l74 185h34l-83 -185h-25zM196 0q-53 0 -78 23t-25 72q0 22 5 50l60 339h-104l5 25h103l28 143h27l-25 -143h150l-5 -25h-149l-60 -339q-5 -28 -5 -49q0 -37 18 -53t60 -16h63l-5 -27h-63z" />
    <glyph glyph-name="Tbar" unicode="&#x166;" horiz-adv-x="497" 
d="M559 651h-225l-49 -278h150l-5 -29h-150l-61 -344h-31l61 344h-150l5 29h150l49 278h-225l5 29h481z" />
    <glyph glyph-name="tbar" unicode="&#x167;" horiz-adv-x="325" 
d="M337 484h-149l-28 -156h141l-4 -25h-141l-28 -158q-5 -28 -5 -49q0 -37 18 -53t60 -16h63l-5 -27h-63q-53 0 -78 23t-25 72q0 22 5 50l28 158h-96l4 25h96l28 156h-104l5 25h103l28 143h27l-25 -143h150z" />
    <glyph glyph-name="Utilde" unicode="&#x168;" horiz-adv-x="646" 
d="M470 778q-31 0 -57 30q-22 25 -41 25q-35 0 -54 -57h-25q22 83 82 83q31 0 57 -30q22 -25 41 -25q35 0 54 57h25q-22 -83 -82 -83zM278 -12q-107 0 -157 39t-50 123q0 32 7 71l81 459h31l-81 -459q-7 -41 -7 -71q0 -73 41.5 -103t134.5 -30q116 0 172.5 46t75.5 158
l81 459h30l-81 -459q-22 -122 -85 -177.5t-193 -55.5z" />
    <glyph glyph-name="utilde" unicode="&#x169;" horiz-adv-x="567" 
d="M399 619q-31 0 -57 30q-22 25 -41 25q-35 0 -54 -57h-25q22 83 82 83q31 0 57 -30q22 -25 41 -25q35 0 54 57h25q-22 -83 -82 -83zM203 -12q-66 0 -100.5 34t-34.5 97q0 22 5 50l60 340h30l-59 -334q-5 -29 -5 -55q0 -105 108 -105q131 0 220 153l60 341h30l-90 -509h-26
l19 116q-87 -128 -217 -128z" />
    <glyph glyph-name="Umacron" unicode="&#x16a;" horiz-adv-x="646" 
d="M329 807l5 26h182l-5 -26h-182zM278 -12q-107 0 -157 39t-50 123q0 32 7 71l81 459h31l-81 -459q-7 -41 -7 -71q0 -73 41.5 -103t134.5 -30q116 0 172.5 46t75.5 158l81 459h30l-81 -459q-22 -122 -85 -177.5t-193 -55.5z" />
    <glyph glyph-name="umacron" unicode="&#x16b;" horiz-adv-x="567" 
d="M258 648l5 26h182l-5 -26h-182zM203 -12q-66 0 -100.5 34t-34.5 97q0 22 5 50l60 340h30l-59 -334q-5 -29 -5 -55q0 -105 108 -105q131 0 220 153l60 341h30l-90 -509h-26l19 116q-87 -128 -217 -128z" />
    <glyph glyph-name="Ubreve" unicode="&#x16c;" horiz-adv-x="646" 
d="M415 766q-91 0 -91 93v11h25v-11q0 -65 67 -65q76 0 96 76h26q-26 -104 -123 -104zM278 -12q-107 0 -157 39t-50 123q0 32 7 71l81 459h31l-81 -459q-7 -41 -7 -71q0 -73 41.5 -103t134.5 -30q116 0 172.5 46t75.5 158l81 459h30l-81 -459q-22 -122 -85 -177.5
t-193 -55.5z" />
    <glyph glyph-name="ubreve" unicode="&#x16d;" horiz-adv-x="567" 
d="M344 607q-91 0 -91 93v11h25v-11q0 -65 67 -65q76 0 96 76h26q-26 -104 -123 -104zM203 -12q-66 0 -100.5 34t-34.5 97q0 22 5 50l60 340h30l-59 -334q-5 -29 -5 -55q0 -105 108 -105q131 0 220 153l60 341h30l-90 -509h-26l19 116q-87 -128 -217 -128z" />
    <glyph glyph-name="Uring" unicode="&#x16e;" horiz-adv-x="646" 
d="M416 751q-32 0 -52 19.5t-20 50.5q0 36 26 61t63 25q32 0 52 -19.5t20 -50.5q0 -36 -26 -61t-63 -25zM417 775q26 0 44 18.5t18 44.5q0 21 -13 33t-34 12q-26 0 -44 -18.5t-18 -44.5q0 -21 13 -33t34 -12zM278 -12q-107 0 -157 39t-50 123q0 32 7 71l81 459h31l-81 -459
q-7 -41 -7 -71q0 -73 41.5 -103t134.5 -30q116 0 172.5 46t75.5 158l81 459h30l-81 -459q-22 -122 -85 -177.5t-193 -55.5z" />
    <glyph glyph-name="uring" unicode="&#x16f;" horiz-adv-x="567" 
d="M345 592q-32 0 -52 19.5t-20 50.5q0 36 26 61t63 25q32 0 52 -19.5t20 -50.5q0 -36 -26 -61t-63 -25zM346 616q26 0 44 18.5t18 44.5q0 21 -13 33t-34 12q-26 0 -44 -18.5t-18 -44.5q0 -21 13 -33t34 -12zM203 -12q-66 0 -100.5 34t-34.5 97q0 22 5 50l60 340h30
l-59 -334q-5 -29 -5 -55q0 -105 108 -105q131 0 220 153l60 341h30l-90 -509h-26l19 116q-87 -128 -217 -128z" />
    <glyph glyph-name="Uhungarumlaut" unicode="&#x170;" horiz-adv-x="646" 
d="M306 759l106 122h42l-117 -122h-31zM447 759l107 122h41l-117 -122h-31zM278 -12q-107 0 -157 39t-50 123q0 32 7 71l81 459h31l-81 -459q-7 -41 -7 -71q0 -73 41.5 -103t134.5 -30q116 0 172.5 46t75.5 158l81 459h30l-81 -459q-22 -122 -85 -177.5t-193 -55.5z" />
    <glyph glyph-name="uhungarumlaut" unicode="&#x171;" horiz-adv-x="567" 
d="M235 600l106 122h42l-117 -122h-31zM376 600l107 122h41l-117 -122h-31zM203 -12q-66 0 -100.5 34t-34.5 97q0 22 5 50l60 340h30l-59 -334q-5 -29 -5 -55q0 -105 108 -105q131 0 220 153l60 341h30l-90 -509h-26l19 116q-87 -128 -217 -128z" />
    <glyph glyph-name="Uogonek" unicode="&#x172;" horiz-adv-x="646" 
d="M607 680h30l-81 -459q-18 -99 -61 -153t-126 -72q-61 -24 -94.5 -57.5t-33.5 -69.5q0 -40 43 -40q31 0 60 18l-5 -27q-29 -14 -59 -14q-67 0 -67 61q0 69 90 122q-8 -1 -25 -1q-107 0 -157 39t-50 123q0 32 7 71l81 459h31l-81 -459q-7 -41 -7 -71q0 -73 41.5 -103
t134.5 -30q116 0 172.5 46t75.5 158z" />
    <glyph glyph-name="uogonek" unicode="&#x173;" horiz-adv-x="567" 
d="M421 0q-124 -60 -124 -131q0 -40 43 -40q28 0 60 18l-5 -27q-31 -14 -58 -14q-68 0 -68 61q0 83 135 150l16 99q-87 -128 -217 -128q-66 0 -100.5 34t-34.5 97q0 22 5 50l60 340h30l-59 -334q-5 -29 -5 -55q0 -105 108 -105q131 0 220 153l60 341h30l-90 -509h-6z" />
    <glyph glyph-name="Wcircumflex" unicode="&#x174;" horiz-adv-x="876" 
d="M408 759l126 122h28l84 -122h-30l-70 95l-104 -95h-34zM169 0l-80 680h31l74 -633l302 633h33l78 -633l298 633h32l-320 -680h-33l-80 630l-302 -630h-33z" />
    <glyph glyph-name="wcircumflex" unicode="&#x175;" horiz-adv-x="769" 
d="M327 600l126 122h28l84 -122h-30l-70 95l-104 -95h-34zM148 0l-84 509h31l76 -471l242 471h31l76 -472l243 472h32l-264 -509h-34l-76 465l-240 -465h-33z" />
    <glyph glyph-name="Ycircumflex" unicode="&#x176;" horiz-adv-x="530" 
d="M235 759l126 122h28l84 -122h-30l-70 95l-104 -95h-34zM205 0l54 307l-180 373h35l164 -342l285 342h38l-312 -376l-54 -304h-30z" />
    <glyph glyph-name="ycircumflex" unicode="&#x177;" horiz-adv-x="456" 
d="M171 600l126 122h28l84 -122h-30l-70 95l-104 -95h-34zM-20 -182l5 27h24q40 0 62.5 16t50.5 67l56 102l-114 479h32l104 -445l251 445h31l-334 -594q-32 -56 -61 -76.5t-78 -20.5h-29z" />
    <glyph glyph-name="Ydieresis" unicode="&#x178;" horiz-adv-x="530" 
d="M261 788l11 64h36l-11 -64h-36zM421 788l11 64h36l-11 -64h-36zM205 0l54 307l-180 373h35l164 -342l285 342h38l-312 -376l-54 -304h-30z" />
    <glyph glyph-name="Zacute" unicode="&#x179;" horiz-adv-x="536" 
d="M315 759l127 122h43l-136 -122h-34zM-13 0l5 27l532 624h-404l5 29h445l-5 -27l-532 -624h431l-5 -29h-472z" />
    <glyph glyph-name="zacute" unicode="&#x17a;" horiz-adv-x="448" 
d="M242 600l127 122h43l-136 -122h-34zM-12 0l4 23l415 459h-313l5 27h354l-4 -23l-415 -459h339l-5 -27h-380z" />
    <glyph glyph-name="Zdotaccent" unicode="&#x17b;" horiz-adv-x="536" 
d="M348 788l11 64h36l-11 -64h-36zM-13 0l5 27l532 624h-404l5 29h445l-5 -27l-532 -624h431l-5 -29h-472z" />
    <glyph glyph-name="zdotaccent" unicode="&#x17c;" horiz-adv-x="448" 
d="M275 629l11 64h36l-11 -64h-36zM-12 0l4 23l415 459h-313l5 27h354l-4 -23l-415 -459h339l-5 -27h-380z" />
    <glyph glyph-name="Zcaron" unicode="&#x17d;" horiz-adv-x="536" 
d="M347 759l-84 122h30l70 -95l104 95h34l-126 -122h-28zM-13 0l5 27l532 624h-404l5 29h445l-5 -27l-532 -624h431l-5 -29h-472z" />
    <glyph glyph-name="zcaron" unicode="&#x17e;" horiz-adv-x="448" 
d="M274 600l-84 122h30l70 -95l104 95h34l-126 -122h-28zM-12 0l4 23l415 459h-313l5 27h354l-4 -23l-415 -459h339l-5 -27h-380z" />
    <glyph glyph-name="florin" unicode="&#x192;" horiz-adv-x="600" 
d="M3 -60l7 27h54q55 0 89 29t55 99l99 331h-146l5 27h149l30 99q24 79 64.5 113.5t109.5 34.5h71l-8 -27h-65q-57 0 -90 -29t-54 -98l-28 -93h174l-5 -27h-177l-100 -337q-23 -78 -64 -113.5t-109 -35.5h-61z" />
    <glyph glyph-name="Aringacute" unicode="&#x1fa;" horiz-adv-x="598" 
d="M372 930l127 122h43l-136 -122h-34zM388 730q-32 0 -52 19.5t-20 50.5q0 36 26 61t63 25q32 0 52 -19.5t20 -50.5q0 -36 -26 -61t-63 -25zM389 754q26 0 44 18.5t18 44.5q0 21 -13 33t-34 12q-26 0 -44 -18.5t-18 -44.5q0 -21 13 -33t34 -12zM-31 0l389 680h32l149 -680
h-32l-44 207h-342l-119 -207h-33zM137 236h320l-89 405z" />
    <glyph glyph-name="aringacute" unicode="&#x1fb;" horiz-adv-x="541" 
d="M306 771l127 122h43l-136 -122h-34zM322 571q-32 0 -52 19.5t-20 50.5q0 36 26 61t63 25q32 0 52 -19.5t20 -50.5q0 -36 -26 -61t-63 -25zM323 595q26 0 44 18.5t18 44.5q0 21 -13 33t-34 12q-26 0 -44 -18.5t-18 -44.5q0 -21 13 -33t34 -12zM173 -12q-142 0 -142 125
q0 84 62 128t171 44h168l11 61q4 22 4 41q0 107 -138 107q-155 0 -189 -127h-30q42 154 220 154q167 0 167 -135q0 -17 -4 -40l-61 -346h-26l15 93q-96 -105 -228 -105zM176 14q132 0 230 121l21 123h-161q-98 0 -151.5 -36t-53.5 -108q0 -100 115 -100z" />
    <glyph glyph-name="AEacute" unicode="&#x1fc;" horiz-adv-x="895" 
d="M502 759l127 122h43l-136 -122h-34zM-41 0l551 680h413l-5 -29h-371l-51 -286h321l-5 -29h-321l-54 -307h381l-5 -29h-412l37 207h-276l-168 -207h-35zM186 236h257l71 406z" />
    <glyph glyph-name="aeacute" unicode="&#x1fd;" horiz-adv-x="905" 
d="M462 600l127 122h43l-136 -122h-34zM177 -12q-146 0 -146 125q0 84 62.5 128t170.5 44h168l11 61q4 24 4 43q0 105 -138 105q-156 0 -190 -127h-29q41 154 221 154q153 0 161 -119q61 119 208 119q84 0 129 -40.5t45 -121.5q0 -27 -5 -55l-9 -51h-383l-8 -44
q-5 -27 -5 -55q0 -72 36.5 -105.5t111.5 -33.5q77 0 128 34t68 97h29q-19 -76 -78 -117t-145 -41q-76 0 -121.5 31.5t-56.5 89.5q-104 -121 -239 -121zM461 280h354l3 18q6 33 6 62q0 134 -146 134q-179 0 -213 -194zM180 14q133 0 232 130v4q0 24 6 57l9 53h-161
q-97 0 -151 -35.5t-54 -108.5q0 -51 29 -75.5t90 -24.5z" />
    <glyph glyph-name="Oslashacute" unicode="&#x1fe;" horiz-adv-x="652" 
d="M539 881l-136 -122h-34l127 122h43zM655 674l-62 -70q25 -45 25 -106q0 -30 -6 -65l-33 -187q-22 -127 -98.5 -192.5t-198.5 -65.5q-123 0 -177 65l-58 -65l-20 18l62 70q-25 45 -25 106q0 30 6 65l33 187q22 127 98.5 192.5t198.5 65.5q123 0 177 -65l58 65zM95 184
q0 -50 16 -83l446 503q-44 59 -157 59q-226 0 -268 -236l-31 -176q-6 -33 -6 -67zM587 496q0 50 -16 83l-446 -503q44 -59 157 -59q226 0 268 236l31 176q6 33 6 67z" />
    <glyph glyph-name="oslashacute" unicode="&#x1ff;" horiz-adv-x="558" 
d="M464 722l-136 -122h-34l127 122h43zM535 503l-52 -54q22 -37 22 -91q0 -25 -5 -53l-18 -102q-18 -103 -81.5 -159t-165.5 -56q-97 0 -145 51l-49 -51l-18 18l52 54q-22 37 -22 91q0 25 5 53l18 102q18 103 81.5 159t165.5 56q97 0 145 -51l49 51zM84 155q0 -44 13 -71
l350 364q-36 46 -123 46q-91 0 -146.5 -50t-72.5 -144l-17 -96q-4 -23 -4 -49zM474 354q0 44 -13 71l-350 -364q36 -46 123 -46q91 0 146.5 50t72.5 144l17 96q4 23 4 49z" />
    <glyph glyph-name="Scommaaccent" unicode="&#x218;" horiz-adv-x="555" 
d="M239 -12q-104 0 -160 39t-56 108q0 16 3 34h30q-3 -17 -3 -31q0 -121 187 -121q110 0 171 51t61 147q0 50 -41.5 78t-138.5 42q-107 16 -151.5 47.5t-44.5 90.5q0 103 70.5 161t186.5 58q96 0 146.5 -36.5t50.5 -104.5q0 -17 -3 -36h-30q3 19 3 35q0 113 -164 113
q-105 0 -167 -49.5t-62 -138.5q0 -46 38.5 -71t133.5 -40q110 -17 156.5 -51t46.5 -98q0 -109 -70.5 -168t-192.5 -59zM178 -214l4 23q27 2 35 48h-12l9 52h36l-9 -51q-12 -69 -63 -72z" />
    <glyph glyph-name="scommaaccent" unicode="&#x219;" horiz-adv-x="495" 
d="M199 -12q-85 0 -131 31.5t-46 89.5q0 15 3 30h28q-3 -13 -3 -27q0 -97 148 -97q89 0 143 36t54 101q0 43 -35 65t-118 31q-89 10 -127 35t-38 74q0 74 59.5 119t154.5 45q77 0 120 -31t43 -87q0 -14 -3 -29h-28q2 9 2 26q0 46 -34.5 70t-99.5 24q-81 0 -132.5 -36.5
t-51.5 -96.5q0 -38 33.5 -58t112.5 -29q93 -10 132.5 -37t39.5 -80q0 -80 -62 -124.5t-164 -44.5zM143 -214l4 23q27 2 35 48h-12l9 52h36l-9 -51q-12 -69 -63 -72z" />
    <glyph glyph-name="uni021A" unicode="&#x21a;" horiz-adv-x="497" 
d="M188 0l115 651h-225l5 29h481l-5 -29h-225l-115 -651h-31zM134 -214l4 23q27 2 35 48h-12l9 52h36l-9 -51q-12 -69 -63 -72z" />
    <glyph glyph-name="uni021B" unicode="&#x21b;" horiz-adv-x="325" 
d="M196 0q-53 0 -78 23t-25 72q0 22 5 50l60 339h-104l5 25h103l28 143h27l-25 -143h150l-5 -25h-149l-60 -339q-5 -28 -5 -49q0 -37 18 -53t60 -16h63l-5 -27h-63zM78 -214l4 23q27 2 35 48h-12l9 52h36l-9 -51q-12 -69 -63 -72z" />
    <glyph glyph-name="uni0237" unicode="&#x237;" horiz-adv-x="220" 
d="M-83 -182l5 27h20q46 0 67 22t32 81l99 561h30l-100 -565q-12 -68 -41.5 -97t-87.5 -29h-24z" />
    <glyph glyph-name="uni02BC" unicode="&#x2bc;" horiz-adv-x="110" 
d="M87 576l4 22q26 2 33 44l3 17h-11l10 58h36l-13 -73q-12 -65 -62 -68z" />
    <glyph glyph-name="circumflex" unicode="&#x2c6;" horiz-adv-x="500" 
d="M192 600l126 122h28l84 -122h-30l-70 95l-104 -95h-34z" />
    <glyph glyph-name="caron" unicode="&#x2c7;" horiz-adv-x="500" 
d="M297 600l-84 122h30l70 -95l104 95h34l-126 -122h-28z" />
    <glyph glyph-name="uni02C9" unicode="&#x2c9;" horiz-adv-x="500" 
d="M228 648l5 26h182l-5 -26h-182z" />
    <glyph glyph-name="breve" unicode="&#x2d8;" horiz-adv-x="500" 
d="M314 607q-91 0 -91 93v11h25v-11q0 -65 67 -65q76 0 96 76h26q-26 -104 -123 -104z" />
    <glyph glyph-name="dotaccent" unicode="&#x2d9;" horiz-adv-x="500" 
d="M298 629l11 64h36l-11 -64h-36z" />
    <glyph glyph-name="ring" unicode="&#x2da;" horiz-adv-x="500" 
d="M315 592q-32 0 -52 19.5t-20 50.5q0 36 26 61t63 25q32 0 52 -19.5t20 -50.5q0 -36 -26 -61t-63 -25zM316 616q26 0 44 18.5t18 44.5q0 21 -13 33t-34 12q-26 0 -44 -18.5t-18 -44.5q0 -21 13 -33t34 -12z" />
    <glyph glyph-name="ogonek" unicode="&#x2db;" horiz-adv-x="500" 
d="M182 -194q-68 0 -68 61q0 87 142 153l14 -18q-128 -60 -128 -133q0 -40 43 -40q28 0 60 18l-5 -27q-31 -14 -58 -14z" />
    <glyph glyph-name="tilde" unicode="&#x2dc;" horiz-adv-x="500" 
d="M369 619q-31 0 -57 30q-22 25 -41 25q-35 0 -54 -57h-25q22 83 82 83q31 0 57 -30q22 -25 41 -25q35 0 54 57h25q-22 -83 -82 -83z" />
    <glyph glyph-name="hungarumlaut" unicode="&#x2dd;" horiz-adv-x="500" 
d="M205 600l106 122h42l-117 -122h-31zM346 600l107 122h41l-117 -122h-31z" />
    <glyph glyph-name="gravecomb" unicode="&#x300;" horiz-adv-x="0" 
d="M75 600l-94 122h39l85 -122h-30z" />
    <glyph glyph-name="acutecomb" unicode="&#x301;" horiz-adv-x="0" 
d="M15 600l127 122h43l-136 -122h-34z" />
    <glyph glyph-name="uni0302" unicode="&#x302;" horiz-adv-x="0" 
d="M-58 600l126 122h28l84 -122h-30l-70 95l-104 -95h-34z" />
    <glyph glyph-name="tildecomb" unicode="&#x303;" horiz-adv-x="0" 
d="M119 619q-31 0 -57 30q-22 25 -41 25q-35 0 -54 -57h-25q22 83 82 83q31 0 57 -30q22 -25 41 -25q35 0 54 57h25q-22 -83 -82 -83z" />
    <glyph glyph-name="uni0304" unicode="&#x304;" horiz-adv-x="0" 
d="M-22 648l5 26h182l-5 -26h-182z" />
    <glyph glyph-name="uni0306" unicode="&#x306;" horiz-adv-x="0" 
d="M64 607q-91 0 -91 93v11h25v-11q0 -65 67 -65q76 0 96 76h26q-26 -104 -123 -104z" />
    <glyph glyph-name="uni0307" unicode="&#x307;" horiz-adv-x="0" 
d="M48 629l11 64h36l-11 -64h-36z" />
    <glyph glyph-name="uni0308" unicode="&#x308;" horiz-adv-x="0" 
d="M-32 629l11 64h36l-11 -64h-36zM128 629l11 64h36l-11 -64h-36z" />
    <glyph glyph-name="uni030A" unicode="&#x30a;" horiz-adv-x="0" 
d="M65 592q-32 0 -52 19.5t-20 50.5q0 36 26 61t63 25q32 0 52 -19.5t20 -50.5q0 -36 -26 -61t-63 -25zM66 616q26 0 44 18.5t18 44.5q0 21 -13 33t-34 12q-26 0 -44 -18.5t-18 -44.5q0 -21 13 -33t34 -12z" />
    <glyph glyph-name="uni030B" unicode="&#x30b;" horiz-adv-x="0" 
d="M-45 600l106 122h42l-117 -122h-31zM96 600l107 122h41l-117 -122h-31z" />
    <glyph glyph-name="uni030C" unicode="&#x30c;" horiz-adv-x="0" 
d="M47 600l-84 122h30l70 -95l104 95h34l-126 -122h-28z" />
    <glyph glyph-name="uni0312" unicode="&#x312;" horiz-adv-x="0" 
d="M43 601l9 51q12 69 63 72l-4 -23q-27 -2 -35 -48h12l-9 -52h-36z" />
    <glyph glyph-name="uni0326" unicode="&#x326;" horiz-adv-x="0" 
d="M-115 -214l4 23q27 2 35 48h-12l9 52h36l-9 -51q-12 -69 -63 -72z" />
    <glyph glyph-name="uni0327" unicode="&#x327;" horiz-adv-x="0" 
d="M-96 -194q-45 0 -78 18l13 23q24 -18 63 -18q74 0 74 48q0 15 -12.5 20.5t-46.5 5.5h-25l61 112h25l-50 -91h5q38 0 54.5 -11.5t16.5 -36.5q0 -33 -26.5 -51.5t-73.5 -18.5z" />
    <glyph glyph-name="uni0328" unicode="&#x328;" horiz-adv-x="0" 
d="M-68 -194q-68 0 -68 61q0 87 142 153l14 -18q-128 -60 -128 -133q0 -40 43 -40q28 0 60 18l-5 -27q-31 -14 -58 -14z" />
    <glyph glyph-name="uni0394" unicode="&#x394;" horiz-adv-x="591" 
d="M-31 0l385 680h33l145 -680h-563zM18 29h476l-130 610z" />
    <glyph glyph-name="uni03A9" unicode="&#x3a9;" horiz-adv-x="652" 
d="M31 0l5 29h110q-80 45 -80 168q0 27 5 55l32 181q22 128 98.5 193.5t199.5 65.5q107 0 162 -50t55 -143q0 -33 -6 -67l-32 -182q-13 -76 -54 -135t-98 -86h108l-5 -29h-196l4 24q83 11 139 73.5t72 154.5l31 177q7 40 7 70q0 164 -188 164q-226 0 -268 -237l-31 -176
q-5 -29 -5 -56q0 -149 135 -170l-4 -24h-196z" />
    <glyph glyph-name="uni03BC" unicode="&#x3bc;" horiz-adv-x="574" 
d="M18 -182l122 691h30l-59 -336q-5 -32 -5 -53q0 -105 107 -105q131 0 221 155l60 339h30l-90 -509h-26l19 118q-88 -130 -216 -130q-94 0 -120 71l-43 -241h-30z" />
    <glyph glyph-name="pi" unicode="&#x3c0;" horiz-adv-x="582" 
d="M77 0l85 482h-108l5 27h547l-5 -27h-108l-62 -351q-5 -28 -5 -45q0 -32 15 -45.5t49 -13.5h29l-5 -27h-29q-46 0 -67.5 20.5t-21.5 63.5q0 19 5 47l62 351h-271l-85 -482h-30z" />
    <glyph glyph-name="Wgrave" unicode="&#x1e80;" horiz-adv-x="876" 
d="M541 759l-94 122h39l85 -122h-30zM169 0l-80 680h31l74 -633l302 633h33l78 -633l298 633h32l-320 -680h-33l-80 630l-302 -630h-33z" />
    <glyph glyph-name="wgrave" unicode="&#x1e81;" horiz-adv-x="769" 
d="M460 600l-94 122h39l85 -122h-30zM148 0l-84 509h31l76 -471l242 471h31l76 -472l243 472h32l-264 -509h-34l-76 465l-240 -465h-33z" />
    <glyph glyph-name="Wacute" unicode="&#x1e82;" horiz-adv-x="876" 
d="M481 759l127 122h43l-136 -122h-34zM169 0l-80 680h31l74 -633l302 633h33l78 -633l298 633h32l-320 -680h-33l-80 630l-302 -630h-33z" />
    <glyph glyph-name="wacute" unicode="&#x1e83;" horiz-adv-x="769" 
d="M400 600l127 122h43l-136 -122h-34zM148 0l-84 509h31l76 -471l242 471h31l76 -472l243 472h32l-264 -509h-34l-76 465l-240 -465h-33z" />
    <glyph glyph-name="Wdieresis" unicode="&#x1e84;" horiz-adv-x="876" 
d="M434 788l11 64h36l-11 -64h-36zM594 788l11 64h36l-11 -64h-36zM169 0l-80 680h31l74 -633l302 633h33l78 -633l298 633h32l-320 -680h-33l-80 630l-302 -630h-33z" />
    <glyph glyph-name="wdieresis" unicode="&#x1e85;" horiz-adv-x="769" 
d="M353 629l11 64h36l-11 -64h-36zM513 629l11 64h36l-11 -64h-36zM148 0l-84 509h31l76 -471l242 471h31l76 -472l243 472h32l-264 -509h-34l-76 465l-240 -465h-33z" />
    <glyph glyph-name="uni1E9E" unicode="&#x1e9e;" horiz-adv-x="620" 
d="M39 0l85 482q18 102 80.5 150t177.5 48h231l-5 -27l-256 -273h19q115 0 163 -35.5t48 -120.5q0 -107 -65.5 -165.5t-183.5 -58.5h-120l5 29h114q105 0 161.5 50t56.5 143q0 72 -41 100.5t-145 28.5h-58l4 25l258 275h-188q-103 0 -156 -40t-69 -129l-85 -482h-31z" />
    <glyph glyph-name="Ygrave" unicode="&#x1ef2;" horiz-adv-x="530" 
d="M368 759l-94 122h39l85 -122h-30zM205 0l54 307l-180 373h35l164 -342l285 342h38l-312 -376l-54 -304h-30z" />
    <glyph glyph-name="ygrave" unicode="&#x1ef3;" horiz-adv-x="456" 
d="M304 600l-94 122h39l85 -122h-30zM-20 -182l5 27h24q40 0 62.5 16t50.5 67l56 102l-114 479h32l104 -445l251 445h31l-334 -594q-32 -56 -61 -76.5t-78 -20.5h-29z" />
    <glyph glyph-name="uni2002" unicode="&#x2002;" horiz-adv-x="500" 
 />
    <glyph glyph-name="uni2003" unicode="&#x2003;" horiz-adv-x="900" 
 />
    <glyph glyph-name="uni2007" unicode="&#x2007;" horiz-adv-x="600" 
 />
    <glyph glyph-name="uni2008" unicode="&#x2008;" horiz-adv-x="239" 
 />
    <glyph glyph-name="uni200B" unicode="&#x200b;" horiz-adv-x="0" 
 />
    <glyph glyph-name="figuredash" unicode="&#x2012;" horiz-adv-x="600" 
d="M34 276l4 26h540l-4 -26h-540z" />
    <glyph glyph-name="endash" unicode="&#x2013;" horiz-adv-x="500" 
d="M34 276l4 26h440l-4 -26h-440z" />
    <glyph glyph-name="emdash" unicode="&#x2014;" horiz-adv-x="900" 
d="M34 276l4 26h840l-4 -26h-840z" />
    <glyph glyph-name="quoteleft" unicode="&#x2018;" horiz-adv-x="209" 
d="M128 504l16 91q8 46 26 69t49 28l-4 -24q-32 -7 -43 -68l-3 -17h14l-14 -79h-41z" />
    <glyph glyph-name="quoteright" unicode="&#x2019;" horiz-adv-x="209" 
d="M109 492l4 24q32 7 43 68l3 17h-14l14 79h41l-16 -91q-8 -46 -26 -69t-49 -28z" />
    <glyph glyph-name="quotesinglbase" unicode="&#x201a;" horiz-adv-x="209" 
d="M3 -109l4 24q32 7 43 68l3 17h-14l14 79h41l-16 -91q-8 -46 -26 -69t-49 -28z" />
    <glyph glyph-name="quotedblleft" unicode="&#x201c;" horiz-adv-x="367" 
d="M128 504l16 91q8 46 26 69t49 28l-4 -24q-32 -7 -43 -68l-3 -17h14l-14 -79h-41zM286 504l16 91q8 46 26 69t49 28l-4 -24q-32 -7 -43 -68l-3 -17h14l-14 -79h-41z" />
    <glyph glyph-name="quotedblright" unicode="&#x201d;" horiz-adv-x="367" 
d="M109 492l4 24q32 7 43 68l3 17h-14l14 79h41l-16 -91q-8 -46 -26 -69t-49 -28zM267 492l4 24q32 7 43 68l3 17h-14l14 79h41l-16 -91q-8 -46 -26 -69t-49 -28z" />
    <glyph glyph-name="quotedblbase" unicode="&#x201e;" horiz-adv-x="367" 
d="M3 -109l4 24q32 7 43 68l3 17h-14l14 79h41l-16 -91q-8 -46 -26 -69t-49 -28zM161 -109l4 24q32 7 43 68l3 17h-14l14 79h41l-16 -91q-8 -46 -26 -69t-49 -28z" />
    <glyph glyph-name="dagger" unicode="&#x2020;" horiz-adv-x="576" 
d="M196 -182l101 571l-234 -3l5 29l233 -3l47 268h30l-47 -268l233 3l-5 -29l-232 3l-101 -571h-30z" />
    <glyph glyph-name="daggerdbl" unicode="&#x2021;" horiz-adv-x="576" 
d="M196 -182l44 248l-234 -3l5 29l233 -3l56 320l-233 -3l5 29l232 -3l44 248h30l-44 -248l234 3l-5 -29l-233 3l-56 -320l233 3l-5 -29l-232 3l-44 -248h-30z" />
    <glyph glyph-name="bullet" unicode="&#x2022;" horiz-adv-x="500" 
d="M155 203l30 172h172l-30 -172h-172z" />
    <glyph glyph-name="ellipsis" unicode="&#x2026;" horiz-adv-x="900" 
d="M85 0l14 79h40l-14 -79h-40zM385 0l14 79h40l-14 -79h-40zM685 0l14 79h40l-14 -79h-40z" />
    <glyph glyph-name="perthousand" unicode="&#x2030;" horiz-adv-x="1109" 
d="M198 321q-120 0 -120 103q0 16 3 34l17 97q24 137 161 137q120 0 120 -103q0 -16 -3 -34l-17 -97q-24 -137 -161 -137zM116 -12l530 704h32l-530 -704h-32zM199 348q110 0 131 115l16 91q3 17 3 33q0 78 -91 78q-110 0 -131 -115l-16 -91q-3 -17 -3 -33q0 -78 91 -78z
M536 -12q-120 0 -120 103q0 16 3 34l17 97q24 137 161 137q120 0 120 -103q0 -16 -3 -34l-17 -97q-24 -137 -161 -137zM881 -12q-120 0 -120 103q0 16 3 34l17 97q24 137 161 137q120 0 120 -103q0 -16 -3 -34l-17 -97q-24 -137 -161 -137zM537 15q110 0 131 115l16 91
q3 16 3 33q0 78 -91 78q-110 0 -131 -115l-16 -91q-3 -16 -3 -33q0 -78 91 -78zM882 15q110 0 131 115l16 91q3 16 3 33q0 78 -91 78q-110 0 -131 -115l-16 -91q-3 -17 -3 -33q0 -78 91 -78z" />
    <glyph glyph-name="guilsinglleft" unicode="&#x2039;" horiz-adv-x="247" 
d="M151 82l-120 173l178 171h41l-181 -174l117 -170h-35z" />
    <glyph glyph-name="guilsinglright" unicode="&#x203a;" horiz-adv-x="247" 
d="M-3 82l181 174l-117 170h35l120 -173l-178 -171h-41z" />
    <glyph glyph-name="fraction" unicode="&#x2044;" horiz-adv-x="98" 
d="M-201 -12l498 704h32l-498 -704h-32z" />
    <glyph glyph-name="uni2070" unicode="&#x2070;" 
d="M211 404q-58 0 -88.5 27t-30.5 77q0 15 3 33l26 148q11 64 52.5 98.5t107.5 34.5q58 0 88.5 -27t30.5 -77q0 -15 -3 -33l-26 -148q-11 -64 -52.5 -98.5t-107.5 -34.5zM212 431q110 0 130 111l25 142q3 18 3 32q0 79 -90 79q-110 0 -130 -111l-25 -142q-3 -18 -3 -32
q0 -79 90 -79z" />
    <glyph glyph-name="uni2074" unicode="&#x2074;" 
d="M290 416l16 90h-229l5 29l275 275h33l-49 -277h55l-5 -27h-55l-16 -90h-30zM117 533h194l42 237z" />
    <glyph glyph-name="uni2075" unicode="&#x2075;" 
d="M209 404q-56 0 -89 23.5t-33 63.5q0 9 1 14h29q-1 -6 -1 -11q0 -30 25 -46.5t68 -16.5q66 0 104 37t38 94q0 81 -89 81q-67 0 -119 -38h-23l49 205h237l-5 -27h-212l-35 -145q49 32 111 32q115 0 115 -108q0 -70 -46.5 -114t-124.5 -44z" />
    <glyph glyph-name="uni2076" unicode="&#x2076;" 
d="M218 404q-58 0 -89.5 26.5t-31.5 76.5q0 15 3 32l26 147q24 136 163 136q56 0 86 -22.5t30 -62.5q0 -9 -1 -13h-28q1 4 1 11q0 60 -88 60q-114 0 -134 -113l-14 -79q51 59 133 59q107 0 107 -103q0 -69 -43.5 -112t-119.5 -43zM219 431q62 0 97 36.5t35 90.5q0 77 -82 77
q-84 0 -136 -77l-3 -18q-3 -16 -3 -30q0 -79 92 -79z" />
    <glyph glyph-name="uni2077" unicode="&#x2077;" 
d="M144 416q47 211 242 367h-257l5 27h292l-6 -29q-198 -157 -244 -365h-32z" />
    <glyph glyph-name="uni2078" unicode="&#x2078;" 
d="M208 404q-130 0 -130 97q0 46 27.5 77t74.5 43v1q-54 18 -54 77q0 55 43 89t115 34q117 0 117 -92q0 -82 -85 -107v-1q64 -19 64 -88q0 -62 -46.5 -96t-125.5 -34zM246 632q59 0 92.5 26t33.5 70q0 69 -89 69q-59 0 -93.5 -27.5t-34.5 -70.5q0 -67 91 -67zM209 430
q66 0 104 28t38 77q0 73 -99 73q-66 0 -105 -28t-39 -77q0 -73 101 -73z" />
    <glyph glyph-name="uni2079" unicode="&#x2079;" 
d="M203 404q-56 0 -86 22.5t-30 62.5q0 9 1 13h28q-1 -4 -1 -11q0 -60 88 -60q114 0 134 113l14 79q-51 -59 -133 -59q-107 0 -107 103q0 69 43.5 112t119.5 43q58 0 89.5 -26.5t31.5 -76.5q0 -15 -3 -32l-26 -147q-24 -136 -163 -136zM223 591q84 0 136 77l3 18q3 16 3 30
q0 79 -92 79q-62 0 -97 -36.5t-35 -90.5q0 -77 82 -77z" />
    <glyph glyph-name="uni2080" unicode="&#x2080;" 
d="M117 -132q-58 0 -88.5 27t-30.5 77q0 15 3 33l26 148q11 64 52.5 98.5t107.5 34.5q58 0 88.5 -27t30.5 -77q0 -15 -3 -33l-26 -148q-11 -64 -52.5 -98.5t-107.5 -34.5zM118 -105q110 0 130 111l25 142q3 18 3 32q0 79 -90 79q-110 0 -130 -111l-25 -142q-3 -18 -3 -32
q0 -79 90 -79z" />
    <glyph glyph-name="uni2081" unicode="&#x2081;" 
d="M28 -120l5 27h100l57 327q-53 -30 -117 -33l4 23q65 5 122 50h29l-65 -367h100l-5 -27h-230z" />
    <glyph glyph-name="uni2082" unicode="&#x2082;" 
d="M-18 -120l4 22q10 55 46.5 91.5t117.5 71.5q67 29 97.5 59.5t30.5 68.5q0 66 -86 66q-104 0 -123 -93l-1 -5h-30l2 10q23 115 154 115q113 0 113 -93q0 -49 -34.5 -85t-113.5 -70q-70 -30 -102 -59.5t-40 -71.5h241l-5 -27h-271z" />
    <glyph glyph-name="uni2083" unicode="&#x2083;" 
d="M118 -132q-59 0 -92 22.5t-33 61.5q0 11 2 23l2 11h29l-1 -6q-2 -12 -2 -20q0 -65 94 -65q63 0 98 29t35 78q0 35 -21.5 51.5t-71.5 16.5h-50l4 27h50q51 0 81.5 27t30.5 69q0 66 -86 66q-105 0 -122 -83l-1 -5h-29l1 6q9 52 51 80.5t103 28.5q112 0 112 -92
q0 -41 -23 -69.5t-64 -39.5v-1q64 -16 64 -85q0 -61 -44 -96t-117 -35z" />
    <glyph glyph-name="uni2084" unicode="&#x2084;" 
d="M196 -120l16 90h-229l5 29l275 275h33l-49 -277h55l-5 -27h-55l-16 -90h-30zM23 -3h194l42 237z" />
    <glyph glyph-name="uni2085" unicode="&#x2085;" 
d="M115 -132q-56 0 -89 23.5t-33 63.5q0 9 1 14h29q-1 -6 -1 -11q0 -30 25 -46.5t68 -16.5q66 0 104 37t38 94q0 81 -89 81q-67 0 -119 -38h-23l49 205h237l-5 -27h-212l-35 -145q49 32 111 32q115 0 115 -108q0 -70 -46.5 -114t-124.5 -44z" />
    <glyph glyph-name="uni2086" unicode="&#x2086;" 
d="M124 -132q-58 0 -89.5 26.5t-31.5 76.5q0 15 3 32l26 147q24 136 163 136q56 0 86 -22.5t30 -62.5q0 -9 -1 -13h-28q1 4 1 11q0 60 -88 60q-114 0 -134 -113l-14 -79q51 59 133 59q107 0 107 -103q0 -69 -43.5 -112t-119.5 -43zM125 -105q62 0 97 36.5t35 90.5
q0 77 -82 77q-84 0 -136 -77l-3 -18q-3 -16 -3 -30q0 -79 92 -79z" />
    <glyph glyph-name="uni2087" unicode="&#x2087;" 
d="M50 -120q47 211 242 367h-257l5 27h292l-6 -29q-198 -157 -244 -365h-32z" />
    <glyph glyph-name="uni2088" unicode="&#x2088;" 
d="M114 -132q-130 0 -130 97q0 46 27.5 77t74.5 43v1q-54 18 -54 77q0 55 43 89t115 34q117 0 117 -92q0 -82 -85 -107v-1q64 -19 64 -88q0 -62 -46.5 -96t-125.5 -34zM152 96q59 0 92.5 26t33.5 70q0 69 -89 69q-59 0 -93.5 -27.5t-34.5 -70.5q0 -67 91 -67zM115 -106
q66 0 104 28t38 77q0 73 -99 73q-66 0 -105 -28t-39 -77q0 -73 101 -73z" />
    <glyph glyph-name="uni2089" unicode="&#x2089;" 
d="M109 -132q-56 0 -86 22.5t-30 62.5q0 9 1 13h28q-1 -4 -1 -11q0 -60 88 -60q114 0 134 113l14 79q-51 -59 -133 -59q-107 0 -107 103q0 69 43.5 112t119.5 43q58 0 89.5 -26.5t31.5 -76.5q0 -15 -3 -32l-26 -147q-24 -136 -163 -136zM129 55q84 0 136 77l3 18q3 16 3 30
q0 79 -92 79q-62 0 -97 -36.5t-35 -90.5q0 -77 82 -77z" />
    <glyph glyph-name="Euro" unicode="&#x20ac;" horiz-adv-x="600" 
d="M282 -12q-90 0 -139.5 43t-49.5 124q0 29 5 57l7 42h-63l5 27h63l21 118h-64l5 27h64l7 41q19 110 86.5 167.5t173.5 57.5q90 0 137 -42t47 -120q0 -15 -1 -23h-28q1 8 1 23q0 135 -157 135q-96 0 -154.5 -51.5t-75.5 -149.5l-7 -38h246l-9 -27h-241l-21 -118h219l-9 -27
h-215l-7 -40q-5 -28 -5 -55q0 -144 161 -144q171 0 215 158h28q-24 -90 -87 -137.5t-158 -47.5z" />
    <glyph glyph-name="uni20B9" unicode="&#x20b9;" horiz-adv-x="600" 
d="M398 0l-307 308l4 23h132q105 0 168 43.5t74 122.5h-359l13 27h348v5q0 67 -39.5 95.5t-133.5 28.5h-161l13 27h483l-13 -27h-187q67 -31 67 -126v-3h106l-13 -27h-95q-10 -92 -81.5 -142.5t-190.5 -50.5h-88l303 -304h-43z" />
    <glyph glyph-name="uni2113" unicode="&#x2113;" horiz-adv-x="452" 
d="M207 -12q-139 0 -139 131q0 23 4 46l71 402q31 175 185 175q61 0 90.5 -28t29.5 -88q0 -113 -95.5 -222.5t-242.5 -194.5l-8 -46q-4 -23 -4 -45q0 -103 110 -103q73 0 140 46l12 -26q-72 -47 -153 -47zM116 243q134 80 218 179.5t84 202.5q0 46 -20.5 68t-71.5 22
q-127 0 -153 -150z" />
    <glyph glyph-name="uni2116" unicode="&#x2116;" horiz-adv-x="1088" 
d="M59 0l120 680h38l307 -631l111 631h30l-120 -680h-30l-313 642l-113 -642h-30zM851 124q-65 0 -98.5 29.5t-33.5 85.5q0 16 4 40l12 68q13 72 57.5 111.5t117.5 39.5q65 0 98.5 -29.5t33.5 -85.5q0 -16 -4 -40l-12 -68q-13 -72 -57.5 -111.5t-117.5 -39.5zM851 151
q123 0 146 129l11 62q4 19 4 39q0 90 -102 90q-123 0 -146 -129l-11 -62q-4 -19 -4 -39q0 -90 102 -90zM677 0l5 27h296l-5 -27h-296z" />
    <glyph glyph-name="uni2117" unicode="&#x2117;" horiz-adv-x="784" 
d="M407 -12q-151 0 -251.5 100t-100.5 252t100.5 252t251.5 100q152 0 252 -100t100 -252t-100 -252t-252 -100zM407 15q142 0 232 91.5t90 233.5t-90 233.5t-232 91.5q-141 0 -231.5 -91.5t-90.5 -233.5t90.5 -233.5t231.5 -91.5zM300 159v362h140q63 0 92.5 -26t29.5 -81
t-29.5 -81t-92.5 -26h-110v-148h-30zM330 334h109q49 0 71.5 19t22.5 61t-22.5 61t-71.5 19h-109v-160z" />
    <glyph glyph-name="uni2120" unicode="&#x2120;" horiz-adv-x="675" 
d="M156 357q-47 0 -73.5 18.5t-26.5 52.5q0 8 2 20h31q-1 -5 -1 -14q0 -49 68 -49q45 0 70.5 19t25.5 55q0 22 -15.5 33t-60.5 20q-49 10 -68.5 26t-19.5 47q0 46 33 74.5t90 28.5q92 0 92 -67q0 -8 -2 -22h-30q1 5 1 15q0 46 -63 46q-43 0 -67 -19.5t-24 -51.5
q0 -22 15.5 -33t59.5 -19q50 -10 70 -26t20 -48q0 -50 -34 -78t-93 -28zM339 365l56 315h42l65 -271l162 271h45l-56 -315h-30l49 274l-164 -274h-25l-67 275l-49 -275h-28z" />
    <glyph glyph-name="trademark" unicode="&#x2122;" horiz-adv-x="647" 
d="M119 365l51 288h-99l5 27h228l-5 -27h-99l-51 -288h-30zM311 365l56 315h42l65 -271l162 271h45l-56 -315h-30l49 274l-164 -274h-25l-67 275l-49 -275h-28z" />
    <glyph glyph-name="uni2126" unicode="&#x2126;" horiz-adv-x="652" 
d="M31 0l5 29h110q-80 45 -80 168q0 27 5 55l32 181q22 128 98.5 193.5t199.5 65.5q107 0 162 -50t55 -143q0 -33 -6 -67l-32 -182q-13 -76 -54 -135t-98 -86h108l-5 -29h-196l4 24q83 11 139 73.5t72 154.5l31 177q7 40 7 70q0 164 -188 164q-226 0 -268 -237l-31 -176
q-5 -29 -5 -56q0 -149 135 -170l-4 -24h-196z" />
    <glyph glyph-name="estimated" unicode="&#x212e;" horiz-adv-x="808" 
d="M429 -12q-154 0 -262.5 103t-108.5 249t108.5 249t262.5 103t262.5 -103t108.5 -249v-9h-601q-5 0 -5 -5v-191q0 -10 9 -21q89 -105 228 -105q69 0 132 31.5t107 85.5h54q-52 -64 -129.5 -101t-165.5 -37zM199 351h461q6 0 6 6v193q0 12 -10 22q-94 99 -225 99
q-135 0 -228 -103q-9 -11 -9 -22v-190q0 -5 5 -5z" />
    <glyph glyph-name="uni2153" unicode="&#x2153;" horiz-adv-x="830" 
d="M165 -12l498 704h32l-498 -704h-32zM99 286l5 27h100l57 327q-53 -30 -117 -33l4 23q65 5 122 50h29l-65 -367h100l-5 -27h-230zM603 -12q-59 0 -92 22.5t-33 61.5q0 11 2 23l2 11h29l-1 -6q-2 -12 -2 -20q0 -65 94 -65q63 0 98 29t35 78q0 35 -21.5 51.5t-71.5 16.5h-50
l4 27h50q51 0 81.5 27t30.5 69q0 66 -86 66q-105 0 -122 -83l-1 -5h-29l1 6q9 52 51 80.5t103 28.5q112 0 112 -92q0 -41 -23 -69.5t-64 -39.5v-1q64 -16 64 -85q0 -61 -44 -96t-117 -35z" />
    <glyph glyph-name="uni2154" unicode="&#x2154;" horiz-adv-x="830" 
d="M54 286l4 22q10 55 46.5 91.5t117.5 71.5q67 28 97.5 59t30.5 69q0 66 -86 66q-104 0 -123 -93l-1 -5h-30l2 10q23 115 154 115q113 0 113 -93q0 -49 -34.5 -85t-113.5 -70q-70 -30 -102 -59.5t-40 -71.5h241l-5 -27h-271zM165 -12l498 704h32l-498 -704h-32zM603 -12
q-59 0 -92 22.5t-33 61.5q0 11 2 23l2 11h29l-1 -6q-2 -12 -2 -20q0 -65 94 -65q63 0 98 29t35 78q0 35 -21.5 51.5t-71.5 16.5h-50l4 27h50q51 0 81.5 27t30.5 69q0 66 -86 66q-105 0 -122 -83l-1 -5h-29l1 6q9 52 51 80.5t103 28.5q112 0 112 -92q0 -41 -23 -69.5
t-64 -39.5v-1q64 -16 64 -85q0 -61 -44 -96t-117 -35z" />
    <glyph glyph-name="uni2155" unicode="&#x2155;" horiz-adv-x="830" 
d="M165 -12l498 704h32l-498 -704h-32zM99 286l5 27h100l57 327q-53 -30 -117 -33l4 23q65 5 122 50h29l-65 -367h100l-5 -27h-230zM600 -12q-56 0 -89 23.5t-33 63.5q0 9 1 14h29q-1 -6 -1 -11q0 -30 25 -46.5t68 -16.5q66 0 104 37t38 94q0 81 -89 81q-67 0 -119 -38h-23
l49 205h237l-5 -27h-212l-35 -145q49 32 111 32q115 0 115 -108q0 -70 -46.5 -114t-124.5 -44z" />
    <glyph glyph-name="uni2156" unicode="&#x2156;" horiz-adv-x="830" 
d="M54 286l4 22q10 55 46.5 91.5t117.5 71.5q67 28 97.5 59t30.5 69q0 66 -86 66q-104 0 -123 -93l-1 -5h-30l2 10q23 115 154 115q113 0 113 -93q0 -49 -34.5 -85t-113.5 -70q-70 -30 -102 -59.5t-40 -71.5h241l-5 -27h-271zM165 -12l498 704h32l-498 -704h-32zM600 -12
q-56 0 -89 23.5t-33 63.5q0 9 1 14h29q-1 -6 -1 -11q0 -30 25 -46.5t68 -16.5q66 0 104 37t38 94q0 81 -89 81q-67 0 -119 -38h-23l49 205h237l-5 -27h-212l-35 -145q49 32 111 32q115 0 115 -108q0 -70 -46.5 -114t-124.5 -44z" />
    <glyph glyph-name="uni2157" unicode="&#x2157;" horiz-adv-x="830" 
d="M189 274q-59 0 -92 22.5t-33 61.5q0 11 2 23l2 11h29l-1 -6q-2 -12 -2 -20q0 -65 94 -65q63 0 98 29t35 78q0 35 -21.5 51.5t-71.5 16.5h-50l4 27h50q51 0 81.5 27t30.5 69q0 66 -86 66q-105 0 -122 -83l-1 -5h-29l1 6q9 52 51 80.5t103 28.5q112 0 112 -92
q0 -41 -23 -69.5t-64 -39.5v-1q64 -16 64 -85q0 -61 -44 -96t-117 -35zM165 -12l498 704h32l-498 -704h-32zM600 -12q-56 0 -89 23.5t-33 63.5q0 9 1 14h29q-1 -6 -1 -11q0 -30 25 -46.5t68 -16.5q66 0 104 37t38 94q0 81 -89 81q-67 0 -119 -38h-23l49 205h237l-5 -27h-212
l-35 -145q49 32 111 32q115 0 115 -108q0 -70 -46.5 -114t-124.5 -44z" />
    <glyph glyph-name="uni2158" unicode="&#x2158;" horiz-adv-x="830" 
d="M165 -12l498 704h32l-498 -704h-32zM267 286l16 90h-229l5 29l275 275h33l-49 -277h55l-5 -27h-55l-16 -90h-30zM94 403h194l42 237zM600 -12q-56 0 -89 23.5t-33 63.5q0 9 1 14h29q-1 -6 -1 -11q0 -30 25 -46.5t68 -16.5q66 0 104 37t38 94q0 81 -89 81q-67 0 -119 -38
h-23l49 205h237l-5 -27h-212l-35 -145q49 32 111 32q115 0 115 -108q0 -70 -46.5 -114t-124.5 -44z" />
    <glyph glyph-name="uni2159" unicode="&#x2159;" horiz-adv-x="830" 
d="M165 -12l498 704h32l-498 -704h-32zM99 286l5 27h100l57 327q-53 -30 -117 -33l4 23q65 5 122 50h29l-65 -367h100l-5 -27h-230zM609 -12q-58 0 -89.5 26.5t-31.5 76.5q0 15 3 32l26 147q24 136 163 136q56 0 86 -22.5t30 -62.5q0 -9 -1 -13h-28q1 4 1 11q0 60 -88 60
q-114 0 -134 -113l-14 -79q51 59 133 59q107 0 107 -103q0 -69 -43.5 -112t-119.5 -43zM610 15q62 0 97 36.5t35 90.5q0 77 -82 77q-84 0 -136 -77l-3 -18q-3 -16 -3 -30q0 -79 92 -79z" />
    <glyph glyph-name="uni215A" unicode="&#x215a;" horiz-adv-x="830" 
d="M165 -12l498 704h32l-498 -704h-32zM187 274q-56 0 -89 23.5t-33 63.5q0 9 1 14h29q-1 -6 -1 -11q0 -30 25 -46.5t68 -16.5q66 0 104 37t38 94q0 81 -89 81q-67 0 -119 -38h-23l49 205h237l-5 -27h-212l-35 -145q49 32 111 32q115 0 115 -108q0 -70 -46.5 -114
t-124.5 -44zM609 -12q-58 0 -89.5 26.5t-31.5 76.5q0 15 3 32l26 147q24 136 163 136q56 0 86 -22.5t30 -62.5q0 -9 -1 -13h-28q1 4 1 11q0 60 -88 60q-114 0 -134 -113l-14 -79q51 59 133 59q107 0 107 -103q0 -69 -43.5 -112t-119.5 -43zM610 15q62 0 97 36.5t35 90.5
q0 77 -82 77q-84 0 -136 -77l-3 -18q-3 -16 -3 -30q0 -79 92 -79z" />
    <glyph glyph-name="oneeighth" unicode="&#x215b;" horiz-adv-x="830" 
d="M165 -12l498 704h32l-498 -704h-32zM99 286l5 27h100l57 327q-53 -30 -117 -33l4 23q65 5 122 50h29l-65 -367h100l-5 -27h-230zM599 -12q-130 0 -130 97q0 46 27.5 77t74.5 43v1q-54 18 -54 77q0 55 43 89t115 34q117 0 117 -92q0 -82 -85 -107v-1q64 -19 64 -88
q0 -62 -46.5 -96t-125.5 -34zM637 216q59 0 92.5 26t33.5 70q0 69 -89 69q-59 0 -93.5 -27.5t-34.5 -70.5q0 -67 91 -67zM600 14q66 0 104 28t38 77q0 73 -99 73q-66 0 -105 -28t-39 -77q0 -73 101 -73z" />
    <glyph glyph-name="threeeighths" unicode="&#x215c;" horiz-adv-x="830" 
d="M189 274q-59 0 -92 22.5t-33 61.5q0 11 2 23l2 11h29l-1 -6q-2 -12 -2 -20q0 -65 94 -65q63 0 98 29t35 78q0 35 -21.5 51.5t-71.5 16.5h-50l4 27h50q51 0 81.5 27t30.5 69q0 66 -86 66q-105 0 -122 -83l-1 -5h-29l1 6q9 52 51 80.5t103 28.5q112 0 112 -92
q0 -41 -23 -69.5t-64 -39.5v-1q64 -16 64 -85q0 -61 -44 -96t-117 -35zM165 -12l498 704h32l-498 -704h-32zM599 -12q-130 0 -130 97q0 46 27.5 77t74.5 43v1q-54 18 -54 77q0 55 43 89t115 34q117 0 117 -92q0 -82 -85 -107v-1q64 -19 64 -88q0 -62 -46.5 -96t-125.5 -34z
M637 216q59 0 92.5 26t33.5 70q0 69 -89 69q-59 0 -93.5 -27.5t-34.5 -70.5q0 -67 91 -67zM600 14q66 0 104 28t38 77q0 73 -99 73q-66 0 -105 -28t-39 -77q0 -73 101 -73z" />
    <glyph glyph-name="fiveeighths" unicode="&#x215d;" horiz-adv-x="830" 
d="M165 -12l498 704h32l-498 -704h-32zM187 274q-56 0 -89 23.5t-33 63.5q0 9 1 14h29q-1 -6 -1 -11q0 -30 25 -46.5t68 -16.5q66 0 104 37t38 94q0 81 -89 81q-67 0 -119 -38h-23l49 205h237l-5 -27h-212l-35 -145q49 32 111 32q115 0 115 -108q0 -70 -46.5 -114
t-124.5 -44zM599 -12q-130 0 -130 97q0 46 27.5 77t74.5 43v1q-54 18 -54 77q0 55 43 89t115 34q117 0 117 -92q0 -82 -85 -107v-1q64 -19 64 -88q0 -62 -46.5 -96t-125.5 -34zM637 216q59 0 92.5 26t33.5 70q0 69 -89 69q-59 0 -93.5 -27.5t-34.5 -70.5q0 -67 91 -67z
M600 14q66 0 104 28t38 77q0 73 -99 73q-66 0 -105 -28t-39 -77q0 -73 101 -73z" />
    <glyph glyph-name="seveneighths" unicode="&#x215e;" horiz-adv-x="830" 
d="M128 -12l498 704h32l-498 -704h-32zM121 286q47 211 242 367h-257l5 27h292l-6 -29q-198 -157 -244 -365h-32zM599 -12q-130 0 -130 97q0 46 27.5 77t74.5 43v1q-54 18 -54 77q0 55 43 89t115 34q117 0 117 -92q0 -82 -85 -107v-1q64 -19 64 -88q0 -62 -46.5 -96
t-125.5 -34zM637 216q59 0 92.5 26t33.5 70q0 69 -89 69q-59 0 -93.5 -27.5t-34.5 -70.5q0 -67 91 -67zM600 14q66 0 104 28t38 77q0 73 -99 73q-66 0 -105 -28t-39 -77q0 -73 101 -73z" />
    <glyph glyph-name="arrowleft" unicode="&#x2190;" horiz-adv-x="800" 
d="M375 33l-306 307l306 307l20 -20l-273 -273h638v-28h-638l273 -273z" />
    <glyph glyph-name="arrowup" unicode="&#x2191;" horiz-adv-x="800" 
d="M402 0v638l-273 -274l-20 20l308 308l308 -308l-20 -20l-273 274v-638h-30z" />
    <glyph glyph-name="arrowright" unicode="&#x2192;" horiz-adv-x="800" 
d="M455 35l-20 20l273 273h-638v28h638l-273 273l20 20l306 -307z" />
    <glyph glyph-name="arrowdown" unicode="&#x2193;" horiz-adv-x="800" 
d="M414 -12l-308 308l20 20l273 -274v638h30v-638l273 274l20 -20z" />
    <glyph glyph-name="arrowboth" unicode="&#x2194;" horiz-adv-x="1000" 
d="M355 53l-286 287l286 287l20 -20l-253 -253h786l-253 253l20 20l286 -287l-286 -287l-20 20l253 253h-786l253 -253z" />
    <glyph glyph-name="arrowupdn" unicode="&#x2195;" horiz-adv-x="800" 
d="M415 -84l-288 288l20 20l253 -254v740l-253 -254l-20 20l288 288l288 -288l-20 -20l-253 254v-740l253 254l20 -20z" />
    <glyph glyph-name="uni2196" unicode="&#x2196;" horiz-adv-x="800" 
d="M687 52l-508 508l1 -371h-29v419h419v-28l-372 1l509 -509z" />
    <glyph glyph-name="uni2197" unicode="&#x2197;" horiz-adv-x="800" 
d="M141 52l-20 20l509 509l-372 -1v28h419v-419h-29l1 371z" />
    <glyph glyph-name="uni2198" unicode="&#x2198;" horiz-adv-x="800" 
d="M261 72v28l372 -1l-509 509l20 20l508 -508l-1 371h29v-419h-419z" />
    <glyph glyph-name="uni2199" unicode="&#x2199;" horiz-adv-x="800" 
d="M154 72v419h29l-1 -371l508 508l20 -20l-509 -509l372 1v-28h-419z" />
    <glyph glyph-name="partialdiff" unicode="&#x2202;" horiz-adv-x="602" 
d="M210 -12q-83 0 -129 46t-46 129q0 117 82 207t201 90q77 0 129 -40.5t66 -109.5q29 102 29 202q0 104 -38 153.5t-134 49.5q-93 0 -160 -49l6 35q64 41 158 41q111 0 155 -57t44 -171q0 -92 -24.5 -184t-68.5 -169t-115 -125t-155 -48zM213 15q97 0 169 67.5t114 177.5
q-7 82 -55 127.5t-125 45.5q-107 0 -179 -82t-72 -187q0 -72 38.5 -110.5t109.5 -38.5z" />
    <glyph glyph-name="emptyset" unicode="&#x2205;" horiz-adv-x="851" 
d="M108 -12l-19 18l91 91q-91 99 -91 243q0 152 100 252t252 100q144 0 241 -91l91 91l19 -18l-91 -91q91 -99 91 -243q0 -152 -100 -252t-251 -100q-145 0 -242 91zM201 118l461 463q-90 84 -221 84q-139 0 -230.5 -92.5t-91.5 -232.5q0 -132 82 -222zM441 15
q138 0 229.5 92.5t91.5 232.5q0 132 -82 222l-461 -463q90 -84 222 -84z" />
    <glyph glyph-name="uni2206" unicode="&#x2206;" horiz-adv-x="591" 
d="M-31 0l385 680h33l145 -680h-563zM18 29h476l-130 610z" />
    <glyph glyph-name="product" unicode="&#x220f;" horiz-adv-x="789" 
d="M34 -183l168 954h567l-168 -954h-30l163 927h-507l-163 -927h-30z" />
    <glyph glyph-name="summation" unicode="&#x2211;" horiz-adv-x="598" 
d="M-55 -183l5 30l431 447l-273 447l5 30h554l-5 -27h-523l279 -453l-432 -447h518l-5 -27h-554z" />
    <glyph glyph-name="minus" unicode="&#x2212;" horiz-adv-x="600" 
d="M65 294l5 28h484l-5 -28h-484z" />
    <glyph glyph-name="uni2215" unicode="&#x2215;" horiz-adv-x="384" 
d="M-33 -12l446 704h34l-446 -704h-34z" />
    <glyph glyph-name="uni2219" unicode="&#x2219;" horiz-adv-x="239" 
d="M101 268l14 79h41l-14 -79h-41z" />
    <glyph glyph-name="radical" unicode="&#x221a;" horiz-adv-x="600" 
d="M189 -183l-66 364h-78l5 28h95l65 -344l456 906h31l-480 -954h-28z" />
    <glyph glyph-name="infinity" unicode="&#x221e;" horiz-adv-x="936" 
d="M229 110q-75 0 -117.5 44.5t-42.5 121.5q0 101 66.5 175.5t164.5 74.5q41 0 71.5 -13.5t52 -41.5t34 -54t26.5 -67q61 93 119.5 134.5t127.5 41.5q76 0 117 -43.5t41 -120.5q0 -102 -65.5 -177t-163.5 -75q-33 0 -60 10t-45 25.5t-34 40.5t-25.5 47t-20.5 54
q-61 -93 -119.5 -135t-126.5 -42zM232 137q64 0 117 41.5t115 140.5q-12 34 -20 54.5t-22.5 47.5t-30.5 42t-40 25.5t-54 10.5q-85 0 -142 -68.5t-57 -155.5q0 -64 34.5 -101t99.5 -37zM662 137q85 0 141.5 69t56.5 156q0 64 -34.5 100.5t-98.5 36.5t-117 -41.5t-115 -139.5
q15 -44 25.5 -69t30 -55t47 -43.5t64.5 -13.5z" />
    <glyph glyph-name="integral" unicode="&#x222b;" horiz-adv-x="290" 
d="M-35 -194q-28 0 -57 11l5 30q24 -14 53 -14q46 0 73.5 32t39.5 100l118 668q14 79 49 115.5t94 36.5q24 0 57 -10l-6 -30q-26 13 -52 13q-47 0 -74 -30.5t-39 -99.5l-118 -668q-14 -78 -48 -116t-95 -38z" />
    <glyph glyph-name="approxequal" unicode="&#x2248;" horiz-adv-x="600" 
d="M431 343q-62 0 -112 53q-27 28 -48 38.5t-50 10.5q-88 0 -116 -96h-26q33 123 145 123q62 0 112 -53q27 -28 48.5 -38.5t49.5 -10.5q88 0 116 96h26q-33 -123 -145 -123zM392 125q-62 0 -112 53q-27 28 -48.5 38.5t-49.5 10.5q-88 0 -116 -96h-26q33 123 145 123
q62 0 112 -53q27 -28 48 -38.5t50 -10.5q88 0 116 96h26q-33 -123 -145 -123z" />
    <glyph glyph-name="notequal" unicode="&#x2260;" horiz-adv-x="600" 
d="M582 587l-143 -156h134l-5 -28h-154l-174 -190h295l-5 -28h-315l-142 -155h-36l142 155h-133l5 28h153l174 190h-294l5 28h314l143 156h36z" />
    <glyph glyph-name="lessequal" unicode="&#x2264;" horiz-adv-x="600" 
d="M515 104l-445 215l4 25l522 216l-6 -33l-478 -198l408 -197zM13 0l5 28h484l-5 -28h-484z" />
    <glyph glyph-name="greaterequal" unicode="&#x2265;" horiz-adv-x="600" 
d="M31 104l6 33l479 198l-409 197l5 28l446 -215l-4 -25zM13 0l5 28h484l-5 -28h-484z" />
    <glyph glyph-name="lozenge" unicode="&#x25ca;" horiz-adv-x="600" 
d="M250 -32l-201 372l331 372l201 -372zM256 16l291 328l-173 320l-291 -328z" />
    <glyph glyph-name="uniF8FF" unicode="&#xf8ff;" horiz-adv-x="649" 
d="M277 50q-101 0 -163 61t-62 163q0 101 64.5 163t185.5 62h50v116h157v-116h132v-149h-132v-51q0 -116 -63.5 -182.5t-168.5 -66.5zM280 205q72 0 72 92v53h-49q-89 0 -89 -76q0 -32 17.5 -50.5t48.5 -18.5z" />
    <glyph glyph-name="Iacute_J.loclNLD" horiz-adv-x="787" 
d="M163 759l127 122h43l-136 -122h-34zM730 759l127 122h43l-136 -122h-34zM59 0l120 680h31l-120 -680h-31zM432 -12q-97 0 -142.5 39.5t-45.5 122.5q0 26 5 55l2 11h29l-1 -6q-6 -33 -6 -63q0 -69 38.5 -99.5t120.5 -30.5q105 0 160.5 50.5t75.5 164.5l79 448h31l-80 -455
q-21 -121 -84.5 -179t-181.5 -58z" />
    <glyph glyph-name="iacute_j.loclNLD" horiz-adv-x="440" 
d="M125 600l127 122h43l-136 -122h-34zM345 600l127 122h43l-136 -122h-34zM50 0l90 509h30l-90 -509h-30zM137 -182l5 27h20q46 0 67 22t32 81l99 561h30l-100 -565q-12 -68 -41.5 -97t-87.5 -29h-24z" />
    <glyph glyph-name="i.loclTRK" horiz-adv-x="220" 
d="M158 626l12 70h36l-12 -70h-36zM50 0l90 509h30l-90 -509h-30z" />
    <glyph glyph-name="germandbls.calt" horiz-adv-x="620" 
d="M39 0l85 482q18 102 80.5 150t177.5 48h231l-5 -27l-256 -273h19q115 0 163 -35.5t48 -120.5q0 -107 -65.5 -165.5t-183.5 -58.5h-120l5 29h114q105 0 161.5 50t56.5 143q0 72 -41 100.5t-145 28.5h-58l4 25l258 275h-188q-103 0 -156 -40t-69 -129l-85 -482h-31z" />
    <glyph glyph-name="zero.pf" horiz-adv-x="638" 
d="M274 -12q-94 0 -143.5 42t-49.5 125q0 30 5 59l45 255q19 110 86.5 166.5t177.5 56.5q94 0 143.5 -42t49.5 -125q0 -30 -5 -59l-45 -255q-19 -110 -86.5 -166.5t-177.5 -56.5zM276 15q98 0 157 51.5t76 150.5l44 249q5 29 5 55q0 144 -165 144q-98 0 -157 -51.5
t-76 -150.5l-44 -249q-5 -29 -5 -55q0 -144 165 -144z" />
    <glyph glyph-name="one.pf" horiz-adv-x="408" 
d="M215 0l112 637q-90 -56 -207 -67l4 24q117 12 211 86h30l-120 -680h-30z" />
    <glyph glyph-name="two.pf" horiz-adv-x="572" 
d="M19 0l5 28q16 91 78 153t199 122q123 54 177 108.5t54 125.5q0 128 -162 128q-94 0 -151.5 -44t-72.5 -127l-2 -11h-29l3 17q16 90 82.5 141t173.5 51q186 0 186 -154q0 -82 -57.5 -142.5t-190.5 -117.5q-129 -55 -186.5 -111t-72.5 -139h418l-5 -28h-447z" />
    <glyph glyph-name="three.pf" horiz-adv-x="594" 
d="M251 -12q-97 0 -149.5 39.5t-52.5 105.5q0 18 4 42l2 11h29l-2 -11q-3 -18 -3 -36q0 -124 172 -124q111 0 174.5 52.5t63.5 142.5q0 67 -39 97.5t-127 30.5h-83l4 27h85q90 0 145.5 49t55.5 126q0 125 -157 125q-93 0 -152 -43.5t-71 -116.5l-1 -6h-29l2 11
q15 84 82.5 133t170.5 49q88 0 135.5 -38.5t47.5 -113.5q0 -70 -40.5 -119t-109.5 -67v-1q111 -26 111 -143q0 -101 -73.5 -161.5t-194.5 -60.5z" />
    <glyph glyph-name="four.pf" horiz-adv-x="587" 
d="M391 0l30 167h-392l5 30l472 483h35l-86 -485h95l-5 -28h-95l-29 -167h-30zM68 195h357l79 443z" />
    <glyph glyph-name="five.pf" horiz-adv-x="583" 
d="M241 -12q-92 0 -146 39t-54 104q0 10 2 26h29q-2 -14 -2 -24q0 -55 46 -86.5t125 -31.5q118 0 187 67.5t69 172.5q0 156 -169 156q-115 0 -206 -71h-23l82 340h392l-5 -28h-367l-65 -270q85 56 195 56q196 0 196 -181q0 -118 -78.5 -193.5t-207.5 -75.5z" />
    <glyph glyph-name="six.pf" horiz-adv-x="630" 
d="M280 -12q-95 0 -145 43t-50 125q0 27 5 56l45 255q19 110 88.5 167.5t180.5 57.5q89 0 137.5 -37.5t48.5 -104.5q0 -14 -1 -21h-28q1 6 1 16q0 120 -158 120q-204 0 -241 -206l-26 -145q88 111 233 111q87 0 133.5 -41t46.5 -119q0 -125 -72.5 -201t-197.5 -76zM280 15
q113 0 177 68t64 179q0 136 -155 136q-151 0 -239 -142l-7 -41q-5 -28 -5 -56q0 -144 165 -144z" />
    <glyph glyph-name="seven.pf" horiz-adv-x="533" 
d="M112 0q81 366 425 651h-444l5 29h482l-6 -32q-350 -282 -430 -648h-32z" />
    <glyph glyph-name="eight.pf" horiz-adv-x="620" 
d="M260 -12q-212 0 -212 160q0 79 49.5 133t134.5 74v1q-102 26 -102 131q0 92 73 148.5t186 56.5q92 0 142 -39.5t50 -114.5q0 -69 -42 -116.5t-115 -65.5v-1q120 -29 120 -150q0 -101 -77 -159t-207 -58zM323 367q106 0 168 46.5t62 124.5q0 127 -163 127
q-105 0 -168.5 -49.5t-63.5 -127.5q0 -121 165 -121zM260 15q117 0 186 51t69 139q0 135 -182 135q-117 0 -186 -50t-69 -138q0 -137 182 -137z" />
    <glyph glyph-name="nine.pf" horiz-adv-x="630" 
d="M256 -12q-89 0 -137.5 37.5t-48.5 104.5q0 14 1 21h28q-1 -6 -1 -16q0 -120 158 -120q204 0 241 206l26 145q-88 -111 -233 -111q-87 0 -133.5 41t-46.5 119q0 125 72.5 201t197.5 76q95 0 145 -43t50 -125q0 -27 -5 -56l-45 -255q-19 -110 -88.5 -167.5t-180.5 -57.5z
M294 282q151 0 239 142l7 41q5 28 5 56q0 144 -165 144q-113 0 -177 -68t-64 -179q0 -136 155 -136z" />
    <glyph glyph-name="zero.numr" 
d="M188 274q-58 0 -88.5 27t-30.5 77q0 15 3 33l26 148q11 64 52.5 98.5t107.5 34.5q58 0 88.5 -27t30.5 -77q0 -15 -3 -33l-26 -148q-11 -64 -52.5 -98.5t-107.5 -34.5zM189 301q110 0 130 111l25 142q3 18 3 32q0 79 -90 79q-110 0 -130 -111l-25 -142q-3 -18 -3 -32
q0 -79 90 -79z" />
    <glyph glyph-name="one.numr" 
d="M99 286l5 27h100l57 327q-53 -30 -117 -33l4 23q65 5 122 50h29l-65 -367h100l-5 -27h-230z" />
    <glyph glyph-name="two.numr" 
d="M54 286l4 22q10 55 46.5 91.5t117.5 71.5q67 28 97.5 59t30.5 69q0 66 -86 66q-104 0 -123 -93l-1 -5h-30l2 10q23 115 154 115q113 0 113 -93q0 -49 -34.5 -85t-113.5 -70q-70 -30 -102 -59.5t-40 -71.5h241l-5 -27h-271z" />
    <glyph glyph-name="three.numr" 
d="M189 274q-59 0 -92 22.5t-33 61.5q0 11 2 23l2 11h29l-1 -6q-2 -12 -2 -20q0 -65 94 -65q63 0 98 29t35 78q0 35 -21.5 51.5t-71.5 16.5h-50l4 27h50q51 0 81.5 27t30.5 69q0 66 -86 66q-105 0 -122 -83l-1 -5h-29l1 6q9 52 51 80.5t103 28.5q112 0 112 -92
q0 -41 -23 -69.5t-64 -39.5v-1q64 -16 64 -85q0 -61 -44 -96t-117 -35z" />
    <glyph glyph-name="four.numr" 
d="M267 286l16 90h-229l5 29l275 275h33l-49 -277h55l-5 -27h-55l-16 -90h-30zM94 403h194l42 237z" />
    <glyph glyph-name="five.numr" 
d="M187 274q-56 0 -89 23.5t-33 63.5q0 9 1 14h29q-1 -6 -1 -11q0 -30 25 -46.5t68 -16.5q66 0 104 37t38 94q0 81 -89 81q-67 0 -119 -38h-23l49 205h237l-5 -27h-212l-35 -145q49 32 111 32q115 0 115 -108q0 -70 -46.5 -114t-124.5 -44z" />
    <glyph glyph-name="six.numr" 
d="M195 274q-58 0 -89.5 26.5t-31.5 76.5q0 15 3 32l26 147q24 136 163 136q56 0 86 -22.5t30 -62.5q0 -9 -1 -13h-28q1 4 1 11q0 60 -88 60q-114 0 -134 -113l-14 -79q51 59 133 59q107 0 107 -103q0 -69 -43.5 -112t-119.5 -43zM196 301q62 0 97 36.5t35 90.5q0 77 -82 77
q-84 0 -136 -77l-3 -18q-3 -16 -3 -30q0 -79 92 -79z" />
    <glyph glyph-name="seven.numr" 
d="M121 286q47 211 242 367h-257l5 27h292l-6 -29q-198 -157 -244 -365h-32z" />
    <glyph glyph-name="eight.numr" 
d="M186 274q-130 0 -130 97q0 46 27.5 77t74.5 43v1q-54 18 -54 77q0 55 43 89t115 34q117 0 117 -92q0 -82 -85 -107v-1q64 -19 64 -88q0 -62 -46.5 -96t-125.5 -34zM224 502q59 0 92.5 26t33.5 70q0 69 -89 69q-59 0 -93.5 -27.5t-34.5 -70.5q0 -67 91 -67zM187 300
q66 0 104 28t38 77q0 73 -99 73q-66 0 -105 -28t-39 -77q0 -73 101 -73z" />
    <glyph glyph-name="nine.numr" 
d="M180 274q-56 0 -86 22.5t-30 62.5q0 9 1 13h28q-1 -4 -1 -11q0 -60 88 -60q114 0 134 113l14 79q-51 -59 -133 -59q-107 0 -107 103q0 69 43.5 112t119.5 43q58 0 89.5 -26.5t31.5 -76.5q0 -15 -3 -32l-26 -147q-24 -136 -163 -136zM200 461q84 0 136 77l3 18q3 16 3 30
q0 79 -92 79q-62 0 -97 -36.5t-35 -90.5q0 -77 82 -77z" />
    <glyph glyph-name="zero.dnom" 
d="M138 -12q-58 0 -88.5 27t-30.5 77q0 15 3 33l26 148q11 64 52.5 98.5t107.5 34.5q58 0 88.5 -27t30.5 -77q0 -15 -3 -33l-26 -148q-11 -64 -52.5 -98.5t-107.5 -34.5zM139 15q110 0 130 111l25 142q3 18 3 32q0 79 -90 79q-110 0 -130 -111l-25 -142q-3 -18 -3 -32
q0 -79 90 -79z" />
    <glyph glyph-name="one.dnom" 
d="M49 0l5 27h100l57 327q-53 -30 -117 -33l4 23q65 5 122 50h29l-65 -367h100l-5 -27h-230z" />
    <glyph glyph-name="two.dnom" 
d="M3 0l4 22q10 55 46.5 91.5t117.5 71.5q67 29 97.5 59.5t30.5 68.5q0 66 -86 66q-104 0 -123 -93l-1 -5h-30l2 10q23 115 154 115q113 0 113 -93q0 -49 -34.5 -85t-113.5 -70q-70 -30 -102 -59.5t-40 -71.5h241l-5 -27h-271z" />
    <glyph glyph-name="three.dnom" 
d="M139 -12q-59 0 -92 22.5t-33 61.5q0 11 2 23l2 11h29l-1 -6q-2 -12 -2 -20q0 -65 94 -65q63 0 98 29t35 78q0 35 -21.5 51.5t-71.5 16.5h-50l4 27h50q51 0 81.5 27t30.5 69q0 66 -86 66q-105 0 -122 -83l-1 -5h-29l1 6q9 52 51 80.5t103 28.5q112 0 112 -92
q0 -41 -23 -69.5t-64 -39.5v-1q64 -16 64 -85q0 -61 -44 -96t-117 -35z" />
    <glyph glyph-name="four.dnom" 
d="M217 0l16 90h-229l5 29l275 275h33l-49 -277h55l-5 -27h-55l-16 -90h-30zM44 117h194l42 237z" />
    <glyph glyph-name="five.dnom" 
d="M136 -12q-56 0 -89 23.5t-33 63.5q0 9 1 14h29q-1 -6 -1 -11q0 -30 25 -46.5t68 -16.5q66 0 104 37t38 94q0 81 -89 81q-67 0 -119 -38h-23l49 205h237l-5 -27h-212l-35 -145q49 32 111 32q115 0 115 -108q0 -70 -46.5 -114t-124.5 -44z" />
    <glyph glyph-name="six.dnom" 
d="M145 -12q-58 0 -89.5 26.5t-31.5 76.5q0 15 3 32l26 147q24 136 163 136q56 0 86 -22.5t30 -62.5q0 -9 -1 -13h-28q1 4 1 11q0 60 -88 60q-114 0 -134 -113l-14 -79q51 59 133 59q107 0 107 -103q0 -69 -43.5 -112t-119.5 -43zM146 15q62 0 97 36.5t35 90.5q0 77 -82 77
q-84 0 -136 -77l-3 -18q-3 -16 -3 -30q0 -79 92 -79z" />
    <glyph glyph-name="seven.dnom" 
d="M71 0q47 211 242 367h-257l5 27h292l-6 -29q-198 -157 -244 -365h-32z" />
    <glyph glyph-name="eight.dnom" 
d="M135 -12q-130 0 -130 97q0 46 27.5 77t74.5 43v1q-54 18 -54 77q0 55 43 89t115 34q117 0 117 -92q0 -82 -85 -107v-1q64 -19 64 -88q0 -62 -46.5 -96t-125.5 -34zM173 216q59 0 92.5 26t33.5 70q0 69 -89 69q-59 0 -93.5 -27.5t-34.5 -70.5q0 -67 91 -67zM136 14
q66 0 104 28t38 77q0 73 -99 73q-66 0 -105 -28t-39 -77q0 -73 101 -73z" />
    <glyph glyph-name="nine.dnom" 
d="M130 -12q-56 0 -86 22.5t-30 62.5q0 9 1 13h28q-1 -4 -1 -11q0 -60 88 -60q114 0 134 113l14 79q-51 -59 -133 -59q-107 0 -107 103q0 69 43.5 112t119.5 43q58 0 89.5 -26.5t31.5 -76.5q0 -15 -3 -32l-26 -147q-24 -136 -163 -136zM150 175q84 0 136 77l3 18q3 16 3 30
q0 79 -92 79q-62 0 -97 -36.5t-35 -90.5q0 -77 82 -77z" />
    <glyph glyph-name="exclamdown.case" horiz-adv-x="257" 
d="M169 601l14 79h41l-14 -79h-41zM68 0l26 144l63 331h21l-55 -331l-24 -144h-31z" />
    <glyph glyph-name="questiondown.case" horiz-adv-x="413" 
d="M265 601l14 79h41l-14 -79h-41zM164 -12q-75 0 -116 34.5t-41 96.5q0 64 27.5 106t94.5 79q57 32 83 63t34 80l5 28h25l-5 -28q-10 -58 -37 -93t-88 -70q-61 -34 -85.5 -70.5t-24.5 -93.5q0 -51 33.5 -78t97.5 -27q76 0 124 39t61 112h28q-15 -84 -71.5 -131t-144.5 -47z
" />
    <glyph glyph-name="at.case" horiz-adv-x="762" 
d="M388 -16q-157 0 -245.5 84t-88.5 229q0 169 113 284t286 115q139 0 223 -76t84 -201q0 -63 -20.5 -121.5t-64 -99t-100.5 -40.5q-77 0 -77 74v7q-63 -81 -149 -81q-53 0 -80 27t-27 77q0 20 3 38l14 79q12 67 50.5 102.5t98.5 35.5q89 0 124 -81l14 68h26l-42 -238
q-3 -16 -3 -28q0 -53 53 -53q71 0 111.5 72.5t40.5 160.5q0 115 -76 183t-202 68q-162 0 -266 -107t-104 -264q0 -134 80.5 -210.5t222.5 -76.5q118 0 209 55l11 -27q-88 -55 -219 -55zM351 185q84 0 153 99l19 110q-31 96 -115 96q-99 0 -120 -117l-13 -74q-3 -16 -3 -35
q0 -79 79 -79z" />
    <glyph glyph-name="parenleft.case" horiz-adv-x="317" 
d="M234 -96q-153 72 -153 311q0 113 33.5 224.5t105 205t168.5 131.5l-4 -26q-85 -39 -149 -130t-94.5 -198.5t-30.5 -214.5q0 -208 129 -279z" />
    <glyph glyph-name="parenright.case" horiz-adv-x="317" 
d="M-41 -96l4 26q85 39 149 130t94.5 198.5t30.5 214.5q0 208 -129 279l5 24q153 -72 153 -311q0 -113 -33.5 -224.5t-105 -205t-168.5 -131.5z" />
    <glyph glyph-name="braceleft.case" horiz-adv-x="317" 
d="M201 -84q-111 0 -111 102q0 20 5 48l32 181q3 17 3 29q0 29 -18 40.5t-61 11.5l4 24q51 0 74 18t31 64l32 182q13 76 51.5 112t105.5 36h37l-4 -24h-34q-106 0 -128 -126l-31 -176q-8 -45 -25 -68t-47 -30v-1q41 -12 41 -63q0 -14 -3 -31l-32 -181q-4 -23 -4 -41
q0 -83 86 -83h36l-5 -24h-35z" />
    <glyph glyph-name="braceright.case" horiz-adv-x="317" 
d="M-39 -84l4 24h34q106 0 128 126l31 176q8 45 25 68t47 30v1q-41 12 -41 63q0 14 3 31l32 181q4 23 4 41q0 83 -86 83h-36l5 24h35q111 0 111 -102q0 -20 -5 -48l-32 -181q-3 -16 -3 -29q0 -29 18 -40.5t61 -11.5l-4 -24q-51 0 -74 -18t-31 -64l-32 -182
q-13 -76 -51.5 -112t-105.5 -36h-37z" />
    <glyph glyph-name="bracketleft.case" horiz-adv-x="317" 
d="M44 -84l150 848h192l-4 -24h-163l-142 -800h164l-5 -24h-192z" />
    <glyph glyph-name="bracketright.case" horiz-adv-x="317" 
d="M-39 -84l4 24h163l142 800h-164l5 24h192l-150 -848h-192z" />
    <glyph glyph-name="bar.case" horiz-adv-x="270" 
d="M46 -160l177 1000h30l-177 -1000h-30z" />
    <glyph glyph-name="brokenbar.case" horiz-adv-x="270" 
d="M152 440l71 400h30l-71 -400h-30zM46 -160l71 400h30l-71 -400h-30z" />
    <glyph glyph-name="periodcentered.case" horiz-adv-x="239" 
d="M107 300l14 79h41l-14 -79h-41z" />
    <glyph glyph-name="bullet.case" horiz-adv-x="500" 
d="M164 254l30 172h172l-30 -172h-172z" />
    <glyph glyph-name="hyphen.case" horiz-adv-x="355" 
d="M48 326l5 28h285l-5 -28h-285z" />
    <glyph glyph-name="uni00AD.case" horiz-adv-x="355" 
d="M48 326l5 28h285l-5 -28h-285z" />
    <glyph glyph-name="figuredash.case" horiz-adv-x="600" 
d="M43 327l4 26h540l-4 -26h-540z" />
    <glyph glyph-name="endash.case" horiz-adv-x="500" 
d="M43 327l4 26h440l-4 -26h-440z" />
    <glyph glyph-name="emdash.case" horiz-adv-x="900" 
d="M43 327l4 26h840l-4 -26h-840z" />
    <glyph glyph-name="guillemotleft.case" horiz-adv-x="430" 
d="M166 168l-120 173l178 171h41l-181 -174l117 -170h-35zM349 168l-120 173l178 171h41l-181 -174l117 -170h-35z" />
    <glyph glyph-name="guillemotright.case" horiz-adv-x="430" 
d="M12 168l181 174l-117 170h35l120 -173l-178 -171h-41zM195 168l181 174l-117 170h35l120 -173l-178 -171h-41z" />
    <glyph glyph-name="guilsinglleft.case" horiz-adv-x="247" 
d="M166 168l-120 173l178 171h41l-181 -174l117 -170h-35z" />
    <glyph glyph-name="guilsinglright.case" horiz-adv-x="247" 
d="M12 168l181 174l-117 170h35l120 -173l-178 -171h-41z" />
    <glyph glyph-name="caron.alt" horiz-adv-x="110" 
d="M73 545l74 185h34l-83 -185h-25z" />
    <glyph glyph-name="ringacute" horiz-adv-x="500" 
d="M295 771l127 122h43l-136 -122h-34zM311 571q-32 0 -52 19.5t-20 50.5q0 36 26 61t63 25q32 0 52 -19.5t20 -50.5q0 -36 -26 -61t-63 -25zM312 595q26 0 44 18.5t18 44.5q0 21 -13 33t-34 12q-26 0 -44 -18.5t-18 -44.5q0 -21 13 -33t34 -12z" />
    <glyph glyph-name="NULL" horiz-adv-x="0" 
 />
    </font>
</defs>
</svg>
