<?xml version="1.0" standalone="no"?>
<!DOCTYPE svg PUBLIC "-//W3C//DTD SVG 1.1//EN" "http://www.w3.org/Graphics/SVG/1.1/DTD/svg11.dtd" >
<svg xmlns="http://www.w3.org/2000/svg" xmlns:xlink="http://www.w3.org/1999/xlink" version="1.1">
<metadata>
Created by FontForge 20170731 at Fri Feb  5 17:51:02 2016
 By Aleksey,,,
Copyright (c) 2014-2015 by Ryoichi Tsunekawa. All rights reserved.
</metadata>
<defs>
<font id="BioSans-ExtraLight" horiz-adv-x="366" >
  <font-face 
    font-family="Bio Sans ExtraLight"
    font-weight="250"
    font-stretch="normal"
    units-per-em="1000"
    panose-1="2 11 3 6 2 2 2 4 2 4"
    ascent="800"
    descent="-200"
    x-height="509"
    cap-height="680"
    bbox="-154 -226 1064 1051"
    underline-thickness="24"
    underline-position="-148"
    unicode-range="U+000D-FB02"
  />
<missing-glyph horiz-adv-x="698" 
d="M104 0v680h490v-680h-490zM349 364l197 289h-394zM134 53l196 287l-196 287v-574zM564 53v574l-196 -287zM152 27h394l-197 289z" />
    <glyph glyph-name="fi" unicode="fi" horiz-adv-x="544" 
d="M122 0v484h-108v25h108v77q0 144 124 144h69v-27h-67q-50 0 -73 -28.5t-23 -90.5v-75h159v-25h-159v-484h-30zM416 626v70h36v-70h-36zM419 0v509h30v-509h-30z" />
    <glyph glyph-name="fl" unicode="fl" horiz-adv-x="544" 
d="M122 0v484h-108v25h108v77q0 144 124 144h69v-27h-67q-50 0 -73 -28.5t-23 -90.5v-75h159v-25h-159v-484h-30zM419 0v730h30v-730h-30z" />
    <glyph glyph-name=".notdef" horiz-adv-x="698" 
d="M104 0v680h490v-680h-490zM349 364l197 289h-394zM134 53l196 287l-196 287v-574zM564 53v574l-196 -287zM152 27h394l-197 289z" />
    <glyph glyph-name=".null" horiz-adv-x="0" 
 />
    <glyph glyph-name="nonmarkingreturn" horiz-adv-x="333" 
 />
    <glyph glyph-name="CR" unicode="&#xd;" horiz-adv-x="274" 
 />
    <glyph glyph-name="space" unicode=" " horiz-adv-x="274" 
 />
    <glyph glyph-name="exclam" unicode="!" horiz-adv-x="257" 
d="M118 205l-4 331l-1 144h31l-1 -144l-4 -331h-21zM108 0v79h41v-79h-41z" />
    <glyph glyph-name="quotedbl" unicode="&#x22;" horiz-adv-x="334" 
d="M78 501l-8 179h39l-8 -179h-23zM233 501l-8 179h39l-8 -179h-23z" />
    <glyph glyph-name="numbersign" unicode="#" horiz-adv-x="600" 
d="M125 0l24 193h-108v26h112l32 252h-109v26h112l23 183h30l-23 -183h204l23 183h30l-23 -183h107v-26h-110l-32 -252h107v-26h-111l-24 -193h-30l24 193h-204l-24 -193h-30zM183 219h204l32 252h-204z" />
    <glyph glyph-name="dollar" unicode="$" horiz-adv-x="600" 
d="M290 -72v72q-107 2 -165 47t-58 127h28q0 -142 195 -147v307q-115 17 -163 55t-48 114q0 83 54 129t157 48v72h27v-72q96 -4 146.5 -47.5t50.5 -122.5h-28q0 135 -169 143v-296q116 -17 163.5 -56.5t47.5 -119.5q0 -85 -53.5 -131t-157.5 -50v-72h-27zM290 361v292
q-182 -3 -182 -145q0 -65 41 -98t141 -49zM317 27q182 6 182 149q0 67 -41 102t-141 52v-303z" />
    <glyph glyph-name="percent" unicode="%" horiz-adv-x="764" 
d="M184 321q-67 0 -103 35t-36 101v99q0 66 36 101t103 35t103 -35t36 -101v-99q0 -66 -36 -101t-103 -35zM163 -12l406 704h32l-406 -704h-32zM184 348q109 0 109 112v94q0 111 -109 111t-109 -111v-94q0 -112 109 -112zM580 -12q-67 0 -103 35t-36 101v99q0 66 36 101
t103 35t103 -35t36 -101v-99q0 -66 -36 -101t-103 -35zM580 15q109 0 109 112v94q0 111 -109 111t-109 -111v-94q0 -112 109 -112z" />
    <glyph glyph-name="ampersand" unicode="&#x26;" horiz-adv-x="653" 
d="M277 -12q-101 0 -161 48t-60 130q0 63 37.5 110t123.5 91q-47 47 -66.5 84.5t-19.5 79.5q0 72 48 116.5t125 44.5q73 0 116.5 -38t43.5 -99q0 -62 -44.5 -102t-153.5 -92l228 -223q39 70 45 180h29q-6 -121 -52 -201l119 -117h-40l-95 92q-76 -104 -223 -104zM245 381
q106 48 148.5 84.5t42.5 87.5q0 49 -36.5 80.5t-96.5 31.5q-63 0 -103 -36t-40 -98q0 -39 19 -71.5t66 -78.5zM276 15q134 0 203 98l-242 234q-82 -42 -116.5 -84t-34.5 -97q0 -70 51 -110.5t139 -40.5z" />
    <glyph glyph-name="quotesingle" unicode="'" horiz-adv-x="179" 
d="M78 501l-8 179h39l-8 -179h-23z" />
    <glyph glyph-name="parenleft" unicode="(" horiz-adv-x="317" 
d="M296 -130q-103 44 -160.5 158t-57.5 278t57.5 278t160.5 158v-25q-90 -45 -139 -152t-49 -259t49 -259t139 -152v-25z" />
    <glyph glyph-name="parenright" unicode=")" horiz-adv-x="317" 
d="M21 -130v25q90 45 139 152t49 259t-49 259t-139 152v25q103 -44 160.5 -158t57.5 -278t-57.5 -278t-160.5 -158z" />
    <glyph glyph-name="asterisk" unicode="*" horiz-adv-x="386" 
d="M94 326l-24 16l104 141l-166 51l9 27l165 -56l-3 175h28l-3 -175l165 56l9 -27l-166 -51l104 -141l-24 -16l-99 143z" />
    <glyph glyph-name="plus" unicode="+" horiz-adv-x="600" 
d="M285 59v235h-227v28h227v236h30v-236h227v-28h-227v-235h-30z" />
    <glyph glyph-name="comma" unicode="," horiz-adv-x="239" 
d="M82 -109v24q31 7 31 67v18h-14v79h41v-91q0 -88 -58 -97z" />
    <glyph glyph-name="hyphen" unicode="-" horiz-adv-x="355" 
d="M35 275v28h285v-28h-285z" />
    <glyph glyph-name="period" unicode="." horiz-adv-x="239" 
d="M99 0v79h41v-79h-41z" />
    <glyph glyph-name="slash" unicode="/" horiz-adv-x="420" 
d="M12 -140l365 870h31l-365 -870h-31z" />
    <glyph glyph-name="zero" unicode="0" horiz-adv-x="600" 
d="M300 -12q-110 0 -168 57.5t-58 165.5v258q0 108 58 165.5t168 57.5t168 -57.5t58 -165.5v-258q0 -108 -58 -165.5t-168 -57.5zM300 15q196 0 196 200v250q0 200 -196 200t-196 -200v-250q0 -200 196 -200z" />
    <glyph glyph-name="one" unicode="1" horiz-adv-x="600" 
d="M148 0v28h176v611q-81 -58 -196 -69v24q119 12 196 86h30v-652h176v-28h-382z" />
    <glyph glyph-name="two" unicode="2" horiz-adv-x="600" 
d="M75 0v27q0 92 51.5 154.5t175.5 119.5q106 49 149 96t43 114q0 72 -48.5 113t-138.5 41q-93 0 -142.5 -44.5t-49.5 -128.5v-9h-29v12q0 94 58.5 145.5t164.5 51.5q103 0 158.5 -49t55.5 -133q0 -75 -46 -127t-159 -105q-117 -55 -165.5 -111t-48.5 -138v-1h418v-28h-447z
" />
    <glyph glyph-name="three" unicode="3" horiz-adv-x="600" 
d="M303 -12q-111 0 -171.5 49t-60.5 138v11h29v-9q0 -162 202 -162q201 0 201 165q0 158 -192 158h-82v27h86q81 0 125.5 38t44.5 108q0 73 -48 113.5t-136 40.5q-91 0 -141 -42.5t-50 -119.5v-4h-29v7q0 85 60 135.5t162 50.5q99 0 155 -48t56 -132q0 -126 -119 -158v-1
q138 -33 138 -174q0 -94 -59.5 -142.5t-170.5 -48.5z" />
    <glyph glyph-name="four" unicode="4" horiz-adv-x="600" 
d="M444 0v167h-392v30l388 483h34v-485h94v-28h-94v-167h-30zM83 195h361v447z" />
    <glyph glyph-name="five" unicode="5" horiz-adv-x="600" 
d="M299 -12q-103 0 -165 46t-64 123h29q2 -66 55 -104t144 -38q103 0 157 50.5t54 148.5q0 99 -54 148t-145 49q-115 0 -194 -71h-22l22 340h392v-28h-367l-18 -273q79 59 187 59q109 0 169 -58t60 -165q0 -109 -63 -168t-177 -59z" />
    <glyph glyph-name="six" unicode="6" horiz-adv-x="600" 
d="M311 -12q-110 0 -169 57.5t-59 165.5v254q0 110 60.5 168.5t171.5 58.5q96 0 151.5 -43t60.5 -120h-29q-6 66 -53 101t-129 35q-100 0 -151.5 -52t-51.5 -153v-148q69 113 215 113q101 0 156 -55t55 -159q0 -107 -58.5 -165t-169.5 -58zM310 15q98 0 148.5 49.5
t50.5 145.5q0 93 -46.5 140.5t-136.5 47.5q-150 0 -213 -141v-41q0 -201 197 -201z" />
    <glyph glyph-name="seven" unicode="7" horiz-adv-x="600" 
d="M191 0q15 363 312 651h-446v29h482v-32q-301 -280 -316 -648h-32z" />
    <glyph glyph-name="eight" unicode="8" horiz-adv-x="600" 
d="M300 -12q-119 0 -182 49t-63 140q0 143 148 177v2q-126 32 -126 156q0 84 59.5 132t163.5 48q105 0 164 -48t59 -132q0 -124 -126 -156v-1q148 -35 148 -178q0 -91 -63 -140t-182 -49zM300 367q95 0 144.5 37.5t49.5 108.5q0 73 -51 112.5t-143 39.5t-143 -39.5
t-51 -112.5q0 -71 49.5 -108.5t144.5 -37.5zM300 15q106 0 160.5 41.5t54.5 121.5q0 162 -215 162t-215 -162q0 -80 54.5 -121.5t160.5 -41.5z" />
    <glyph glyph-name="nine" unicode="9" horiz-adv-x="600" 
d="M285 -12q-96 0 -151.5 43t-60.5 120h29q6 -66 53 -101t129 -35q100 0 151.5 52t51.5 153v148q-69 -113 -215 -113q-101 0 -156 55t-55 159q0 107 58.5 165t169.5 58q110 0 169 -57.5t59 -165.5v-254q0 -110 -60.5 -168.5t-171.5 -58.5zM274 282q150 0 213 141v41
q0 201 -197 201q-98 0 -148.5 -49.5t-50.5 -145.5q0 -93 46.5 -140.5t136.5 -47.5z" />
    <glyph glyph-name="colon" unicode=":" horiz-adv-x="239" 
d="M99 390v79h41v-79h-41zM99 0v79h41v-79h-41z" />
    <glyph glyph-name="semicolon" unicode=";" horiz-adv-x="239" 
d="M99 390v79h41v-79h-41zM82 -109v24q31 7 31 67v18h-14v79h41v-91q0 -88 -58 -97z" />
    <glyph glyph-name="less" unicode="&#x3c;" horiz-adv-x="600" 
d="M542 80l-484 214v28l484 214v-30l-448 -198l448 -198v-30z" />
    <glyph glyph-name="equal" unicode="=" horiz-adv-x="600" 
d="M58 403v28h484v-28h-484zM58 185v28h484v-28h-484z" />
    <glyph glyph-name="greater" unicode="&#x3e;" horiz-adv-x="600" 
d="M58 80v30l448 198l-448 198v30l484 -214v-28z" />
    <glyph glyph-name="question" unicode="?" horiz-adv-x="413" 
d="M176 205v26q0 58 22 96t72 67q48 28 67 57t19 75q0 67 -40 103t-114 36q-76 0 -116.5 -39t-40.5 -112h-28q0 84 49.5 131t137.5 47q86 0 133.5 -44.5t47.5 -123.5q0 -51 -21 -84t-71 -62q-51 -29 -71.5 -61.5t-20.5 -84.5v-27h-25zM168 0v79h41v-79h-41z" />
    <glyph glyph-name="at" unicode="@" horiz-adv-x="762" 
d="M410 -68q-168 0 -268 97t-100 257q0 159 99 258.5t258 99.5q152 0 245 -90.5t93 -236.5q0 -96 -40.5 -153.5t-107.5 -57.5q-76 0 -88 82q-47 -82 -137 -82q-60 0 -93.5 37t-33.5 102v81q0 65 33.5 102t93.5 37q88 0 136 -80l2 67h26v-235q0 -84 64 -84q53 0 85 48.5
t32 132.5q0 137 -84.5 220t-225.5 83q-148 0 -237.5 -91t-89.5 -239q0 -149 92 -238.5t246 -89.5q117 0 200 54l12 -25q-83 -56 -212 -56zM365 133q83 0 133 98v110q-50 97 -133 97q-47 0 -72.5 -29.5t-25.5 -86.5v-74q0 -56 25.5 -85.5t72.5 -29.5z" />
    <glyph glyph-name="A" unicode="A" horiz-adv-x="598" 
d="M14 0l269 680h32l269 -680h-33l-81 207h-343l-81 -207h-32zM139 236h319l-159 405z" />
    <glyph glyph-name="B" unicode="B" horiz-adv-x="637" 
d="M104 0v680h257q204 0 204 -173q0 -127 -109 -157v-2q133 -26 133 -167q0 -181 -210 -181h-275zM135 361h236q83 0 123 35t40 109q0 75 -41.5 110.5t-131.5 35.5h-226v-290zM135 29h244q93 0 136 37.5t43 114.5q0 80 -45 115.5t-144 35.5h-234v-303z" />
    <glyph glyph-name="C" unicode="C" horiz-adv-x="612" 
d="M318 -12q-120 0 -183.5 66t-63.5 193v186q0 127 63 193t183 66q109 0 171 -53.5t68 -154.5h-30q-6 88 -59 133.5t-150 45.5q-215 0 -215 -235v-177q0 -234 216 -234q95 0 148.5 45t59.5 134h30q-6 -101 -67.5 -154.5t-170.5 -53.5z" />
    <glyph glyph-name="D" unicode="D" horiz-adv-x="648" 
d="M104 0v680h219q130 0 192.5 -63t62.5 -196v-162q0 -134 -62.5 -196.5t-192.5 -62.5h-219zM135 29h188q117 0 170.5 55t53.5 175v162q0 120 -53.5 175t-170.5 55h-188v-622z" />
    <glyph glyph-name="E" unicode="E" horiz-adv-x="581" 
d="M104 0v680h430v-29h-399v-286h349v-29h-349v-307h409v-29h-440z" />
    <glyph glyph-name="F" unicode="F" horiz-adv-x="544" 
d="M104 0v680h423v-29h-392v-286h342v-29h-342v-336h-31z" />
    <glyph glyph-name="G" unicode="G" horiz-adv-x="636" 
d="M324 -12q-121 0 -187 65.5t-66 187.5v198q0 118 66.5 185.5t185.5 67.5q107 0 170 -56t68 -157h-30q-5 88 -59.5 136t-149.5 48q-106 0 -163 -59.5t-57 -168.5v-190q0 -112 57 -170t166 -58q213 0 213 222v60h-185v30h215v-92q0 -121 -62 -185t-182 -64z" />
    <glyph glyph-name="H" unicode="H" horiz-adv-x="698" 
d="M104 0v680h31v-315h428v315h31v-680h-31v336h-428v-336h-31z" />
    <glyph glyph-name="I" unicode="I" horiz-adv-x="239" 
d="M104 0v680h31v-680h-31z" />
    <glyph glyph-name="J" unicode="J" horiz-adv-x="548" 
d="M239 -12q-112 0 -166 53t-54 163v12h29v-7q0 -101 45 -146.5t145 -45.5q104 0 149.5 50t45.5 164v449h31v-454q0 -122 -54.5 -180t-170.5 -58z" />
    <glyph glyph-name="K" unicode="K" horiz-adv-x="617" 
d="M104 0v680h31v-423l419 423h41l-273 -275l277 -405h-38l-261 382l-165 -166v-216h-31z" />
    <glyph glyph-name="L" unicode="L" horiz-adv-x="523" 
d="M104 0v680h31v-651h380v-29h-411z" />
    <glyph glyph-name="M" unicode="M" horiz-adv-x="859" 
d="M104 0v680h39l287 -633l287 633h38v-680h-31v625l-283 -625h-24l-283 625v-625h-30z" />
    <glyph glyph-name="N" unicode="N" horiz-adv-x="694" 
d="M104 0v680h40l416 -626v626h30v-680h-30l-426 641v-641h-30z" />
    <glyph glyph-name="O" unicode="O" horiz-adv-x="652" 
d="M326 -12q-123 0 -189 66.5t-66 192.5v186q0 126 66 192.5t189 66.5t189 -66.5t66 -192.5v-186q0 -126 -66 -192.5t-189 -66.5zM326 17q224 0 224 234v177q0 235 -224 235t-224 -235v-177q0 -234 224 -234z" />
    <glyph glyph-name="P" unicode="P" horiz-adv-x="597" 
d="M104 0v680h249q111 0 163 -47t52 -147t-52 -147t-163 -47h-218v-292h-31zM135 321h218q99 0 141.5 38.5t42.5 126.5t-42.5 126.5t-141.5 38.5h-218v-330z" />
    <glyph glyph-name="Q" unicode="Q" horiz-adv-x="652" 
d="M588 -58l-94 95q-64 -49 -168 -49q-123 0 -189 66.5t-66 192.5v186q0 126 66 192.5t189 66.5t189 -66.5t66 -192.5v-186q0 -124 -65 -191l93 -93zM326 17q94 0 147 41l-141 141l21 21l142 -143q55 58 55 174v177q0 235 -224 235t-224 -235v-177q0 -234 224 -234z" />
    <glyph glyph-name="R" unicode="R" horiz-adv-x="628" 
d="M104 0v680h250q109 0 158.5 -45t49.5 -144q0 -90 -40.5 -135t-128.5 -52l194 -304h-37l-193 302h-222v-302h-31zM135 331h219q96 0 136.5 36.5t40.5 123.5t-40.5 123.5t-136.5 36.5h-219v-320z" />
    <glyph glyph-name="S" unicode="S" horiz-adv-x="555" 
d="M281 -12q-115 0 -177.5 47.5t-62.5 133.5h30q0 -73 55 -112.5t157 -39.5q199 0 199 154q0 76 -47.5 112.5t-163.5 51.5q-117 15 -166.5 55t-49.5 119q0 88 58.5 135.5t167.5 47.5q107 0 163.5 -45.5t56.5 -131.5h-30q0 148 -188 148q-97 0 -147.5 -38.5t-50.5 -111.5
q0 -69 45.5 -103t155.5 -48q125 -16 175.5 -58.5t50.5 -128.5q0 -92 -59 -139.5t-172 -47.5z" />
    <glyph glyph-name="T" unicode="T" horiz-adv-x="497" 
d="M233 0v651h-225v29h481v-29h-225v-651h-31z" />
    <glyph glyph-name="U" unicode="U" horiz-adv-x="646" 
d="M323 -12q-126 0 -182.5 54.5t-56.5 176.5v461h31v-461q0 -110 47 -156t162 -46q114 0 161 46t47 156v461h30v-461q0 -122 -56.5 -176.5t-182.5 -54.5z" />
    <glyph glyph-name="V" unicode="V" horiz-adv-x="573" 
d="M270 0l-256 680h33l240 -637l240 637h32l-256 -680h-33z" />
    <glyph glyph-name="W" unicode="W" horiz-adv-x="876" 
d="M214 0l-200 680h32l186 -633l190 633h33l190 -633l186 633h31l-200 -680h-33l-191 630l-191 -630h-33z" />
    <glyph glyph-name="X" unicode="X" horiz-adv-x="560" 
d="M23 0l236 348l-228 332h37l214 -312l211 312h36l-228 -336l236 -344h-37l-222 324l-219 -324h-36z" />
    <glyph glyph-name="Y" unicode="Y" horiz-adv-x="530" 
d="M250 0v306l-246 374h37l225 -342l224 342h36l-246 -374v-306h-30z" />
    <glyph glyph-name="Z" unicode="Z" horiz-adv-x="536" 
d="M32 0v27l426 624h-408v29h445v-27l-426 -624h435v-29h-472z" />
    <glyph glyph-name="bracketleft" unicode="[" horiz-adv-x="317" 
d="M104 -118v848h192v-24h-163v-800h163v-24h-192z" />
    <glyph glyph-name="backslash" unicode="\" horiz-adv-x="420" 
d="M377 -140l-365 870h31l365 -870h-31z" />
    <glyph glyph-name="bracketright" unicode="]" horiz-adv-x="317" 
d="M21 -118v24h163v800h-163v24h192v-848h-192z" />
    <glyph glyph-name="asciicircum" unicode="^" horiz-adv-x="600" 
d="M30 333l254 347h32l254 -347h-35l-235 321l-235 -321h-35z" />
    <glyph glyph-name="underscore" unicode="_" horiz-adv-x="500" 
d="M0 -104v26h500v-26h-500z" />
    <glyph glyph-name="grave" unicode="`" horiz-adv-x="500" 
d="M263 600l-115 122h41l106 -122h-32z" />
    <glyph glyph-name="a" unicode="a" horiz-adv-x="542" 
d="M218 -12q-77 0 -120 38t-43 109q0 150 207 150h165v60q0 149 -162 149q-154 0 -166 -127h-29q8 75 58 114.5t138 39.5q94 0 142.5 -45t48.5 -131v-345h-26l-2 95q-78 -107 -211 -107zM220 14q130 0 207 120v124h-161q-96 0 -138.5 -29t-42.5 -92q0 -60 35 -91.5
t100 -31.5z" />
    <glyph glyph-name="b" unicode="b" horiz-adv-x="582" 
d="M332 -12q-136 0 -209 133l-2 -121h-26v730h30v-338q73 129 207 129q86 0 134.5 -54.5t48.5 -152.5v-119q0 -98 -48.5 -152.5t-134.5 -54.5zM331 15q75 0 114.5 47t39.5 137v111q0 90 -39.5 137t-114.5 47q-136 0 -206 -155v-169q70 -155 206 -155z" />
    <glyph glyph-name="c" unicode="c" horiz-adv-x="512" 
d="M271 -12q-97 0 -150.5 56t-53.5 160v101q0 104 53 160t150 56q88 0 139 -44.5t56 -121.5h-29q-11 139 -164 139q-175 0 -175 -193v-93q0 -193 175 -193q153 0 164 139h29q-5 -76 -55 -121t-139 -45z" />
    <glyph glyph-name="d" unicode="d" horiz-adv-x="582" 
d="M250 -12q-86 0 -134.5 54.5t-48.5 152.5v119q0 98 48.5 152.5t134.5 54.5q134 0 207 -129v338h30v-730h-26l-2 121q-73 -133 -209 -133zM251 15q136 0 206 155v169q-70 155 -206 155q-75 0 -114.5 -47t-39.5 -137v-111q0 -90 39.5 -137t114.5 -47z" />
    <glyph glyph-name="e" unicode="e" horiz-adv-x="545" 
d="M278 -12q-102 0 -156.5 55.5t-54.5 160.5v101q0 105 53 160.5t154 55.5q100 0 153 -55.5t53 -160.5v-52h-383v-45q0 -193 180 -193q77 0 121 34t49 97h29q-6 -76 -57.5 -117t-140.5 -41zM97 280h353v21q0 193 -177 193q-176 0 -176 -193v-21z" />
    <glyph glyph-name="f" unicode="f" horiz-adv-x="324" 
d="M122 0v484h-108v25h108v77q0 144 124 144h69v-27h-67q-50 0 -73 -28.5t-23 -90.5v-75h159v-25h-159v-484h-30z" />
    <glyph glyph-name="g" unicode="g" horiz-adv-x="582" 
d="M280 -194q-92 0 -143.5 37.5t-56.5 105.5h29q11 -116 169 -116q92 0 135.5 41.5t43.5 128.5v129q-74 -127 -207 -127q-86 0 -134.5 54.5t-48.5 152.5v102q0 98 48.5 152.5t134.5 54.5q135 0 209 -131l2 119h26v-506q0 -197 -207 -197zM251 32q136 0 206 155v152
q-70 155 -206 155q-75 0 -114.5 -47t-39.5 -137v-94q0 -90 39.5 -137t114.5 -47z" />
    <glyph glyph-name="h" unicode="h" horiz-adv-x="563" 
d="M95 0v730h30v-334q65 125 192 125q78 0 118 -46.5t40 -135.5v-339h-30v335q0 159 -131 159q-127 0 -189 -151v-343h-30z" />
    <glyph glyph-name="i" unicode="i" horiz-adv-x="220" 
d="M92 626v70h36v-70h-36zM95 0v509h30v-509h-30z" />
    <glyph glyph-name="j" unicode="j" horiz-adv-x="220" 
d="M92 626v70h36v-70h-36zM-6 -182v27h21q46 0 63 21.5t17 80.5v562h30v-564q0 -68 -25 -97.5t-83 -29.5h-23z" />
    <glyph glyph-name="k" unicode="k" horiz-adv-x="517" 
d="M95 0v730h30v-530l326 309h41l-221 -209l225 -300h-37l-209 279l-125 -118v-161h-30z" />
    <glyph glyph-name="l" unicode="l" horiz-adv-x="220" 
d="M95 0v730h30v-730h-30z" />
    <glyph glyph-name="m" unicode="m" horiz-adv-x="877" 
d="M95 0v509h26l2 -110q60 122 181 122q128 0 149 -125q61 125 184 125q74 0 113 -44t39 -128v-349h-30v345q0 149 -125 149q-61 0 -103 -35.5t-74 -108.5v-350h-30v345q0 149 -125 149q-116 0 -177 -144v-350h-30z" />
    <glyph glyph-name="n" unicode="n" horiz-adv-x="563" 
d="M95 0v509h26l2 -117q64 129 194 129q78 0 118 -46.5t40 -135.5v-339h-30v335q0 159 -131 159q-127 0 -189 -151v-343h-30z" />
    <glyph glyph-name="o" unicode="o" horiz-adv-x="558" 
d="M279 -12q-102 0 -157 56t-55 160v101q0 104 55 160t157 56t157 -56t55 -160v-101q0 -104 -55 -160t-157 -56zM279 15q90 0 136 49t46 144v93q0 94 -46 143.5t-136 49.5t-136 -49.5t-46 -143.5v-93q0 -95 46 -144t136 -49z" />
    <glyph glyph-name="p" unicode="p" horiz-adv-x="582" 
d="M95 -182v691h26l2 -121q73 133 209 133q86 0 134.5 -54.5t48.5 -152.5v-119q0 -98 -48.5 -152.5t-134.5 -54.5q-134 0 -207 129v-299h-30zM331 15q75 0 114.5 47t39.5 137v111q0 90 -39.5 137t-114.5 47q-136 0 -206 -155v-169q70 -155 206 -155z" />
    <glyph glyph-name="q" unicode="q" horiz-adv-x="582" 
d="M457 -182v299q-73 -129 -207 -129q-86 0 -134.5 54.5t-48.5 152.5v119q0 98 48.5 152.5t134.5 54.5q136 0 209 -133l2 121h26v-691h-30zM251 15q136 0 206 155v169q-70 155 -206 155q-75 0 -114.5 -47t-39.5 -137v-111q0 -90 39.5 -137t114.5 -47z" />
    <glyph glyph-name="r" unicode="r" horiz-adv-x="336" 
d="M95 0v509h26l2 -113q46 122 167 122h32v-27h-29q-67 0 -108 -40.5t-60 -128.5v-322h-30z" />
    <glyph glyph-name="s" unicode="s" horiz-adv-x="495" 
d="M246 -12q-98 0 -149.5 39t-51.5 112h29q0 -124 171 -124q83 0 126 30.5t43 87.5q0 54 -39 80t-134 34q-99 9 -141 39t-42 91q0 68 49.5 106t138.5 38t136.5 -38t47.5 -109h-29q0 58 -39.5 89t-114.5 31q-76 0 -118 -30.5t-42 -84.5q0 -49 37.5 -73t127.5 -32
q104 -10 147.5 -41.5t43.5 -97.5q0 -71 -50.5 -109t-146.5 -38z" />
    <glyph glyph-name="t" unicode="t" horiz-adv-x="325" 
d="M240 0q-65 0 -94 34t-29 110v340h-103v25h103l3 143h27v-143h150v-25h-150v-338q0 -66 21 -92.5t74 -26.5h62v-27h-64z" />
    <glyph glyph-name="u" unicode="u" horiz-adv-x="567" 
d="M248 -12q-79 0 -119.5 46.5t-40.5 135.5v339h30v-335q0 -159 133 -159q129 0 191 151v343h30v-509h-26l-2 117q-64 -129 -196 -129z" />
    <glyph glyph-name="v" unicode="v" horiz-adv-x="466" 
d="M216 0l-197 509h32l183 -474l182 474h31l-197 -509h-34z" />
    <glyph glyph-name="w" unicode="w" horiz-adv-x="769" 
d="M193 0l-174 509h32l159 -471l159 471h31l160 -472l159 472h31l-174 -509h-34l-158 465l-158 -465h-33z" />
    <glyph glyph-name="x" unicode="x" horiz-adv-x="483" 
d="M21 0l201 261l-193 248h37l178 -228l175 228h35l-193 -251l201 -258h-37l-186 239l-183 -239h-35z" />
    <glyph glyph-name="y" unicode="y" horiz-adv-x="455" 
d="M57 -182v27h25q40 0 60 16.5t38 65.5l37 99l-198 483h33l182 -446l172 446h30l-228 -589q-23 -59 -48.5 -80.5t-74.5 -21.5h-28z" />
    <glyph glyph-name="z" unicode="z" horiz-adv-x="448" 
d="M33 0v23l337 459h-316v27h354v-23l-337 -459h342v-27h-380z" />
    <glyph glyph-name="braceleft" unicode="{" horiz-adv-x="317" 
d="M260 -118q-67 0 -99.5 36.5t-32.5 112.5v181q0 47 -19 64.5t-71 17.5v24q52 0 71 17.5t19 64.5v181q0 76 32.5 112.5t99.5 36.5h36v-24h-35q-104 0 -104 -125v-178q0 -83 -56 -96v-2q56 -13 56 -96v-178q0 -125 104 -125h35v-24h-36z" />
    <glyph glyph-name="bar" unicode="|" horiz-adv-x="270" 
d="M120 -226v1000h30v-1000h-30z" />
    <glyph glyph-name="braceright" unicode="}" horiz-adv-x="317" 
d="M21 -118v24h35q104 0 104 125v178q0 83 56 96v2q-56 13 -56 96v178q0 125 -104 125h-35v24h36q67 0 99.5 -36.5t32.5 -112.5v-181q0 -47 19 -64.5t71 -17.5v-24q-52 0 -71 -17.5t-19 -64.5v-181q0 -76 -32.5 -112.5t-99.5 -36.5h-36z" />
    <glyph glyph-name="asciitilde" unicode="~" horiz-adv-x="600" 
d="M413 244q-60 0 -121 53q-32 28 -55 38.5t-51 10.5q-89 0 -98 -96h-26q5 59 37.5 91t87.5 32q60 0 121 -53q32 -28 55 -38.5t51 -10.5q89 0 98 96h26q-5 -59 -37.5 -91t-87.5 -32z" />
    <glyph glyph-name="uni00A0" unicode="&#xa0;" horiz-adv-x="274" 
 />
    <glyph glyph-name="exclamdown" unicode="&#xa1;" horiz-adv-x="257" 
d="M108 430v79h41v-79h-41zM113 -171l1 144l4 331h21l4 -331l1 -144h-31z" />
    <glyph glyph-name="cent" unicode="&#xa2;" horiz-adv-x="600" 
d="M297 -72v72q-96 3 -146 55.5t-50 150.5v97q0 98 49.5 150.5t146.5 55.5v72h27v-72q85 -4 132.5 -45.5t52.5 -113.5h-29q-11 124 -156 132v-455q145 7 156 132h29q-5 -73 -52.5 -114t-132.5 -45v-72h-27zM297 27v455q-85 -3 -125.5 -48t-40.5 -135v-90q0 -89 40.5 -134
t125.5 -48z" />
    <glyph glyph-name="sterling" unicode="&#xa3;" horiz-adv-x="600" 
d="M86 0v27q50 33 72.5 75t22.5 102q0 52 -18 103h-98v27h87q-1 3 -4.5 10.5t-4.5 11.5q-36 81 -36 143q0 94 55.5 143.5t158.5 49.5q101 0 157 -47t56 -133h-28q0 74 -48 113.5t-139 39.5q-183 0 -183 -164q0 -59 35 -141l11 -26h289v-27h-279q17 -52 17 -102
q0 -114 -80 -177h396v-28h-439z" />
    <glyph glyph-name="currency" unicode="&#xa4;" horiz-adv-x="600" 
d="M73 91l-22 22l129 130q-34 42 -34 97t34 97l-129 130l22 22l129 -130q41 35 98 35t98 -35l129 130l22 -22l-129 -130q34 -42 34 -97t-34 -97l129 -130l-22 -22l-129 130q-41 -35 -98 -35t-98 35zM300 213q53 0 88.5 36t35.5 91t-35.5 91t-88.5 36t-88.5 -36t-35.5 -91
t35.5 -91t88.5 -36z" />
    <glyph glyph-name="yen" unicode="&#xa5;" horiz-adv-x="600" 
d="M285 0v155h-209v27h209v118h-209v27h204l-238 353h36l222 -329l223 329h35l-239 -353h205v-27h-209v-118h209v-27h-209v-155h-30z" />
    <glyph glyph-name="brokenbar" unicode="&#xa6;" horiz-adv-x="270" 
d="M120 374v400h30v-400h-30zM120 -226v400h30v-400h-30z" />
    <glyph glyph-name="section" unicode="&#xa7;" horiz-adv-x="576" 
d="M284 -196q-102 0 -158 43t-56 124h29q0 -68 47.5 -103.5t137.5 -35.5q89 0 135.5 35t46.5 97q0 60 -45 92t-155 51q-114 19 -161 55t-47 103q0 100 108 144v2q-82 38 -82 124q0 74 52.5 115.5t145.5 41.5q95 0 147 -42.5t52 -119.5h-29q0 65 -43.5 99.5t-125.5 34.5
q-81 0 -125.5 -33t-44.5 -93q0 -57 44 -88.5t151 -49.5q114 -20 162.5 -57t48.5 -104q0 -100 -107 -141v-2q83 -39 83 -129q0 -78 -54.5 -120.5t-156.5 -42.5zM377 111q113 32 113 126q0 57 -44 88t-152 49q-49 8 -93 22q-114 -35 -114 -129q0 -56 42.5 -85.5t148.5 -46.5
q60 -9 99 -24z" />
    <glyph glyph-name="dieresis" unicode="&#xa8;" horiz-adv-x="500" 
d="M152 629v64h36v-64h-36zM312 629v64h36v-64h-36z" />
    <glyph glyph-name="copyright" unicode="&#xa9;" horiz-adv-x="784" 
d="M392 -12q-152 0 -252 100t-100 252t100 252t252 100t252 -100t100 -252t-100 -252t-252 -100zM392 15q142 0 232 91.5t90 233.5t-90 233.5t-232 91.5q-141 0 -231.5 -91.5t-90.5 -233.5t90.5 -233.5t231.5 -91.5zM392 149q-70 0 -106 36t-36 105v99q0 142 142 142
q63 0 99 -29.5t39 -87.5h-29q-6 90 -108 90q-113 0 -113 -117v-93q0 -118 113 -118q102 0 108 90h29q-3 -58 -39 -87.5t-99 -29.5z" />
    <glyph glyph-name="ordfeminine" unicode="&#xaa;" horiz-adv-x="424" 
d="M165 318q-58 0 -89.5 27t-31.5 77q0 52 35.5 79.5t99.5 27.5h135v41q0 95 -111 95q-107 0 -118 -81h-28q5 52 42.5 80t104.5 28q140 0 140 -123v-239h-26l-1 61q-59 -73 -152 -73zM168 345q93 0 146 80v78h-131q-109 0 -109 -81q0 -77 94 -77zM48 194v27h296v-27h-296z
" />
    <glyph glyph-name="guillemotleft" unicode="&#xab;" horiz-adv-x="430" 
d="M179 82l-149 172l149 172h38l-149 -172l149 -172h-38zM362 82l-149 172l149 172h38l-149 -172l149 -172h-38z" />
    <glyph glyph-name="logicalnot" unicode="&#xac;" horiz-adv-x="600" 
d="M512 129v235h-454v28h484v-263h-30z" />
    <glyph glyph-name="uni00AD" unicode="&#xad;" horiz-adv-x="355" 
d="M35 275v28h285v-28h-285z" />
    <glyph glyph-name="registered" unicode="&#xae;" horiz-adv-x="784" 
d="M392 -12q-152 0 -252 100t-100 252t100 252t252 100t252 -100t100 -252t-100 -252t-252 -100zM392 15q142 0 232 91.5t90 233.5t-90 233.5t-232 91.5q-141 0 -231.5 -91.5t-90.5 -233.5t90.5 -233.5t231.5 -91.5zM262 159v362h147q63 0 92.5 -24.5t29.5 -78.5
q0 -46 -21.5 -70.5t-66.5 -30.5l110 -158h-36l-108 156h-117v-156h-30zM292 342h114q50 0 72.5 18t22.5 58t-22.5 58t-72.5 18h-114v-152z" />
    <glyph glyph-name="macron" unicode="&#xaf;" horiz-adv-x="500" 
d="M159 648v26h182v-26h-182z" />
    <glyph glyph-name="degree" unicode="&#xb0;" horiz-adv-x="352" 
d="M176 426q-62 0 -103 41t-41 103q0 61 41.5 102.5t102.5 41.5q62 0 103 -41.5t41 -102.5q0 -62 -41 -103t-103 -41zM176 453q50 0 82 33t32 84t-32 84t-82 33q-49 0 -81.5 -33.5t-32.5 -83.5t32.5 -83.5t81.5 -33.5z" />
    <glyph glyph-name="plusminus" unicode="&#xb1;" horiz-adv-x="600" 
d="M285 75v235h-227v28h227v236h30v-236h227v-28h-227v-235h-30zM58 0v28h484v-28h-484z" />
    <glyph glyph-name="uni00B2" unicode="&#xb2;" 
d="M48 416v20q0 56 30.5 92.5t103.5 70.5q59 27 83 52.5t24 61.5q0 39 -26 60.5t-74 21.5q-51 0 -78 -24t-27 -68v-6h-29v9q0 55 35.5 85.5t99.5 30.5q62 0 95.5 -29t33.5 -80q0 -44 -27.5 -75t-93.5 -62t-92.5 -60.5t-27.5 -72.5h241v-27h-271z" />
    <glyph glyph-name="uni00B3" unicode="&#xb3;" 
d="M185 404q-68 0 -104.5 28t-36.5 81v9h29v-6q0 -85 112 -85q110 0 110 89q0 86 -107 86h-49v27h51q94 0 94 79q0 83 -101 83q-50 0 -77 -22.5t-27 -62.5v-3h-29v6q0 50 36.5 79.5t98.5 29.5q60 0 94.5 -28.5t34.5 -79.5q0 -74 -69 -92v-1q80 -19 80 -103q0 -114 -140 -114
z" />
    <glyph glyph-name="acute" unicode="&#xb4;" horiz-adv-x="500" 
d="M205 600l106 122h41l-115 -122h-32z" />
    <glyph glyph-name="uni00B5" unicode="&#xb5;" horiz-adv-x="574" 
d="M95 -182v691h30v-335q0 -159 132 -159q129 0 192 154v340h30v-509h-26l-2 120q-65 -132 -195 -132q-93 0 -131 70v-240h-30z" />
    <glyph glyph-name="paragraph" unicode="&#xb6;" horiz-adv-x="576" 
d="M239 -183v485h-12q-101 0 -149 46t-48 142q0 98 48 144t149 46h235v-863h-30v836h-163v-836h-30z" />
    <glyph glyph-name="periodcentered" unicode="&#xb7;" horiz-adv-x="239" 
d="M99 250v79h41v-79h-41z" />
    <glyph glyph-name="cedilla" unicode="&#xb8;" horiz-adv-x="500" 
d="M233 -194q-47 0 -81 18l10 23q28 -18 69 -18q62 0 62 40q0 19 -14.5 26.5t-49.5 7.5h-25l41 112h25l-33 -91h5q80 0 80 -56q0 -62 -89 -62z" />
    <glyph glyph-name="uni00B9" unicode="&#xb9;" 
d="M94 416v27h100v328q-53 -31 -112 -34v23q69 6 113 50h29v-367h100v-27h-230z" />
    <glyph glyph-name="ordmasculine" unicode="&#xba;" horiz-adv-x="418" 
d="M209 318q-73 0 -112.5 40t-39.5 114v66q0 74 39.5 114t112.5 40t112.5 -40t39.5 -114v-66q0 -74 -39.5 -114t-112.5 -40zM209 345q122 0 122 130v60q0 130 -122 130t-122 -130v-60q0 -130 122 -130zM61 194v27h296v-27h-296z" />
    <glyph glyph-name="guillemotright" unicode="&#xbb;" horiz-adv-x="430" 
d="M30 82l149 172l-149 172h38l149 -172l-149 -172h-38zM213 82l149 172l-149 172h38l149 -172l-149 -172h-38z" />
    <glyph glyph-name="onequarter" unicode="&#xbc;" horiz-adv-x="830" 
d="M255 -12l374 704h32l-374 -704h-32zM94 286v27h100v328q-53 -31 -112 -34v23q69 6 113 50h29v-367h100v-27h-230zM726 0v90h-229v29l226 275h33v-277h55v-27h-55v-90h-30zM530 117h196v239z" />
    <glyph glyph-name="onehalf" unicode="&#xbd;" horiz-adv-x="830" 
d="M212 -12l374 704h32l-374 -704h-32zM94 286v27h100v328q-53 -31 -112 -34v23q69 6 113 50h29v-367h100v-27h-230zM512 0v20q0 56 30.5 92.5t103.5 70.5q59 27 83 52.5t24 61.5q0 39 -26 60.5t-74 21.5q-51 0 -78 -24t-27 -68v-6h-29v9q0 55 35.5 85.5t99.5 30.5
q62 0 95.5 -29t33.5 -80q0 -44 -27.5 -75t-93.5 -62t-92.5 -60.5t-27.5 -72.5h241v-27h-271z" />
    <glyph glyph-name="threequarters" unicode="&#xbe;" horiz-adv-x="830" 
d="M185 274q-68 0 -104.5 28t-36.5 81v9h29v-6q0 -85 112 -85q110 0 110 89q0 86 -107 86h-49v27h51q94 0 94 79q0 83 -101 83q-50 0 -77 -22.5t-27 -62.5v-3h-29v6q0 50 36.5 79.5t98.5 29.5q60 0 94.5 -28.5t34.5 -79.5q0 -74 -69 -92v-1q80 -19 80 -103q0 -114 -140 -114
zM255 -12l374 704h32l-374 -704h-32zM726 0v90h-229v29l226 275h33v-277h55v-27h-55v-90h-30zM530 117h196v239z" />
    <glyph glyph-name="questiondown" unicode="&#xbf;" horiz-adv-x="413" 
d="M204 430v79h41v-79h-41zM209 -183q-86 0 -133.5 44.5t-47.5 123.5q0 51 21.5 84.5t74.5 64.5q48 28 68 60t20 83v27h25v-26q0 -58 -22 -96t-72 -67q-48 -28 -67 -57t-19 -75q0 -67 40 -103t114 -36q76 0 116.5 39t40.5 112h28q0 -84 -49.5 -131t-137.5 -47z" />
    <glyph glyph-name="Agrave" unicode="&#xc0;" horiz-adv-x="598" 
d="M313 758l-115 122h41l106 -122h-32zM14 0l269 680h32l269 -680h-33l-81 207h-343l-81 -207h-32zM139 236h319l-159 405z" />
    <glyph glyph-name="Aacute" unicode="&#xc1;" horiz-adv-x="598" 
d="M255 758l106 122h41l-115 -122h-32zM14 0l269 680h32l269 -680h-33l-81 207h-343l-81 -207h-32zM139 236h319l-159 405z" />
    <glyph glyph-name="Acircumflex" unicode="&#xc2;" horiz-adv-x="598" 
d="M181 758l105 122h28l105 -122h-32l-87 95l-87 -95h-32zM14 0l269 680h32l269 -680h-33l-81 207h-343l-81 -207h-32zM139 236h319l-159 405z" />
    <glyph glyph-name="Atilde" unicode="&#xc3;" horiz-adv-x="598" 
d="M352 777q-27 0 -61 30q-28 25 -46 25q-34 0 -43 -57h-24q8 83 70 83q27 0 61 -30q28 -25 46 -25q34 0 43 57h24q-8 -83 -70 -83zM14 0l269 680h32l269 -680h-33l-81 207h-343l-81 -207h-32zM139 236h319l-159 405z" />
    <glyph glyph-name="Adieresis" unicode="&#xc4;" horiz-adv-x="598" 
d="M202 787v64h36v-64h-36zM362 787v64h36v-64h-36zM14 0l269 680h32l269 -680h-33l-81 207h-343l-81 -207h-32zM139 236h319l-159 405z" />
    <glyph glyph-name="Aring" unicode="&#xc5;" horiz-adv-x="598" 
d="M300 750q-35 0 -57.5 22t-22.5 56t22.5 56t57.5 22t57.5 -22t22.5 -56t-22.5 -56t-57.5 -22zM300 774q23 0 38 15t15 39t-15 39t-38 15t-38 -15t-15 -39t15 -39t38 -15zM14 0l269 680h32l269 -680h-33l-81 207h-343l-81 -207h-32zM139 236h319l-159 405z" />
    <glyph glyph-name="AE" unicode="&#xc6;" horiz-adv-x="895" 
d="M4 0l431 680h413v-29h-371v-286h321v-29h-321v-307h381v-29h-412v207h-277l-131 -207h-34zM187 236h259v408z" />
    <glyph glyph-name="Ccedilla" unicode="&#xc7;" horiz-adv-x="612" 
d="M318 17q95 0 148.5 45t59.5 134h30q-6 -95 -61.5 -148.5t-155.5 -58.5l-23 -65h5q80 0 80 -56q0 -62 -89 -62q-46 0 -81 18l10 23q29 -18 69 -18q62 0 62 40q0 19 -14.5 26.5t-49.5 7.5h-25l31 85q-118 1 -180.5 67t-62.5 192v186q0 127 63 193t183 66q109 0 171 -53.5
t68 -154.5h-30q-6 88 -59 133.5t-150 45.5q-215 0 -215 -235v-177q0 -234 216 -234z" />
    <glyph glyph-name="Egrave" unicode="&#xc8;" horiz-adv-x="581" 
d="M332 759l-115 122h41l106 -122h-32zM104 0v680h430v-29h-399v-286h349v-29h-349v-307h409v-29h-440z" />
    <glyph glyph-name="Eacute" unicode="&#xc9;" horiz-adv-x="581" 
d="M274 759l106 122h41l-115 -122h-32zM104 0v680h430v-29h-399v-286h349v-29h-349v-307h409v-29h-440z" />
    <glyph glyph-name="Ecircumflex" unicode="&#xca;" horiz-adv-x="581" 
d="M200 759l105 122h28l105 -122h-32l-87 95l-87 -95h-32zM104 0v680h430v-29h-399v-286h349v-29h-349v-307h409v-29h-440z" />
    <glyph glyph-name="Edieresis" unicode="&#xcb;" horiz-adv-x="581" 
d="M221 788v64h36v-64h-36zM381 788v64h36v-64h-36zM104 0v680h430v-29h-399v-286h349v-29h-349v-307h409v-29h-440z" />
    <glyph glyph-name="Igrave" unicode="&#xcc;" horiz-adv-x="239" 
d="M133 759l-115 122h41l106 -122h-32zM104 0v680h31v-680h-31z" />
    <glyph glyph-name="Iacute" unicode="&#xcd;" horiz-adv-x="239" 
d="M75 759l106 122h41l-115 -122h-32zM104 0v680h31v-680h-31z" />
    <glyph glyph-name="Icircumflex" unicode="&#xce;" horiz-adv-x="239" 
d="M6 759l100 122h28l100 -122h-32l-82 95l-82 -95h-32zM104 0v680h31v-680h-31z" />
    <glyph glyph-name="Idieresis" unicode="&#xcf;" horiz-adv-x="239" 
d="M37 788v64h36v-64h-36zM167 788v64h36v-64h-36zM104 0v680h31v-680h-31z" />
    <glyph glyph-name="Eth" unicode="&#xd0;" horiz-adv-x="658" 
d="M333 680q130 0 192.5 -63t62.5 -196v-162q0 -134 -62.5 -196.5t-192.5 -62.5h-219v336h-84v29h84v315h219zM557 259v162q0 120 -53.5 175t-170.5 55h-188v-286h201v-29h-201v-307h188q117 0 170.5 55t53.5 175z" />
    <glyph glyph-name="Ntilde" unicode="&#xd1;" horiz-adv-x="694" 
d="M399 778q-27 0 -61 30q-28 25 -46 25q-34 0 -43 -57h-24q8 83 70 83q27 0 61 -30q28 -25 46 -25q34 0 43 57h24q-8 -83 -70 -83zM104 0v680h40l416 -626v626h30v-680h-30l-426 641v-641h-30z" />
    <glyph glyph-name="Ograve" unicode="&#xd2;" horiz-adv-x="652" 
d="M339 759l-115 122h41l106 -122h-32zM326 -12q-123 0 -189 66.5t-66 192.5v186q0 126 66 192.5t189 66.5t189 -66.5t66 -192.5v-186q0 -126 -66 -192.5t-189 -66.5zM326 17q224 0 224 234v177q0 235 -224 235t-224 -235v-177q0 -234 224 -234z" />
    <glyph glyph-name="Oacute" unicode="&#xd3;" horiz-adv-x="652" 
d="M281 759l106 122h41l-115 -122h-32zM326 -12q-123 0 -189 66.5t-66 192.5v186q0 126 66 192.5t189 66.5t189 -66.5t66 -192.5v-186q0 -126 -66 -192.5t-189 -66.5zM326 17q224 0 224 234v177q0 235 -224 235t-224 -235v-177q0 -234 224 -234z" />
    <glyph glyph-name="Ocircumflex" unicode="&#xd4;" horiz-adv-x="652" 
d="M207 759l105 122h28l105 -122h-32l-87 95l-87 -95h-32zM326 -12q-123 0 -189 66.5t-66 192.5v186q0 126 66 192.5t189 66.5t189 -66.5t66 -192.5v-186q0 -126 -66 -192.5t-189 -66.5zM326 17q224 0 224 234v177q0 235 -224 235t-224 -235v-177q0 -234 224 -234z" />
    <glyph glyph-name="Otilde" unicode="&#xd5;" horiz-adv-x="652" 
d="M378 778q-27 0 -61 30q-28 25 -46 25q-34 0 -43 -57h-24q8 83 70 83q27 0 61 -30q28 -25 46 -25q34 0 43 57h24q-8 -83 -70 -83zM326 -12q-123 0 -189 66.5t-66 192.5v186q0 126 66 192.5t189 66.5t189 -66.5t66 -192.5v-186q0 -126 -66 -192.5t-189 -66.5zM326 17
q224 0 224 234v177q0 235 -224 235t-224 -235v-177q0 -234 224 -234z" />
    <glyph glyph-name="Odieresis" unicode="&#xd6;" horiz-adv-x="652" 
d="M228 788v64h36v-64h-36zM388 788v64h36v-64h-36zM326 -12q-123 0 -189 66.5t-66 192.5v186q0 126 66 192.5t189 66.5t189 -66.5t66 -192.5v-186q0 -126 -66 -192.5t-189 -66.5zM326 17q224 0 224 234v177q0 235 -224 235t-224 -235v-177q0 -234 224 -234z" />
    <glyph glyph-name="multiply" unicode="&#xd7;" horiz-adv-x="600" 
d="M92 81l-20 20l208 208l-208 208l20 20l208 -208l208 208l20 -20l-208 -208l208 -208l-20 -20l-208 208z" />
    <glyph glyph-name="Oslash" unicode="&#xd8;" horiz-adv-x="652" 
d="M581 676l-49 -70q49 -66 49 -173v-186q0 -126 -66 -192.5t-189 -66.5q-120 0 -186 64l-46 -64l-23 16l49 70q-49 66 -49 173v186q0 126 66 192.5t189 66.5q120 0 186 -64l46 64zM102 251q0 -96 37 -151l356 503q-55 60 -169 60q-224 0 -224 -235v-177zM550 428
q0 96 -37 152l-356 -503q55 -60 169 -60q224 0 224 234v177z" />
    <glyph glyph-name="Ugrave" unicode="&#xd9;" horiz-adv-x="646" 
d="M336 759l-115 122h41l106 -122h-32zM323 -12q-126 0 -182.5 54.5t-56.5 176.5v461h31v-461q0 -110 47 -156t162 -46q114 0 161 46t47 156v461h30v-461q0 -122 -56.5 -176.5t-182.5 -54.5z" />
    <glyph glyph-name="Uacute" unicode="&#xda;" horiz-adv-x="646" 
d="M278 759l106 122h41l-115 -122h-32zM323 -12q-126 0 -182.5 54.5t-56.5 176.5v461h31v-461q0 -110 47 -156t162 -46q114 0 161 46t47 156v461h30v-461q0 -122 -56.5 -176.5t-182.5 -54.5z" />
    <glyph glyph-name="Ucircumflex" unicode="&#xdb;" horiz-adv-x="646" 
d="M204 759l105 122h28l105 -122h-32l-87 95l-87 -95h-32zM323 -12q-126 0 -182.5 54.5t-56.5 176.5v461h31v-461q0 -110 47 -156t162 -46q114 0 161 46t47 156v461h30v-461q0 -122 -56.5 -176.5t-182.5 -54.5z" />
    <glyph glyph-name="Udieresis" unicode="&#xdc;" horiz-adv-x="646" 
d="M225 788v64h36v-64h-36zM385 788v64h36v-64h-36zM323 -12q-126 0 -182.5 54.5t-56.5 176.5v461h31v-461q0 -110 47 -156t162 -46q114 0 161 46t47 156v461h30v-461q0 -122 -56.5 -176.5t-182.5 -54.5z" />
    <glyph glyph-name="Yacute" unicode="&#xdd;" horiz-adv-x="530" 
d="M220 759l106 122h41l-115 -122h-32zM250 0v306l-246 374h37l225 -342l224 342h36l-246 -374v-306h-30z" />
    <glyph glyph-name="Thorn" unicode="&#xde;" horiz-adv-x="597" 
d="M104 0v680h31v-118h218q111 0 163 -47t52 -147t-52 -147t-163 -47h-218v-174h-31zM135 203h218q99 0 141.5 38.5t42.5 126.5t-42.5 126.5t-141.5 38.5h-218v-330z" />
    <glyph glyph-name="germandbls" unicode="&#xdf;" horiz-adv-x="587" 
d="M122 0v484h-108v25h108v66q0 80 47 123.5t139 43.5q83 0 127.5 -35t44.5 -99q0 -36 -15 -63.5t-53 -59.5q-34 -29 -47 -51t-13 -50q0 -34 19 -55t72 -44q62 -27 86.5 -58t24.5 -81q0 -146 -194 -146h-50v27h48q166 0 166 117q0 42 -22 68t-78 51q-56 24 -78.5 50
t-22.5 69q0 35 15 61.5t55 62.5q32 28 45 50.5t13 52.5q0 51 -36 78.5t-105 27.5q-158 0 -158 -140v-575h-30z" />
    <glyph glyph-name="agrave" unicode="&#xe0;" horiz-adv-x="542" 
d="M274 600l-115 122h41l106 -122h-32zM218 -12q-77 0 -120 38t-43 109q0 150 207 150h165v60q0 149 -162 149q-154 0 -166 -127h-29q8 75 58 114.5t138 39.5q94 0 142.5 -45t48.5 -131v-345h-26l-2 95q-78 -107 -211 -107zM220 14q130 0 207 120v124h-161q-96 0 -138.5 -29
t-42.5 -92q0 -60 35 -91.5t100 -31.5z" />
    <glyph glyph-name="aacute" unicode="&#xe1;" horiz-adv-x="542" 
d="M216 600l106 122h41l-115 -122h-32zM218 -12q-77 0 -120 38t-43 109q0 150 207 150h165v60q0 149 -162 149q-154 0 -166 -127h-29q8 75 58 114.5t138 39.5q94 0 142.5 -45t48.5 -131v-345h-26l-2 95q-78 -107 -211 -107zM220 14q130 0 207 120v124h-161q-96 0 -138.5 -29
t-42.5 -92q0 -60 35 -91.5t100 -31.5z" />
    <glyph glyph-name="acircumflex" unicode="&#xe2;" horiz-adv-x="542" 
d="M142 600l105 122h28l105 -122h-32l-87 95l-87 -95h-32zM218 -12q-77 0 -120 38t-43 109q0 150 207 150h165v60q0 149 -162 149q-154 0 -166 -127h-29q8 75 58 114.5t138 39.5q94 0 142.5 -45t48.5 -131v-345h-26l-2 95q-78 -107 -211 -107zM220 14q130 0 207 120v124
h-161q-96 0 -138.5 -29t-42.5 -92q0 -60 35 -91.5t100 -31.5z" />
    <glyph glyph-name="atilde" unicode="&#xe3;" horiz-adv-x="542" 
d="M313 619q-27 0 -61 30q-28 25 -46 25q-34 0 -43 -57h-24q8 83 70 83q27 0 61 -30q28 -25 46 -25q34 0 43 57h24q-8 -83 -70 -83zM218 -12q-77 0 -120 38t-43 109q0 150 207 150h165v60q0 149 -162 149q-154 0 -166 -127h-29q8 75 58 114.5t138 39.5q94 0 142.5 -45
t48.5 -131v-345h-26l-2 95q-78 -107 -211 -107zM220 14q130 0 207 120v124h-161q-96 0 -138.5 -29t-42.5 -92q0 -60 35 -91.5t100 -31.5z" />
    <glyph glyph-name="adieresis" unicode="&#xe4;" horiz-adv-x="542" 
d="M163 629v64h36v-64h-36zM323 629v64h36v-64h-36zM218 -12q-77 0 -120 38t-43 109q0 150 207 150h165v60q0 149 -162 149q-154 0 -166 -127h-29q8 75 58 114.5t138 39.5q94 0 142.5 -45t48.5 -131v-345h-26l-2 95q-78 -107 -211 -107zM220 14q130 0 207 120v124h-161
q-96 0 -138.5 -29t-42.5 -92q0 -60 35 -91.5t100 -31.5z" />
    <glyph glyph-name="aring" unicode="&#xe5;" horiz-adv-x="542" 
d="M261 592q-35 0 -57.5 22t-22.5 56t22.5 56t57.5 22t57.5 -22t22.5 -56t-22.5 -56t-57.5 -22zM261 616q23 0 38 15t15 39t-15 39t-38 15t-38 -15t-15 -39t15 -39t38 -15zM218 -12q-77 0 -120 38t-43 109q0 150 207 150h165v60q0 149 -162 149q-154 0 -166 -127h-29
q8 75 58 114.5t138 39.5q94 0 142.5 -45t48.5 -131v-345h-26l-2 95q-78 -107 -211 -107zM220 14q130 0 207 120v124h-161q-96 0 -138.5 -29t-42.5 -92q0 -60 35 -91.5t100 -31.5z" />
    <glyph glyph-name="ae" unicode="&#xe6;" horiz-adv-x="905" 
d="M222 -12q-80 0 -123.5 38t-43.5 108q0 151 207 151h165v60q0 149 -162 149q-154 0 -166 -127h-29q7 75 57.5 114.5t138.5 39.5q153 0 180 -119q41 119 188 119q99 0 152.5 -55.5t53.5 -160.5v-52h-383v-45q0 -193 180 -193q76 0 120.5 34.5t49.5 96.5h29q-6 -76 -58 -117
t-140 -41q-154 0 -197 122q-81 -122 -219 -122zM457 280h353v21q0 193 -177 193q-176 0 -176 -193v-21zM224 14q132 0 208 130q-5 30 -5 60v54h-161q-95 0 -138 -29t-43 -92q0 -60 36 -91.5t103 -31.5z" />
    <glyph glyph-name="ccedilla" unicode="&#xe7;" horiz-adv-x="512" 
d="M272 15q153 0 164 139h29q-5 -71 -48.5 -114.5t-120.5 -50.5l-24 -65h5q80 0 80 -56q0 -62 -89 -62q-46 0 -81 18l10 23q29 -18 69 -18q62 0 62 40q0 19 -14.5 26.5t-49.5 7.5h-25l31 85q-97 0 -150 56t-53 160v101q0 104 53 160t150 56q88 0 139 -44.5t56 -121.5h-29
q-11 139 -164 139q-175 0 -175 -193v-93q0 -193 175 -193z" />
    <glyph glyph-name="egrave" unicode="&#xe8;" horiz-adv-x="545" 
d="M287 600l-115 122h41l106 -122h-32zM278 -12q-102 0 -156.5 55.5t-54.5 160.5v101q0 105 53 160.5t154 55.5q100 0 153 -55.5t53 -160.5v-52h-383v-45q0 -193 180 -193q77 0 121 34t49 97h29q-6 -76 -57.5 -117t-140.5 -41zM97 280h353v21q0 193 -177 193
q-176 0 -176 -193v-21z" />
    <glyph glyph-name="eacute" unicode="&#xe9;" horiz-adv-x="545" 
d="M229 600l106 122h41l-115 -122h-32zM278 -12q-102 0 -156.5 55.5t-54.5 160.5v101q0 105 53 160.5t154 55.5q100 0 153 -55.5t53 -160.5v-52h-383v-45q0 -193 180 -193q77 0 121 34t49 97h29q-6 -76 -57.5 -117t-140.5 -41zM97 280h353v21q0 193 -177 193
q-176 0 -176 -193v-21z" />
    <glyph glyph-name="ecircumflex" unicode="&#xea;" horiz-adv-x="545" 
d="M155 600l105 122h28l105 -122h-32l-87 95l-87 -95h-32zM278 -12q-102 0 -156.5 55.5t-54.5 160.5v101q0 105 53 160.5t154 55.5q100 0 153 -55.5t53 -160.5v-52h-383v-45q0 -193 180 -193q77 0 121 34t49 97h29q-6 -76 -57.5 -117t-140.5 -41zM97 280h353v21
q0 193 -177 193q-176 0 -176 -193v-21z" />
    <glyph glyph-name="edieresis" unicode="&#xeb;" horiz-adv-x="545" 
d="M176 629v64h36v-64h-36zM336 629v64h36v-64h-36zM278 -12q-102 0 -156.5 55.5t-54.5 160.5v101q0 105 53 160.5t154 55.5q100 0 153 -55.5t53 -160.5v-52h-383v-45q0 -193 180 -193q77 0 121 34t49 97h29q-6 -76 -57.5 -117t-140.5 -41zM97 280h353v21q0 193 -177 193
q-176 0 -176 -193v-21z" />
    <glyph glyph-name="igrave" unicode="&#xec;" horiz-adv-x="220" 
d="M123 600l-115 122h41l106 -122h-32zM95 0v509h30v-509h-30z" />
    <glyph glyph-name="iacute" unicode="&#xed;" horiz-adv-x="220" 
d="M65 600l106 122h41l-115 -122h-32zM95 0v509h30v-509h-30z" />
    <glyph glyph-name="icircumflex" unicode="&#xee;" horiz-adv-x="220" 
d="M-4 600l100 122h28l100 -122h-32l-82 95l-82 -95h-32zM95 0v509h30v-509h-30z" />
    <glyph glyph-name="idieresis" unicode="&#xef;" horiz-adv-x="220" 
d="M27 629v64h36v-64h-36zM157 629v64h36v-64h-36zM95 0v509h30v-509h-30z" />
    <glyph glyph-name="eth" unicode="&#xf0;" horiz-adv-x="553" 
d="M276 -12q-102 0 -157 56t-55 160v74q0 97 53 152t142 55q118 0 185 -98q-36 123 -135 222l-148 -58l-9 24l137 54q-71 65 -152 101h53q68 -35 127 -90l102 40l9 -24l-91 -36q70 -72 110.5 -160.5t40.5 -173.5v-82q0 -104 -55 -160t-157 -56zM276 15q90 0 136 49t46 144
v79q0 20 -1 27q-63 144 -196 144q-79 0 -123 -47.5t-44 -136.5v-66q0 -95 46 -144t136 -49z" />
    <glyph glyph-name="ntilde" unicode="&#xf1;" horiz-adv-x="563" 
d="M335 619q-27 0 -61 30q-28 25 -46 25q-34 0 -43 -57h-24q8 83 70 83q27 0 61 -30q28 -25 46 -25q34 0 43 57h24q-8 -83 -70 -83zM95 0v509h26l2 -117q64 129 194 129q78 0 118 -46.5t40 -135.5v-339h-30v335q0 159 -131 159q-127 0 -189 -151v-343h-30z" />
    <glyph glyph-name="ograve" unicode="&#xf2;" horiz-adv-x="558" 
d="M292 600l-115 122h41l106 -122h-32zM279 -12q-102 0 -157 56t-55 160v101q0 104 55 160t157 56t157 -56t55 -160v-101q0 -104 -55 -160t-157 -56zM279 15q90 0 136 49t46 144v93q0 94 -46 143.5t-136 49.5t-136 -49.5t-46 -143.5v-93q0 -95 46 -144t136 -49z" />
    <glyph glyph-name="oacute" unicode="&#xf3;" horiz-adv-x="558" 
d="M234 600l106 122h41l-115 -122h-32zM279 -12q-102 0 -157 56t-55 160v101q0 104 55 160t157 56t157 -56t55 -160v-101q0 -104 -55 -160t-157 -56zM279 15q90 0 136 49t46 144v93q0 94 -46 143.5t-136 49.5t-136 -49.5t-46 -143.5v-93q0 -95 46 -144t136 -49z" />
    <glyph glyph-name="ocircumflex" unicode="&#xf4;" horiz-adv-x="558" 
d="M160 600l105 122h28l105 -122h-32l-87 95l-87 -95h-32zM279 -12q-102 0 -157 56t-55 160v101q0 104 55 160t157 56t157 -56t55 -160v-101q0 -104 -55 -160t-157 -56zM279 15q90 0 136 49t46 144v93q0 94 -46 143.5t-136 49.5t-136 -49.5t-46 -143.5v-93q0 -95 46 -144
t136 -49z" />
    <glyph glyph-name="otilde" unicode="&#xf5;" horiz-adv-x="558" 
d="M331 619q-27 0 -61 30q-28 25 -46 25q-34 0 -43 -57h-24q8 83 70 83q27 0 61 -30q28 -25 46 -25q34 0 43 57h24q-8 -83 -70 -83zM279 -12q-102 0 -157 56t-55 160v101q0 104 55 160t157 56t157 -56t55 -160v-101q0 -104 -55 -160t-157 -56zM279 15q90 0 136 49t46 144v93
q0 94 -46 143.5t-136 49.5t-136 -49.5t-46 -143.5v-93q0 -95 46 -144t136 -49z" />
    <glyph glyph-name="odieresis" unicode="&#xf6;" horiz-adv-x="558" 
d="M181 629v64h36v-64h-36zM341 629v64h36v-64h-36zM279 -12q-102 0 -157 56t-55 160v101q0 104 55 160t157 56t157 -56t55 -160v-101q0 -104 -55 -160t-157 -56zM279 15q90 0 136 49t46 144v93q0 94 -46 143.5t-136 49.5t-136 -49.5t-46 -143.5v-93q0 -95 46 -144t136 -49z
" />
    <glyph glyph-name="divide" unicode="&#xf7;" horiz-adv-x="600" 
d="M283 472v70h34v-70h-34zM58 294v28h484v-28h-484zM283 75v70h34v-70h-34z" />
    <glyph glyph-name="oslash" unicode="&#xf8;" horiz-adv-x="558" 
d="M491 504l-42 -54q42 -56 42 -145v-101q0 -104 -55 -160t-157 -56q-97 0 -151 51l-40 -51l-21 17l42 54q-42 56 -42 145v101q0 104 55 160t157 56q97 0 151 -51l40 51zM97 208q0 -79 31 -125l284 364q-45 47 -133 47q-90 0 -136 -49.5t-46 -143.5v-93zM461 301
q0 75 -31 125l-284 -364q45 -47 133 -47q90 0 136 49t46 144v93z" />
    <glyph glyph-name="ugrave" unicode="&#xf9;" horiz-adv-x="567" 
d="M293 600l-115 122h41l106 -122h-32zM248 -12q-79 0 -119.5 46.5t-40.5 135.5v339h30v-335q0 -159 133 -159q129 0 191 151v343h30v-509h-26l-2 117q-64 -129 -196 -129z" />
    <glyph glyph-name="uacute" unicode="&#xfa;" horiz-adv-x="567" 
d="M235 600l106 122h41l-115 -122h-32zM248 -12q-79 0 -119.5 46.5t-40.5 135.5v339h30v-335q0 -159 133 -159q129 0 191 151v343h30v-509h-26l-2 117q-64 -129 -196 -129z" />
    <glyph glyph-name="ucircumflex" unicode="&#xfb;" horiz-adv-x="567" 
d="M161 600l105 122h28l105 -122h-32l-87 95l-87 -95h-32zM248 -12q-79 0 -119.5 46.5t-40.5 135.5v339h30v-335q0 -159 133 -159q129 0 191 151v343h30v-509h-26l-2 117q-64 -129 -196 -129z" />
    <glyph glyph-name="udieresis" unicode="&#xfc;" horiz-adv-x="567" 
d="M182 629v64h36v-64h-36zM342 629v64h36v-64h-36zM248 -12q-79 0 -119.5 46.5t-40.5 135.5v339h30v-335q0 -159 133 -159q129 0 191 151v343h30v-509h-26l-2 117q-64 -129 -196 -129z" />
    <glyph glyph-name="yacute" unicode="&#xfd;" horiz-adv-x="455" 
d="M183 600l106 122h41l-115 -122h-32zM57 -182v27h25q40 0 60 16.5t38 65.5l37 99l-198 483h33l182 -446l172 446h30l-228 -589q-23 -59 -48.5 -80.5t-74.5 -21.5h-28z" />
    <glyph glyph-name="thorn" unicode="&#xfe;" horiz-adv-x="582" 
d="M95 -182v912h30v-338q73 129 207 129q86 0 134.5 -54.5t48.5 -152.5v-119q0 -98 -48.5 -152.5t-134.5 -54.5q-134 0 -207 129v-299h-30zM331 15q75 0 114.5 47t39.5 137v111q0 90 -39.5 137t-114.5 47q-136 0 -206 -155v-169q70 -155 206 -155z" />
    <glyph glyph-name="ydieresis" unicode="&#xff;" horiz-adv-x="455" 
d="M130 629v64h36v-64h-36zM290 629v64h36v-64h-36zM57 -182v27h25q40 0 60 16.5t38 65.5l37 99l-198 483h33l182 -446l172 446h30l-228 -589q-23 -59 -48.5 -80.5t-74.5 -21.5h-28z" />
    <glyph glyph-name="Amacron" unicode="&#x100;" horiz-adv-x="598" 
d="M209 806v26h182v-26h-182zM14 0l269 680h32l269 -680h-33l-81 207h-343l-81 -207h-32zM139 236h319l-159 405z" />
    <glyph glyph-name="amacron" unicode="&#x101;" horiz-adv-x="542" 
d="M170 648v26h182v-26h-182zM218 -12q-77 0 -120 38t-43 109q0 150 207 150h165v60q0 149 -162 149q-154 0 -166 -127h-29q8 75 58 114.5t138 39.5q94 0 142.5 -45t48.5 -131v-345h-26l-2 95q-78 -107 -211 -107zM220 14q130 0 207 120v124h-161q-96 0 -138.5 -29
t-42.5 -92q0 -60 35 -91.5t100 -31.5z" />
    <glyph glyph-name="Abreve" unicode="&#x102;" horiz-adv-x="598" 
d="M300 765q-48 0 -75 27.5t-32 76.5h26q6 -76 81 -76t81 76h26q-5 -49 -32 -76.5t-75 -27.5zM14 0l269 680h32l269 -680h-33l-81 207h-343l-81 -207h-32zM139 236h319l-159 405z" />
    <glyph glyph-name="abreve" unicode="&#x103;" horiz-adv-x="542" 
d="M261 607q-48 0 -75 27.5t-32 76.5h26q6 -76 81 -76t81 76h26q-5 -49 -32 -76.5t-75 -27.5zM218 -12q-77 0 -120 38t-43 109q0 150 207 150h165v60q0 149 -162 149q-154 0 -166 -127h-29q8 75 58 114.5t138 39.5q94 0 142.5 -45t48.5 -131v-345h-26l-2 95
q-78 -107 -211 -107zM220 14q130 0 207 120v124h-161q-96 0 -138.5 -29t-42.5 -92q0 -60 35 -91.5t100 -31.5z" />
    <glyph glyph-name="Aogonek" unicode="&#x104;" horiz-adv-x="598" 
d="M530 -172q28 0 55 18v-27q-28 -14 -57 -14q-37 0 -57.5 19t-20.5 54q0 74 97 131l-77 198h-343l-81 -207h-32l269 680h32l269 -680h-5q-102 -53 -102 -119q0 -53 53 -53zM139 236h319l-159 405z" />
    <glyph glyph-name="aogonek" unicode="&#x105;" horiz-adv-x="542" 
d="M449 0q-100 -53 -100 -118q0 -53 53 -53q28 0 55 18v-27q-28 -14 -57 -14q-37 0 -57.5 19t-20.5 54q0 79 109 137l-2 79q-78 -107 -211 -107q-77 0 -120 38t-43 109q0 150 207 150h165v60q0 149 -162 149q-154 0 -166 -127h-29q8 75 58 114.5t138 39.5q94 0 142.5 -45
t48.5 -131v-345h-8zM427 134v124h-161q-96 0 -138.5 -29t-42.5 -92q0 -60 35 -91.5t100 -31.5q130 0 207 120z" />
    <glyph glyph-name="Cacute" unicode="&#x106;" horiz-adv-x="612" 
d="M271 759l106 122h41l-115 -122h-32zM318 -12q-120 0 -183.5 66t-63.5 193v186q0 127 63 193t183 66q109 0 171 -53.5t68 -154.5h-30q-6 88 -59 133.5t-150 45.5q-215 0 -215 -235v-177q0 -234 216 -234q95 0 148.5 45t59.5 134h30q-6 -101 -67.5 -154.5t-170.5 -53.5z
" />
    <glyph glyph-name="cacute" unicode="&#x107;" horiz-adv-x="512" 
d="M223 600l106 122h41l-115 -122h-32zM271 -12q-97 0 -150.5 56t-53.5 160v101q0 104 53 160t150 56q88 0 139 -44.5t56 -121.5h-29q-11 139 -164 139q-175 0 -175 -193v-93q0 -193 175 -193q153 0 164 139h29q-5 -76 -55 -121t-139 -45z" />
    <glyph glyph-name="Ccircumflex" unicode="&#x108;" horiz-adv-x="612" 
d="M197 759l105 122h28l105 -122h-32l-87 95l-87 -95h-32zM318 -12q-120 0 -183.5 66t-63.5 193v186q0 127 63 193t183 66q109 0 171 -53.5t68 -154.5h-30q-6 88 -59 133.5t-150 45.5q-215 0 -215 -235v-177q0 -234 216 -234q95 0 148.5 45t59.5 134h30
q-6 -101 -67.5 -154.5t-170.5 -53.5z" />
    <glyph glyph-name="ccircumflex" unicode="&#x109;" horiz-adv-x="512" 
d="M149 600l105 122h28l105 -122h-32l-87 95l-87 -95h-32zM271 -12q-97 0 -150.5 56t-53.5 160v101q0 104 53 160t150 56q88 0 139 -44.5t56 -121.5h-29q-11 139 -164 139q-175 0 -175 -193v-93q0 -193 175 -193q153 0 164 139h29q-5 -76 -55 -121t-139 -45z" />
    <glyph glyph-name="Cdotaccent" unicode="&#x10a;" horiz-adv-x="612" 
d="M298 788v64h36v-64h-36zM318 -12q-120 0 -183.5 66t-63.5 193v186q0 127 63 193t183 66q109 0 171 -53.5t68 -154.5h-30q-6 88 -59 133.5t-150 45.5q-215 0 -215 -235v-177q0 -234 216 -234q95 0 148.5 45t59.5 134h30q-6 -101 -67.5 -154.5t-170.5 -53.5z" />
    <glyph glyph-name="cdotaccent" unicode="&#x10b;" horiz-adv-x="512" 
d="M250 629v64h36v-64h-36zM271 -12q-97 0 -150.5 56t-53.5 160v101q0 104 53 160t150 56q88 0 139 -44.5t56 -121.5h-29q-11 139 -164 139q-175 0 -175 -193v-93q0 -193 175 -193q153 0 164 139h29q-5 -76 -55 -121t-139 -45z" />
    <glyph glyph-name="Ccaron" unicode="&#x10c;" horiz-adv-x="612" 
d="M302 759l-105 122h32l87 -95l87 95h32l-105 -122h-28zM318 -12q-120 0 -183.5 66t-63.5 193v186q0 127 63 193t183 66q109 0 171 -53.5t68 -154.5h-30q-6 88 -59 133.5t-150 45.5q-215 0 -215 -235v-177q0 -234 216 -234q95 0 148.5 45t59.5 134h30q-6 -101 -67.5 -154.5
t-170.5 -53.5z" />
    <glyph glyph-name="ccaron" unicode="&#x10d;" horiz-adv-x="512" 
d="M254 600l-105 122h32l87 -95l87 95h32l-105 -122h-28zM271 -12q-97 0 -150.5 56t-53.5 160v101q0 104 53 160t150 56q88 0 139 -44.5t56 -121.5h-29q-11 139 -164 139q-175 0 -175 -193v-93q0 -193 175 -193q153 0 164 139h29q-5 -76 -55 -121t-139 -45z" />
    <glyph glyph-name="Dcaron" unicode="&#x10e;" horiz-adv-x="648" 
d="M302 759l-105 122h32l87 -95l87 95h32l-105 -122h-28zM104 0v680h219q130 0 192.5 -63t62.5 -196v-162q0 -134 -62.5 -196.5t-192.5 -62.5h-219zM135 29h188q117 0 170.5 55t53.5 175v162q0 120 -53.5 175t-170.5 55h-188v-622z" />
    <glyph glyph-name="dcaron" unicode="&#x10f;" horiz-adv-x="582" 
d="M250 -12q-86 0 -134.5 54.5t-48.5 152.5v119q0 98 48.5 152.5t134.5 54.5q134 0 207 -129v338h30v-730h-26l-2 121q-73 -133 -209 -133zM542 545l41 185h33l-50 -185h-24zM251 15q136 0 206 155v169q-70 155 -206 155q-75 0 -114.5 -47t-39.5 -137v-111q0 -90 39.5 -137
t114.5 -47z" />
    <glyph glyph-name="Dcroat" unicode="&#x110;" horiz-adv-x="658" 
d="M333 680q130 0 192.5 -63t62.5 -196v-162q0 -134 -62.5 -196.5t-192.5 -62.5h-219v336h-84v29h84v315h219zM557 259v162q0 120 -53.5 175t-170.5 55h-188v-286h201v-29h-201v-307h188q117 0 170.5 55t53.5 175z" />
    <glyph glyph-name="dcroat" unicode="&#x111;" horiz-adv-x="590" 
d="M580 622v-25h-93v-597h-26l-2 121q-73 -133 -209 -133q-86 0 -134.5 54.5t-48.5 152.5v119q0 98 48.5 152.5t134.5 54.5q134 0 207 -129v205h-143v25h143v108h30v-108h93zM457 170v169q-70 155 -206 155q-75 0 -114.5 -47t-39.5 -137v-111q0 -90 39.5 -137t114.5 -47
q136 0 206 155z" />
    <glyph glyph-name="Emacron" unicode="&#x112;" horiz-adv-x="581" 
d="M228 807v26h182v-26h-182zM104 0v680h430v-29h-399v-286h349v-29h-349v-307h409v-29h-440z" />
    <glyph glyph-name="emacron" unicode="&#x113;" horiz-adv-x="545" 
d="M183 648v26h182v-26h-182zM278 -12q-102 0 -156.5 55.5t-54.5 160.5v101q0 105 53 160.5t154 55.5q100 0 153 -55.5t53 -160.5v-52h-383v-45q0 -193 180 -193q77 0 121 34t49 97h29q-6 -76 -57.5 -117t-140.5 -41zM97 280h353v21q0 193 -177 193q-176 0 -176 -193v-21z
" />
    <glyph glyph-name="Ebreve" unicode="&#x114;" horiz-adv-x="581" 
d="M319 766q-48 0 -75 27.5t-32 76.5h26q6 -76 81 -76t81 76h26q-5 -49 -32 -76.5t-75 -27.5zM104 0v680h430v-29h-399v-286h349v-29h-349v-307h409v-29h-440z" />
    <glyph glyph-name="ebreve" unicode="&#x115;" horiz-adv-x="545" 
d="M274 607q-48 0 -75 27.5t-32 76.5h26q6 -76 81 -76t81 76h26q-5 -49 -32 -76.5t-75 -27.5zM278 -12q-102 0 -156.5 55.5t-54.5 160.5v101q0 105 53 160.5t154 55.5q100 0 153 -55.5t53 -160.5v-52h-383v-45q0 -193 180 -193q77 0 121 34t49 97h29q-6 -76 -57.5 -117
t-140.5 -41zM97 280h353v21q0 193 -177 193q-176 0 -176 -193v-21z" />
    <glyph glyph-name="Edotaccent" unicode="&#x116;" horiz-adv-x="581" 
d="M301 788v64h36v-64h-36zM104 0v680h430v-29h-399v-286h349v-29h-349v-307h409v-29h-440z" />
    <glyph glyph-name="edotaccent" unicode="&#x117;" horiz-adv-x="545" 
d="M256 629v64h36v-64h-36zM278 -12q-102 0 -156.5 55.5t-54.5 160.5v101q0 105 53 160.5t154 55.5q100 0 153 -55.5t53 -160.5v-52h-383v-45q0 -193 180 -193q77 0 121 34t49 97h29q-6 -76 -57.5 -117t-140.5 -41zM97 280h353v21q0 193 -177 193q-176 0 -176 -193v-21z" />
    <glyph glyph-name="Eogonek" unicode="&#x118;" horiz-adv-x="581" 
d="M536 0q-100 -53 -100 -118q0 -53 53 -53q28 0 55 18v-27q-28 -14 -57 -14q-37 0 -57.5 19t-20.5 54q0 69 81 121h-386v680h430v-29h-399v-286h349v-29h-349v-307h409v-29h-8z" />
    <glyph glyph-name="eogonek" unicode="&#x119;" horiz-adv-x="545" 
d="M480 253h-383v-45q0 -193 180 -193q77 0 121 34t49 97h29q-6 -72 -53 -113q-87 -88 -87 -149q0 -55 53 -55q28 0 55 18v-27q-22 -14 -56 -14q-79 0 -79 75q0 53 51 118q-38 -11 -82 -11q-102 0 -156.5 55.5t-54.5 160.5v101q0 105 53 160.5t154 55.5q100 0 153 -55.5
t53 -160.5v-52zM97 301v-21h353v21q0 193 -177 193q-176 0 -176 -193z" />
    <glyph glyph-name="Ecaron" unicode="&#x11a;" horiz-adv-x="581" 
d="M305 759l-105 122h32l87 -95l87 95h32l-105 -122h-28zM104 0v680h430v-29h-399v-286h349v-29h-349v-307h409v-29h-440z" />
    <glyph glyph-name="ecaron" unicode="&#x11b;" horiz-adv-x="545" 
d="M260 600l-105 122h32l87 -95l87 95h32l-105 -122h-28zM278 -12q-102 0 -156.5 55.5t-54.5 160.5v101q0 105 53 160.5t154 55.5q100 0 153 -55.5t53 -160.5v-52h-383v-45q0 -193 180 -193q77 0 121 34t49 97h29q-6 -76 -57.5 -117t-140.5 -41zM97 280h353v21
q0 193 -177 193q-176 0 -176 -193v-21z" />
    <glyph glyph-name="Gcircumflex" unicode="&#x11c;" horiz-adv-x="636" 
d="M201 759l105 122h28l105 -122h-32l-87 95l-87 -95h-32zM324 -12q-121 0 -187 65.5t-66 187.5v198q0 118 66.5 185.5t185.5 67.5q107 0 170 -56t68 -157h-30q-5 88 -59.5 136t-149.5 48q-106 0 -163 -59.5t-57 -168.5v-190q0 -112 57 -170t166 -58q213 0 213 222v60h-185
v30h215v-92q0 -121 -62 -185t-182 -64z" />
    <glyph glyph-name="gcircumflex" unicode="&#x11d;" horiz-adv-x="582" 
d="M160 600l105 122h28l105 -122h-32l-87 95l-87 -95h-32zM280 -194q-92 0 -143.5 37.5t-56.5 105.5h29q11 -116 169 -116q92 0 135.5 41.5t43.5 128.5v129q-74 -127 -207 -127q-86 0 -134.5 54.5t-48.5 152.5v102q0 98 48.5 152.5t134.5 54.5q135 0 209 -131l2 119h26v-506
q0 -197 -207 -197zM251 32q136 0 206 155v152q-70 155 -206 155q-75 0 -114.5 -47t-39.5 -137v-94q0 -90 39.5 -137t114.5 -47z" />
    <glyph glyph-name="Gbreve" unicode="&#x11e;" horiz-adv-x="636" 
d="M320 766q-48 0 -75 27.5t-32 76.5h26q6 -76 81 -76t81 76h26q-5 -49 -32 -76.5t-75 -27.5zM324 -12q-121 0 -187 65.5t-66 187.5v198q0 118 66.5 185.5t185.5 67.5q107 0 170 -56t68 -157h-30q-5 88 -59.5 136t-149.5 48q-106 0 -163 -59.5t-57 -168.5v-190
q0 -112 57 -170t166 -58q213 0 213 222v60h-185v30h215v-92q0 -121 -62 -185t-182 -64z" />
    <glyph glyph-name="gbreve" unicode="&#x11f;" horiz-adv-x="582" 
d="M279 607q-48 0 -75 27.5t-32 76.5h26q6 -76 81 -76t81 76h26q-5 -49 -32 -76.5t-75 -27.5zM280 -194q-92 0 -143.5 37.5t-56.5 105.5h29q11 -116 169 -116q92 0 135.5 41.5t43.5 128.5v129q-74 -127 -207 -127q-86 0 -134.5 54.5t-48.5 152.5v102q0 98 48.5 152.5
t134.5 54.5q135 0 209 -131l2 119h26v-506q0 -197 -207 -197zM251 32q136 0 206 155v152q-70 155 -206 155q-75 0 -114.5 -47t-39.5 -137v-94q0 -90 39.5 -137t114.5 -47z" />
    <glyph glyph-name="Gdotaccent" unicode="&#x120;" horiz-adv-x="636" 
d="M302 788v64h36v-64h-36zM324 -12q-121 0 -187 65.5t-66 187.5v198q0 118 66.5 185.5t185.5 67.5q107 0 170 -56t68 -157h-30q-5 88 -59.5 136t-149.5 48q-106 0 -163 -59.5t-57 -168.5v-190q0 -112 57 -170t166 -58q213 0 213 222v60h-185v30h215v-92q0 -121 -62 -185
t-182 -64z" />
    <glyph glyph-name="gdotaccent" unicode="&#x121;" horiz-adv-x="582" 
d="M261 629v64h36v-64h-36zM280 -194q-92 0 -143.5 37.5t-56.5 105.5h29q11 -116 169 -116q92 0 135.5 41.5t43.5 128.5v129q-74 -127 -207 -127q-86 0 -134.5 54.5t-48.5 152.5v102q0 98 48.5 152.5t134.5 54.5q135 0 209 -131l2 119h26v-506q0 -197 -207 -197zM251 32
q136 0 206 155v152q-70 155 -206 155q-75 0 -114.5 -47t-39.5 -137v-94q0 -90 39.5 -137t114.5 -47z" />
    <glyph glyph-name="Gcommaaccent" unicode="&#x122;" horiz-adv-x="636" 
d="M324 -12q-121 0 -187 65.5t-66 187.5v198q0 118 66.5 185.5t185.5 67.5q107 0 170 -56t68 -157h-30q-5 88 -59.5 136t-149.5 48q-106 0 -163 -59.5t-57 -168.5v-190q0 -112 57 -170t166 -58q213 0 213 222v60h-185v30h215v-92q0 -121 -62 -185t-182 -64zM293 -214v23
q26 1 26 48h-12v52h36v-53q0 -67 -50 -70z" />
    <glyph glyph-name="gcommaaccent" unicode="&#x123;" horiz-adv-x="582" 
d="M311 723v-23q-26 -1 -26 -48h12v-52h-36v53q0 67 50 70zM280 -194q-92 0 -143.5 37.5t-56.5 105.5h29q11 -116 169 -116q92 0 135.5 41.5t43.5 128.5v129q-74 -127 -207 -127q-86 0 -134.5 54.5t-48.5 152.5v102q0 98 48.5 152.5t134.5 54.5q135 0 209 -131l2 119h26
v-506q0 -197 -207 -197zM251 32q136 0 206 155v152q-70 155 -206 155q-75 0 -114.5 -47t-39.5 -137v-94q0 -90 39.5 -137t114.5 -47z" />
    <glyph glyph-name="Hcircumflex" unicode="&#x124;" horiz-adv-x="698" 
d="M230 759l105 122h28l105 -122h-32l-87 95l-87 -95h-32zM104 0v680h31v-315h428v315h31v-680h-31v336h-428v-336h-31z" />
    <glyph glyph-name="hcircumflex" unicode="&#x125;" horiz-adv-x="563" 
d="M-9 809l105 122h28l105 -122h-32l-87 95l-87 -95h-32zM95 0v730h30v-334q65 125 192 125q78 0 118 -46.5t40 -135.5v-339h-30v335q0 159 -131 159q-127 0 -189 -151v-343h-30z" />
    <glyph glyph-name="Hbar" unicode="&#x126;" horiz-adv-x="718" 
d="M688 527v-29h-84v-498h-31v336h-428v-336h-31v498h-84v29h84v153h31v-153h428v153h31v-153h84zM573 365v133h-428v-133h428z" />
    <glyph glyph-name="hbar" unicode="&#x127;" horiz-adv-x="571" 
d="M325 521q78 0 118 -46.5t40 -135.5v-339h-30v335q0 159 -131 159q-127 0 -189 -151v-343h-30v597h-93v25h93v108h30v-108h143v-25h-143v-201q65 125 192 125z" />
    <glyph glyph-name="Itilde" unicode="&#x128;" horiz-adv-x="239" 
d="M169 778q-24 0 -58 30q-27 25 -43 25q-34 0 -41 -57h-24q8 83 68 83q24 0 58 -30q27 -25 43 -25q34 0 41 57h24q-8 -83 -68 -83zM104 0v680h31v-680h-31z" />
    <glyph glyph-name="itilde" unicode="&#x129;" horiz-adv-x="220" 
d="M159 619q-24 0 -58 30q-27 25 -43 25q-34 0 -41 -57h-24q8 83 68 83q24 0 58 -30q27 -25 43 -25q34 0 41 57h24q-8 -83 -68 -83zM95 0v509h30v-509h-30z" />
    <glyph glyph-name="Imacron" unicode="&#x12a;" horiz-adv-x="239" 
d="M34 807v26h172v-26h-172zM104 0v680h31v-680h-31z" />
    <glyph glyph-name="imacron" unicode="&#x12b;" horiz-adv-x="220" 
d="M24 648v26h172v-26h-172zM95 0v509h30v-509h-30z" />
    <glyph glyph-name="Ibreve" unicode="&#x12c;" horiz-adv-x="239" 
d="M120 766q-47 0 -73 27.5t-29 76.5h26q2 -35 21 -55.5t55 -20.5t55 20.5t21 55.5h26q-3 -49 -29 -76.5t-73 -27.5zM104 0v680h31v-680h-31z" />
    <glyph glyph-name="ibreve" unicode="&#x12d;" horiz-adv-x="220" 
d="M110 607q-47 0 -73 27.5t-29 76.5h26q2 -35 21 -55.5t55 -20.5t55 20.5t21 55.5h26q-3 -49 -29 -76.5t-73 -27.5zM95 0v509h30v-509h-30z" />
    <glyph glyph-name="Iogonek" unicode="&#x12e;" horiz-adv-x="239" 
d="M123 -171q29 0 56 18v-27q-31 -14 -58 -14q-38 0 -58.5 19.5t-20.5 54.5q0 60 62 122v678h31v-680q-66 -63 -66 -117t54 -54z" />
    <glyph glyph-name="iogonek" unicode="&#x12f;" horiz-adv-x="220" 
d="M128 696v-70h-36v70h36zM113 -171q29 0 56 18v-27q-31 -14 -58 -14q-38 0 -58.5 19.5t-20.5 54.5q0 62 63 123v506h30v-509q-66 -63 -66 -117t54 -54z" />
    <glyph glyph-name="Idotaccent" unicode="&#x130;" horiz-adv-x="239" 
d="M102 788v64h36v-64h-36zM104 0v680h31v-680h-31z" />
    <glyph glyph-name="dotlessi" unicode="&#x131;" horiz-adv-x="220" 
d="M95 0v509h30v-509h-30z" />
    <glyph glyph-name="IJ" unicode="&#x132;" horiz-adv-x="787" 
d="M104 0v680h31v-680h-31zM478 -12q-112 0 -166 53t-54 163v12h29v-7q0 -101 45 -146.5t145 -45.5q104 0 149.5 50t45.5 164v449h31v-454q0 -122 -54.5 -180t-170.5 -58z" />
    <glyph glyph-name="ij" unicode="&#x133;" horiz-adv-x="440" 
d="M92 626v70h36v-70h-36zM312 626v70h36v-70h-36zM95 0v509h30v-509h-30zM214 -182v27h21q46 0 63 21.5t17 80.5v562h30v-564q0 -68 -25 -97.5t-83 -29.5h-23z" />
    <glyph glyph-name="Jcircumflex" unicode="&#x134;" horiz-adv-x="548" 
d="M334 759l100 122h28l100 -122h-32l-82 95l-82 -95h-32zM239 -12q-112 0 -166 53t-54 163v12h29v-7q0 -101 45 -146.5t145 -45.5q104 0 149.5 50t45.5 164v449h31v-454q0 -122 -54.5 -180t-170.5 -58z" />
    <glyph glyph-name="jcircumflex" unicode="&#x135;" horiz-adv-x="220" 
d="M-4 600l100 122h28l100 -122h-32l-82 95l-82 -95h-32zM-6 -182v27h21q46 0 63 21.5t17 80.5v562h30v-564q0 -68 -25 -97.5t-83 -29.5h-23z" />
    <glyph glyph-name="Kcommaaccent" unicode="&#x136;" horiz-adv-x="617" 
d="M104 0v680h31v-423l419 423h41l-273 -275l277 -405h-38l-261 382l-165 -166v-216h-31zM302 -214v23q26 1 26 48h-12v52h36v-53q0 -67 -50 -70z" />
    <glyph glyph-name="kcommaaccent" unicode="&#x137;" horiz-adv-x="517" 
d="M95 0v730h30v-530l326 309h41l-221 -209l225 -300h-37l-209 279l-125 -118v-161h-30zM253 -214v23q26 1 26 48h-12v52h36v-53q0 -67 -50 -70z" />
    <glyph glyph-name="kgreenlandic" unicode="&#x138;" horiz-adv-x="517" 
d="M95 0v509h30v-309l326 309h41l-221 -209l225 -300h-37l-209 279l-125 -118v-161h-30z" />
    <glyph glyph-name="Lacute" unicode="&#x139;" horiz-adv-x="523" 
d="M75 759l106 122h41l-115 -122h-32zM104 0v680h31v-651h380v-29h-411z" />
    <glyph glyph-name="lacute" unicode="&#x13a;" horiz-adv-x="220" 
d="M65 809l106 122h41l-115 -122h-32zM95 0v730h30v-730h-30z" />
    <glyph glyph-name="Lcommaaccent" unicode="&#x13b;" horiz-adv-x="523" 
d="M104 0v680h31v-651h380v-29h-411zM277 -214v23q26 1 26 48h-12v52h36v-53q0 -67 -50 -70z" />
    <glyph glyph-name="lcommaaccent" unicode="&#x13c;" horiz-adv-x="220" 
d="M95 0v730h30v-730h-30zM78 -214v23q26 1 26 48h-12v52h36v-53q0 -67 -50 -70z" />
    <glyph glyph-name="Lcaron" unicode="&#x13d;" horiz-adv-x="523" 
d="M104 0v680h31v-651h380v-29h-411zM209 495l41 185h33l-50 -185h-24z" />
    <glyph glyph-name="lcaron" unicode="&#x13e;" horiz-adv-x="220" 
d="M95 0v730h30v-730h-30zM180 545l41 185h33l-50 -185h-24z" />
    <glyph glyph-name="Ldot" unicode="&#x13f;" horiz-adv-x="523" 
d="M104 0v680h31v-651h380v-29h-411zM360 307v70h41v-70h-41z" />
    <glyph glyph-name="ldot" unicode="&#x140;" horiz-adv-x="220" 
d="M95 0v730h30v-730h-30zM199 325v70h41v-70h-41z" />
    <glyph glyph-name="Lslash" unicode="&#x141;" horiz-adv-x="533" 
d="M145 29h380v-29h-411v234l-84 -60v33l84 60v413h31v-391l236 168v-33l-236 -168v-227z" />
    <glyph glyph-name="lslash" unicode="&#x142;" horiz-adv-x="240" 
d="M231 479v-32l-96 -80v-367h-30v342l-96 -80v32l96 80v356h30v-331z" />
    <glyph glyph-name="Nacute" unicode="&#x143;" horiz-adv-x="694" 
d="M302 759l106 122h41l-115 -122h-32zM104 0v680h40l416 -626v626h30v-680h-30l-426 641v-641h-30z" />
    <glyph glyph-name="nacute" unicode="&#x144;" horiz-adv-x="563" 
d="M238 600l106 122h41l-115 -122h-32zM95 0v509h26l2 -117q64 129 194 129q78 0 118 -46.5t40 -135.5v-339h-30v335q0 159 -131 159q-127 0 -189 -151v-343h-30z" />
    <glyph glyph-name="Ncommaaccent" unicode="&#x145;" horiz-adv-x="694" 
d="M104 0v680h40l416 -626v626h30v-680h-30l-426 641v-641h-30zM315 -214v23q26 1 26 48h-12v52h36v-53q0 -67 -50 -70z" />
    <glyph glyph-name="ncommaaccent" unicode="&#x146;" horiz-adv-x="563" 
d="M95 0v509h26l2 -117q64 129 194 129q78 0 118 -46.5t40 -135.5v-339h-30v335q0 159 -131 159q-127 0 -189 -151v-343h-30zM253 -214v23q26 1 26 48h-12v52h36v-53q0 -67 -50 -70z" />
    <glyph glyph-name="Ncaron" unicode="&#x147;" horiz-adv-x="694" 
d="M333 759l-105 122h32l87 -95l87 95h32l-105 -122h-28zM104 0v680h40l416 -626v626h30v-680h-30l-426 641v-641h-30z" />
    <glyph glyph-name="ncaron" unicode="&#x148;" horiz-adv-x="563" 
d="M269 600l-105 122h32l87 -95l87 95h32l-105 -122h-28zM95 0v509h26l2 -117q64 129 194 129q78 0 118 -46.5t40 -135.5v-339h-30v335q0 159 -131 159q-127 0 -189 -151v-343h-30z" />
    <glyph glyph-name="napostrophe" unicode="&#x149;" horiz-adv-x="563" 
d="M78 576v22q26 1 26 42v19h-12v58h36v-72q0 -66 -50 -69zM95 0v509h26l2 -117q64 129 194 129q78 0 118 -46.5t40 -135.5v-339h-30v335q0 159 -131 159q-127 0 -189 -151v-343h-30z" />
    <glyph glyph-name="Eng" unicode="&#x14a;" horiz-adv-x="694" 
d="M456 -182v27h24q46 0 63 21.5t17 80.5v53l-426 641v-641h-30v680h40l416 -626v626h30v-735q0 -68 -25 -97.5t-83 -29.5h-26z" />
    <glyph glyph-name="eng" unicode="&#x14b;" horiz-adv-x="563" 
d="M317 521q78 0 118 -46.5t40 -135.5v-394q0 -68 -25 -97.5t-83 -29.5h-26v26h24q46 0 63 22t17 81v388q0 159 -131 159q-127 0 -189 -151v-343h-30v509h26l2 -117q64 129 194 129z" />
    <glyph glyph-name="Omacron" unicode="&#x14c;" horiz-adv-x="652" 
d="M235 807v26h182v-26h-182zM326 -12q-123 0 -189 66.5t-66 192.5v186q0 126 66 192.5t189 66.5t189 -66.5t66 -192.5v-186q0 -126 -66 -192.5t-189 -66.5zM326 17q224 0 224 234v177q0 235 -224 235t-224 -235v-177q0 -234 224 -234z" />
    <glyph glyph-name="omacron" unicode="&#x14d;" horiz-adv-x="558" 
d="M188 648v26h182v-26h-182zM279 -12q-102 0 -157 56t-55 160v101q0 104 55 160t157 56t157 -56t55 -160v-101q0 -104 -55 -160t-157 -56zM279 15q90 0 136 49t46 144v93q0 94 -46 143.5t-136 49.5t-136 -49.5t-46 -143.5v-93q0 -95 46 -144t136 -49z" />
    <glyph glyph-name="Obreve" unicode="&#x14e;" horiz-adv-x="652" 
d="M326 766q-48 0 -75 27.5t-32 76.5h26q6 -76 81 -76t81 76h26q-5 -49 -32 -76.5t-75 -27.5zM326 -12q-123 0 -189 66.5t-66 192.5v186q0 126 66 192.5t189 66.5t189 -66.5t66 -192.5v-186q0 -126 -66 -192.5t-189 -66.5zM326 17q224 0 224 234v177q0 235 -224 235
t-224 -235v-177q0 -234 224 -234z" />
    <glyph glyph-name="obreve" unicode="&#x14f;" horiz-adv-x="558" 
d="M279 607q-48 0 -75 27.5t-32 76.5h26q6 -76 81 -76t81 76h26q-5 -49 -32 -76.5t-75 -27.5zM279 -12q-102 0 -157 56t-55 160v101q0 104 55 160t157 56t157 -56t55 -160v-101q0 -104 -55 -160t-157 -56zM279 15q90 0 136 49t46 144v93q0 94 -46 143.5t-136 49.5
t-136 -49.5t-46 -143.5v-93q0 -95 46 -144t136 -49z" />
    <glyph glyph-name="Ohungarumlaut" unicode="&#x150;" horiz-adv-x="652" 
d="M221 759l85 122h40l-96 -122h-29zM362 759l86 122h39l-96 -122h-29zM326 -12q-123 0 -189 66.5t-66 192.5v186q0 126 66 192.5t189 66.5t189 -66.5t66 -192.5v-186q0 -126 -66 -192.5t-189 -66.5zM326 17q224 0 224 234v177q0 235 -224 235t-224 -235v-177
q0 -234 224 -234z" />
    <glyph glyph-name="ohungarumlaut" unicode="&#x151;" horiz-adv-x="558" 
d="M174 600l85 122h40l-96 -122h-29zM315 600l86 122h39l-96 -122h-29zM279 -12q-102 0 -157 56t-55 160v101q0 104 55 160t157 56t157 -56t55 -160v-101q0 -104 -55 -160t-157 -56zM279 15q90 0 136 49t46 144v93q0 94 -46 143.5t-136 49.5t-136 -49.5t-46 -143.5v-93
q0 -95 46 -144t136 -49z" />
    <glyph glyph-name="OE" unicode="&#x152;" horiz-adv-x="931" 
d="M326 0q-130 0 -193 63t-63 196v162q0 133 63 196t193 63h558v-29h-371v-286h321v-29h-321v-307h381v-29h-568zM326 29h156v622h-156q-117 0 -171 -55t-54 -175v-162q0 -120 54 -175t171 -55z" />
    <glyph glyph-name="oe" unicode="&#x153;" horiz-adv-x="939" 
d="M491 253v-45q0 -193 180 -193q76 0 120.5 34.5t49.5 96.5h29q-6 -76 -58 -117t-140 -41q-159 0 -196 134q-37 -134 -197 -134q-101 0 -156.5 56.5t-55.5 159.5v101q0 103 55.5 159.5t156.5 56.5q158 0 197 -134q35 134 192 134q99 0 152.5 -55.5t53.5 -160.5v-52h-383z
M461 208v93q0 94 -46.5 143.5t-135.5 49.5t-135.5 -49.5t-46.5 -143.5v-93q0 -95 46.5 -144t135.5 -49t135.5 49t46.5 144zM667 494q-176 0 -176 -193v-21h353v21q0 193 -177 193z" />
    <glyph glyph-name="Racute" unicode="&#x154;" horiz-adv-x="628" 
d="M263 759l106 122h41l-115 -122h-32zM104 0v680h250q109 0 158.5 -45t49.5 -144q0 -90 -40.5 -135t-128.5 -52l194 -304h-37l-193 302h-222v-302h-31zM135 331h219q96 0 136.5 36.5t40.5 123.5t-40.5 123.5t-136.5 36.5h-219v-320z" />
    <glyph glyph-name="racute" unicode="&#x155;" horiz-adv-x="336" 
d="M140 600l106 122h41l-115 -122h-32zM95 0v509h26l2 -113q46 122 167 122h32v-27h-29q-67 0 -108 -40.5t-60 -128.5v-322h-30z" />
    <glyph glyph-name="Rcommaaccent" unicode="&#x156;" horiz-adv-x="628" 
d="M104 0v680h250q109 0 158.5 -45t49.5 -144q0 -90 -40.5 -135t-128.5 -52l194 -304h-37l-193 302h-222v-302h-31zM135 331h219q96 0 136.5 36.5t40.5 123.5t-40.5 123.5t-136.5 36.5h-219v-320zM300 -214v23q26 1 26 48h-12v52h36v-53q0 -67 -50 -70z" />
    <glyph glyph-name="rcommaaccent" unicode="&#x157;" horiz-adv-x="336" 
d="M95 0v509h26l2 -113q46 122 167 122h32v-27h-29q-67 0 -108 -40.5t-60 -128.5v-322h-30zM78 -214v23q26 1 26 48h-12v52h36v-53q0 -67 -50 -70z" />
    <glyph glyph-name="Rcaron" unicode="&#x158;" horiz-adv-x="628" 
d="M294 759l-105 122h32l87 -95l87 95h32l-105 -122h-28zM104 0v680h250q109 0 158.5 -45t49.5 -144q0 -90 -40.5 -135t-128.5 -52l194 -304h-37l-193 302h-222v-302h-31zM135 331h219q96 0 136.5 36.5t40.5 123.5t-40.5 123.5t-136.5 36.5h-219v-320z" />
    <glyph glyph-name="rcaron" unicode="&#x159;" horiz-adv-x="336" 
d="M171 600l-105 122h32l87 -95l87 95h32l-105 -122h-28zM95 0v509h26l2 -113q46 122 167 122h32v-27h-29q-67 0 -108 -40.5t-60 -128.5v-322h-30z" />
    <glyph glyph-name="Sacute" unicode="&#x15a;" horiz-adv-x="555" 
d="M230 759l106 122h41l-115 -122h-32zM281 -12q-115 0 -177.5 47.5t-62.5 133.5h30q0 -73 55 -112.5t157 -39.5q199 0 199 154q0 76 -47.5 112.5t-163.5 51.5q-117 15 -166.5 55t-49.5 119q0 88 58.5 135.5t167.5 47.5q107 0 163.5 -45.5t56.5 -131.5h-30q0 148 -188 148
q-97 0 -147.5 -38.5t-50.5 -111.5q0 -69 45.5 -103t155.5 -48q125 -16 175.5 -58.5t50.5 -128.5q0 -92 -59 -139.5t-172 -47.5z" />
    <glyph glyph-name="sacute" unicode="&#x15b;" horiz-adv-x="495" 
d="M197 600l106 122h41l-115 -122h-32zM246 -12q-98 0 -149.5 39t-51.5 112h29q0 -124 171 -124q83 0 126 30.5t43 87.5q0 54 -39 80t-134 34q-99 9 -141 39t-42 91q0 68 49.5 106t138.5 38t136.5 -38t47.5 -109h-29q0 58 -39.5 89t-114.5 31q-76 0 -118 -30.5t-42 -84.5
q0 -49 37.5 -73t127.5 -32q104 -10 147.5 -41.5t43.5 -97.5q0 -71 -50.5 -109t-146.5 -38z" />
    <glyph glyph-name="Scircumflex" unicode="&#x15c;" horiz-adv-x="555" 
d="M156 759l105 122h28l105 -122h-32l-87 95l-87 -95h-32zM281 -12q-115 0 -177.5 47.5t-62.5 133.5h30q0 -73 55 -112.5t157 -39.5q199 0 199 154q0 76 -47.5 112.5t-163.5 51.5q-117 15 -166.5 55t-49.5 119q0 88 58.5 135.5t167.5 47.5q107 0 163.5 -45.5t56.5 -131.5
h-30q0 148 -188 148q-97 0 -147.5 -38.5t-50.5 -111.5q0 -69 45.5 -103t155.5 -48q125 -16 175.5 -58.5t50.5 -128.5q0 -92 -59 -139.5t-172 -47.5z" />
    <glyph glyph-name="scircumflex" unicode="&#x15d;" horiz-adv-x="495" 
d="M123 600l105 122h28l105 -122h-32l-87 95l-87 -95h-32zM246 -12q-98 0 -149.5 39t-51.5 112h29q0 -124 171 -124q83 0 126 30.5t43 87.5q0 54 -39 80t-134 34q-99 9 -141 39t-42 91q0 68 49.5 106t138.5 38t136.5 -38t47.5 -109h-29q0 58 -39.5 89t-114.5 31
q-76 0 -118 -30.5t-42 -84.5q0 -49 37.5 -73t127.5 -32q104 -10 147.5 -41.5t43.5 -97.5q0 -71 -50.5 -109t-146.5 -38z" />
    <glyph glyph-name="Scedilla" unicode="&#x15e;" horiz-adv-x="555" 
d="M512 175q0 -176 -209 -187l-23 -64h5q80 0 80 -56q0 -62 -89 -62q-46 0 -81 18l10 23q29 -18 69 -18q62 0 62 40q0 19 -14.5 26.5t-49.5 7.5h-25l31 85q-113 1 -175 48t-62 133h30q0 -73 55 -112.5t157 -39.5q199 0 199 154q0 76 -47.5 112.5t-163.5 51.5
q-117 15 -166.5 55t-49.5 119q0 88 58.5 135.5t167.5 47.5q107 0 163.5 -45.5t56.5 -131.5h-30q0 148 -188 148q-97 0 -147.5 -38.5t-50.5 -111.5q0 -69 45.5 -103t155.5 -48q125 -16 175.5 -58.5t50.5 -128.5z" />
    <glyph glyph-name="scedilla" unicode="&#x15f;" horiz-adv-x="495" 
d="M443 135q0 -66 -45 -104t-130 -42l-23 -65h5q80 0 80 -56q0 -62 -89 -62q-47 0 -81 18l10 23q28 -18 69 -18q62 0 62 40q0 19 -14.5 26.5t-49.5 7.5h-25l31 85q-96 1 -147 39.5t-51 111.5h29q0 -124 171 -124q83 0 126 30.5t43 87.5q0 54 -39 80t-134 34q-99 9 -141 39
t-42 91q0 68 49.5 106t138.5 38t136.5 -38t47.5 -109h-29q0 58 -39.5 89t-114.5 31q-76 0 -118 -30.5t-42 -84.5q0 -49 37.5 -73t127.5 -32q104 -10 147.5 -41.5t43.5 -97.5z" />
    <glyph glyph-name="Scaron" unicode="&#x160;" horiz-adv-x="555" 
d="M261 759l-105 122h32l87 -95l87 95h32l-105 -122h-28zM281 -12q-115 0 -177.5 47.5t-62.5 133.5h30q0 -73 55 -112.5t157 -39.5q199 0 199 154q0 76 -47.5 112.5t-163.5 51.5q-117 15 -166.5 55t-49.5 119q0 88 58.5 135.5t167.5 47.5q107 0 163.5 -45.5t56.5 -131.5h-30
q0 148 -188 148q-97 0 -147.5 -38.5t-50.5 -111.5q0 -69 45.5 -103t155.5 -48q125 -16 175.5 -58.5t50.5 -128.5q0 -92 -59 -139.5t-172 -47.5z" />
    <glyph glyph-name="scaron" unicode="&#x161;" horiz-adv-x="495" 
d="M228 600l-105 122h32l87 -95l87 95h32l-105 -122h-28zM246 -12q-98 0 -149.5 39t-51.5 112h29q0 -124 171 -124q83 0 126 30.5t43 87.5q0 54 -39 80t-134 34q-99 9 -141 39t-42 91q0 68 49.5 106t138.5 38t136.5 -38t47.5 -109h-29q0 58 -39.5 89t-114.5 31
q-76 0 -118 -30.5t-42 -84.5q0 -49 37.5 -73t127.5 -32q104 -10 147.5 -41.5t43.5 -97.5q0 -71 -50.5 -109t-146.5 -38z" />
    <glyph glyph-name="uni0162" unicode="&#x162;" horiz-adv-x="497" 
d="M264 0h-3l-26 -76h6q80 0 80 -56q0 -62 -89 -62q-46 0 -81 18l10 23q29 -18 69 -18q62 0 62 40q0 19 -14.5 26.5t-49.5 7.5h-25l33 97h-3v651h-225v29h481v-29h-225v-651z" />
    <glyph glyph-name="uni0163" unicode="&#x163;" horiz-adv-x="325" 
d="M240 0q-12 0 -32 2l-28 -78h5q80 0 80 -56q0 -62 -89 -62q-46 0 -81 18l10 23q29 -18 69 -18q62 0 62 40q0 19 -14.5 26.5t-49.5 7.5h-25l38 105q-68 25 -68 136v340h-103v25h103l3 143h27v-143h150v-25h-150v-338q0 -66 21 -92.5t74 -26.5h62v-27h-64z" />
    <glyph glyph-name="Tcaron" unicode="&#x164;" horiz-adv-x="497" 
d="M235 759l-105 122h32l87 -95l87 95h32l-105 -122h-28zM233 0v651h-225v29h481v-29h-225v-651h-31z" />
    <glyph glyph-name="tcaron" unicode="&#x165;" horiz-adv-x="325" 
d="M207 590l41 185h33l-50 -185h-24zM240 0q-65 0 -94 34t-29 110v340h-103v25h103l3 143h27v-143h150v-25h-150v-338q0 -66 21 -92.5t74 -26.5h62v-27h-64z" />
    <glyph glyph-name="Tbar" unicode="&#x166;" horiz-adv-x="497" 
d="M489 651h-225v-278h150v-29h-150v-344h-31v344h-150v29h150v278h-225v29h481v-29z" />
    <glyph glyph-name="tbar" unicode="&#x167;" horiz-adv-x="325" 
d="M242 27h62v-27h-64q-65 0 -94 34t-29 110v159h-95v25h95v156h-103v25h103l3 143h27v-143h150v-25h-150v-156h142v-25h-142v-157q0 -66 21 -92.5t74 -26.5z" />
    <glyph glyph-name="Utilde" unicode="&#x168;" horiz-adv-x="646" 
d="M375 778q-27 0 -61 30q-28 25 -46 25q-34 0 -43 -57h-24q8 83 70 83q27 0 61 -30q28 -25 46 -25q34 0 43 57h24q-8 -83 -70 -83zM323 -12q-126 0 -182.5 54.5t-56.5 176.5v461h31v-461q0 -110 47 -156t162 -46q114 0 161 46t47 156v461h30v-461q0 -122 -56.5 -176.5
t-182.5 -54.5z" />
    <glyph glyph-name="utilde" unicode="&#x169;" horiz-adv-x="567" 
d="M332 619q-27 0 -61 30q-28 25 -46 25q-34 0 -43 -57h-24q8 83 70 83q27 0 61 -30q28 -25 46 -25q34 0 43 57h24q-8 -83 -70 -83zM248 -12q-79 0 -119.5 46.5t-40.5 135.5v339h30v-335q0 -159 133 -159q129 0 191 151v343h30v-509h-26l-2 117q-64 -129 -196 -129z" />
    <glyph glyph-name="Umacron" unicode="&#x16a;" horiz-adv-x="646" 
d="M232 807v26h182v-26h-182zM323 -12q-126 0 -182.5 54.5t-56.5 176.5v461h31v-461q0 -110 47 -156t162 -46q114 0 161 46t47 156v461h30v-461q0 -122 -56.5 -176.5t-182.5 -54.5z" />
    <glyph glyph-name="umacron" unicode="&#x16b;" horiz-adv-x="567" 
d="M189 648v26h182v-26h-182zM248 -12q-79 0 -119.5 46.5t-40.5 135.5v339h30v-335q0 -159 133 -159q129 0 191 151v343h30v-509h-26l-2 117q-64 -129 -196 -129z" />
    <glyph glyph-name="Ubreve" unicode="&#x16c;" horiz-adv-x="646" 
d="M323 766q-48 0 -75 27.5t-32 76.5h26q6 -76 81 -76t81 76h26q-5 -49 -32 -76.5t-75 -27.5zM323 -12q-126 0 -182.5 54.5t-56.5 176.5v461h31v-461q0 -110 47 -156t162 -46q114 0 161 46t47 156v461h30v-461q0 -122 -56.5 -176.5t-182.5 -54.5z" />
    <glyph glyph-name="ubreve" unicode="&#x16d;" horiz-adv-x="567" 
d="M280 607q-48 0 -75 27.5t-32 76.5h26q6 -76 81 -76t81 76h26q-5 -49 -32 -76.5t-75 -27.5zM248 -12q-79 0 -119.5 46.5t-40.5 135.5v339h30v-335q0 -159 133 -159q129 0 191 151v343h30v-509h-26l-2 117q-64 -129 -196 -129z" />
    <glyph glyph-name="Uring" unicode="&#x16e;" horiz-adv-x="646" 
d="M323 751q-35 0 -57.5 22t-22.5 56t22.5 56t57.5 22t57.5 -22t22.5 -56t-22.5 -56t-57.5 -22zM323 775q23 0 38 15t15 39t-15 39t-38 15t-38 -15t-15 -39t15 -39t38 -15zM323 -12q-126 0 -182.5 54.5t-56.5 176.5v461h31v-461q0 -110 47 -156t162 -46q114 0 161 46t47 156
v461h30v-461q0 -122 -56.5 -176.5t-182.5 -54.5z" />
    <glyph glyph-name="uring" unicode="&#x16f;" horiz-adv-x="567" 
d="M280 592q-35 0 -57.5 22t-22.5 56t22.5 56t57.5 22t57.5 -22t22.5 -56t-22.5 -56t-57.5 -22zM280 616q23 0 38 15t15 39t-15 39t-38 15t-38 -15t-15 -39t15 -39t38 -15zM248 -12q-79 0 -119.5 46.5t-40.5 135.5v339h30v-335q0 -159 133 -159q129 0 191 151v343h30v-509
h-26l-2 117q-64 -129 -196 -129z" />
    <glyph glyph-name="Uhungarumlaut" unicode="&#x170;" horiz-adv-x="646" 
d="M218 759l85 122h40l-96 -122h-29zM359 759l86 122h39l-96 -122h-29zM323 -12q-126 0 -182.5 54.5t-56.5 176.5v461h31v-461q0 -110 47 -156t162 -46q114 0 161 46t47 156v461h30v-461q0 -122 -56.5 -176.5t-182.5 -54.5z" />
    <glyph glyph-name="uhungarumlaut" unicode="&#x171;" horiz-adv-x="567" 
d="M175 600l85 122h40l-96 -122h-29zM316 600l86 122h39l-96 -122h-29zM248 -12q-79 0 -119.5 46.5t-40.5 135.5v339h30v-335q0 -159 133 -159q129 0 191 151v343h30v-509h-26l-2 117q-64 -129 -196 -129z" />
    <glyph glyph-name="Uogonek" unicode="&#x172;" horiz-adv-x="646" 
d="M532 680h30v-461q0 -98 -36 -152t-113 -70q-105 -47 -105 -115q0 -53 53 -53q28 0 55 18v-27q-22 -14 -56 -14q-79 0 -79 73q0 65 68 110q-8 -1 -26 -1q-126 0 -182.5 54.5t-56.5 176.5v461h31v-461q0 -110 47 -156t162 -46q114 0 161 46t47 156v461z" />
    <glyph glyph-name="uogonek" unicode="&#x173;" horiz-adv-x="567" 
d="M464 0q-100 -53 -100 -118q0 -53 53 -53q28 0 55 18v-27q-28 -14 -57 -14q-37 0 -57.5 19t-20.5 54q0 79 109 137l-2 101q-64 -129 -196 -129q-79 0 -119.5 46.5t-40.5 135.5v339h30v-335q0 -159 133 -159q129 0 191 151v343h30v-509h-8z" />
    <glyph glyph-name="Wcircumflex" unicode="&#x174;" horiz-adv-x="876" 
d="M319 759l105 122h28l105 -122h-32l-87 95l-87 -95h-32zM214 0l-200 680h32l186 -633l190 633h33l190 -633l186 633h31l-200 -680h-33l-191 630l-191 -630h-33z" />
    <glyph glyph-name="wcircumflex" unicode="&#x175;" horiz-adv-x="769" 
d="M266 600l105 122h28l105 -122h-32l-87 95l-87 -95h-32zM193 0l-174 509h32l159 -471l159 471h31l160 -472l159 472h31l-174 -509h-34l-158 465l-158 -465h-33z" />
    <glyph glyph-name="Ycircumflex" unicode="&#x176;" horiz-adv-x="530" 
d="M146 759l105 122h28l105 -122h-32l-87 95l-87 -95h-32zM250 0v306l-246 374h37l225 -342l224 342h36l-246 -374v-306h-30z" />
    <glyph glyph-name="ycircumflex" unicode="&#x177;" horiz-adv-x="455" 
d="M109 600l105 122h28l105 -122h-32l-87 95l-87 -95h-32zM57 -182v27h25q40 0 60 16.5t38 65.5l37 99l-198 483h33l182 -446l172 446h30l-228 -589q-23 -59 -48.5 -80.5t-74.5 -21.5h-28z" />
    <glyph glyph-name="Ydieresis" unicode="&#x178;" horiz-adv-x="530" 
d="M167 788v64h36v-64h-36zM327 788v64h36v-64h-36zM250 0v306l-246 374h37l225 -342l224 342h36l-246 -374v-306h-30z" />
    <glyph glyph-name="Zacute" unicode="&#x179;" horiz-adv-x="536" 
d="M227 759l106 122h41l-115 -122h-32zM32 0v27l426 624h-408v29h445v-27l-426 -624h435v-29h-472z" />
    <glyph glyph-name="zacute" unicode="&#x17a;" horiz-adv-x="448" 
d="M182 600l106 122h41l-115 -122h-32zM33 0v23l337 459h-316v27h354v-23l-337 -459h342v-27h-380z" />
    <glyph glyph-name="Zdotaccent" unicode="&#x17b;" horiz-adv-x="536" 
d="M254 788v64h36v-64h-36zM32 0v27l426 624h-408v29h445v-27l-426 -624h435v-29h-472z" />
    <glyph glyph-name="zdotaccent" unicode="&#x17c;" horiz-adv-x="448" 
d="M209 629v64h36v-64h-36zM33 0v23l337 459h-316v27h354v-23l-337 -459h342v-27h-380z" />
    <glyph glyph-name="Zcaron" unicode="&#x17d;" horiz-adv-x="536" 
d="M258 759l-105 122h32l87 -95l87 95h32l-105 -122h-28zM32 0v27l426 624h-408v29h445v-27l-426 -624h435v-29h-472z" />
    <glyph glyph-name="zcaron" unicode="&#x17e;" horiz-adv-x="448" 
d="M213 600l-105 122h32l87 -95l87 95h32l-105 -122h-28zM33 0v23l337 459h-316v27h354v-23l-337 -459h342v-27h-380z" />
    <glyph glyph-name="florin" unicode="&#x192;" horiz-adv-x="600" 
d="M58 -60l3 27h55q57 0 84.5 28.5t35.5 98.5l41 332h-146v27h150l12 98q10 79 44.5 114t103.5 35h70l-3 -27h-66q-57 0 -84 -28t-36 -98l-12 -94h174v-27h-177l-41 -336q-10 -79 -45 -114.5t-103 -35.5h-60z" />
    <glyph glyph-name="Aringacute" unicode="&#x1fa;" horiz-adv-x="598" 
d="M296 929l106 122h41l-115 -122h-32zM341 729q-35 0 -57.5 22t-22.5 56t22.5 56t57.5 22t57.5 -22t22.5 -56t-22.5 -56t-57.5 -22zM341 753q23 0 38 15t15 39t-15 39t-38 15t-38 -15t-15 -39t15 -39t38 -15zM14 0l269 680h32l269 -680h-33l-81 207h-343l-81 -207h-32z
M139 236h319l-159 405z" />
    <glyph glyph-name="aringacute" unicode="&#x1fb;" horiz-adv-x="542" 
d="M216 771l106 122h41l-115 -122h-32zM261 571q-35 0 -57.5 22t-22.5 56t22.5 56t57.5 22t57.5 -22t22.5 -56t-22.5 -56t-57.5 -22zM261 595q23 0 38 15t15 39t-15 39t-38 15t-38 -15t-15 -39t15 -39t38 -15zM218 -12q-77 0 -120 38t-43 109q0 150 207 150h165v60
q0 149 -162 149q-154 0 -166 -127h-29q8 75 58 114.5t138 39.5q94 0 142.5 -45t48.5 -131v-345h-26l-2 95q-78 -107 -211 -107zM220 14q130 0 207 120v124h-161q-96 0 -138.5 -29t-42.5 -92q0 -60 35 -91.5t100 -31.5z" />
    <glyph glyph-name="AEacute" unicode="&#x1fc;" horiz-adv-x="895" 
d="M414 759l106 122h41l-115 -122h-32zM4 0l431 680h413v-29h-371v-286h321v-29h-321v-307h381v-29h-412v207h-277l-131 -207h-34zM187 236h259v408z" />
    <glyph glyph-name="aeacute" unicode="&#x1fd;" horiz-adv-x="905" 
d="M402 600l106 122h41l-115 -122h-32zM222 -12q-80 0 -123.5 38t-43.5 108q0 151 207 151h165v60q0 149 -162 149q-154 0 -166 -127h-29q7 75 57.5 114.5t138.5 39.5q153 0 180 -119q41 119 188 119q99 0 152.5 -55.5t53.5 -160.5v-52h-383v-45q0 -193 180 -193
q76 0 120.5 34.5t49.5 96.5h29q-6 -76 -58 -117t-140 -41q-154 0 -197 122q-81 -122 -219 -122zM457 280h353v21q0 193 -177 193q-176 0 -176 -193v-21zM224 14q132 0 208 130q-5 30 -5 60v54h-161q-95 0 -138 -29t-43 -92q0 -60 36 -91.5t103 -31.5z" />
    <glyph glyph-name="Oslashacute" unicode="&#x1fe;" horiz-adv-x="652" 
d="M428 881l-115 -122h-32l106 122h41zM581 676l-49 -70q49 -66 49 -173v-186q0 -126 -66 -192.5t-189 -66.5q-120 0 -186 64l-46 -64l-23 16l49 70q-49 66 -49 173v186q0 126 66 192.5t189 66.5q120 0 186 -64l46 64zM102 251q0 -96 37 -151l356 503q-55 60 -169 60
q-224 0 -224 -235v-177zM550 428q0 96 -37 152l-356 -503q55 -60 169 -60q224 0 224 234v177z" />
    <glyph glyph-name="oslashacute" unicode="&#x1ff;" horiz-adv-x="558" 
d="M381 722l-115 -122h-32l106 122h41zM491 504l-42 -54q42 -56 42 -145v-101q0 -104 -55 -160t-157 -56q-97 0 -151 51l-40 -51l-21 17l42 54q-42 56 -42 145v101q0 104 55 160t157 56q97 0 151 -51l40 51zM97 208q0 -79 31 -125l284 364q-45 47 -133 47q-90 0 -136 -49.5
t-46 -143.5v-93zM461 301q0 75 -31 125l-284 -364q45 -47 133 -47q90 0 136 49t46 144v93z" />
    <glyph glyph-name="Scommaaccent" unicode="&#x218;" horiz-adv-x="555" 
d="M281 -12q-115 0 -177.5 47.5t-62.5 133.5h30q0 -73 55 -112.5t157 -39.5q199 0 199 154q0 76 -47.5 112.5t-163.5 51.5q-117 15 -166.5 55t-49.5 119q0 88 58.5 135.5t167.5 47.5q107 0 163.5 -45.5t56.5 -131.5h-30q0 148 -188 148q-97 0 -147.5 -38.5t-50.5 -111.5
q0 -69 45.5 -103t155.5 -48q125 -16 175.5 -58.5t50.5 -128.5q0 -92 -59 -139.5t-172 -47.5zM261 -214v23q26 1 26 48h-12v52h36v-53q0 -67 -50 -70z" />
    <glyph glyph-name="scommaaccent" unicode="&#x219;" horiz-adv-x="495" 
d="M246 -12q-98 0 -149.5 39t-51.5 112h29q0 -124 171 -124q83 0 126 30.5t43 87.5q0 54 -39 80t-134 34q-99 9 -141 39t-42 91q0 68 49.5 106t138.5 38t136.5 -38t47.5 -109h-29q0 58 -39.5 89t-114.5 31q-76 0 -118 -30.5t-42 -84.5q0 -49 37.5 -73t127.5 -32
q104 -10 147.5 -41.5t43.5 -97.5q0 -71 -50.5 -109t-146.5 -38zM226 -214v23q26 1 26 48h-12v52h36v-53q0 -67 -50 -70z" />
    <glyph glyph-name="uni021A" unicode="&#x21a;" horiz-adv-x="497" 
d="M233 0v651h-225v29h481v-29h-225v-651h-31zM217 -214v23q26 1 26 48h-12v52h36v-53q0 -67 -50 -70z" />
    <glyph glyph-name="uni021B" unicode="&#x21b;" horiz-adv-x="325" 
d="M240 0q-65 0 -94 34t-29 110v340h-103v25h103l3 143h27v-143h150v-25h-150v-338q0 -66 21 -92.5t74 -26.5h62v-27h-64zM161 -214v23q26 1 26 48h-12v52h36v-53q0 -67 -50 -70z" />
    <glyph glyph-name="uni0237" unicode="&#x237;" horiz-adv-x="220" 
d="M-6 -182v27h21q46 0 63 21.5t17 80.5v562h30v-564q0 -68 -25 -97.5t-83 -29.5h-23z" />
    <glyph glyph-name="uni02BC" unicode="&#x2bc;" horiz-adv-x="110" 
d="M30 576v22q26 1 26 42v19h-12v58h36v-72q0 -66 -50 -69z" />
    <glyph glyph-name="circumflex" unicode="&#x2c6;" horiz-adv-x="500" 
d="M131 600l105 122h28l105 -122h-32l-87 95l-87 -95h-32z" />
    <glyph glyph-name="caron" unicode="&#x2c7;" horiz-adv-x="500" 
d="M236 600l-105 122h32l87 -95l87 95h32l-105 -122h-28z" />
    <glyph glyph-name="uni02C9" unicode="&#x2c9;" horiz-adv-x="500" 
d="M159 648v26h182v-26h-182z" />
    <glyph glyph-name="breve" unicode="&#x2d8;" horiz-adv-x="500" 
d="M250 607q-48 0 -75 27.5t-32 76.5h26q6 -76 81 -76t81 76h26q-5 -49 -32 -76.5t-75 -27.5z" />
    <glyph glyph-name="dotaccent" unicode="&#x2d9;" horiz-adv-x="500" 
d="M232 629v64h36v-64h-36z" />
    <glyph glyph-name="ring" unicode="&#x2da;" horiz-adv-x="500" 
d="M250 592q-35 0 -57.5 22t-22.5 56t22.5 56t57.5 22t57.5 -22t22.5 -56t-22.5 -56t-57.5 -22zM250 616q23 0 38 15t15 39t-15 39t-38 15t-38 -15t-15 -39t15 -39t38 -15z" />
    <glyph glyph-name="ogonek" unicode="&#x2db;" horiz-adv-x="500" 
d="M260 -194q-37 0 -57.5 19t-20.5 54q0 82 116 141l17 -17q-106 -54 -106 -121q0 -53 53 -53q28 0 55 18v-27q-28 -14 -57 -14z" />
    <glyph glyph-name="tilde" unicode="&#x2dc;" horiz-adv-x="500" 
d="M302 619q-27 0 -61 30q-28 25 -46 25q-34 0 -43 -57h-24q8 83 70 83q27 0 61 -30q28 -25 46 -25q34 0 43 57h24q-8 -83 -70 -83z" />
    <glyph glyph-name="hungarumlaut" unicode="&#x2dd;" horiz-adv-x="500" 
d="M145 600l85 122h40l-96 -122h-29zM286 600l86 122h39l-96 -122h-29z" />
    <glyph glyph-name="gravecomb" unicode="&#x300;" horiz-adv-x="0" 
d="M13 600l-115 122h41l106 -122h-32z" />
    <glyph glyph-name="acutecomb" unicode="&#x301;" horiz-adv-x="0" 
d="M-45 600l106 122h41l-115 -122h-32z" />
    <glyph glyph-name="uni0302" unicode="&#x302;" horiz-adv-x="0" 
d="M-119 600l105 122h28l105 -122h-32l-87 95l-87 -95h-32z" />
    <glyph glyph-name="tildecomb" unicode="&#x303;" horiz-adv-x="0" 
d="M52 619q-27 0 -61 30q-28 25 -46 25q-34 0 -43 -57h-24q8 83 70 83q27 0 61 -30q28 -25 46 -25q34 0 43 57h24q-8 -83 -70 -83z" />
    <glyph glyph-name="uni0304" unicode="&#x304;" horiz-adv-x="0" 
d="M-91 648v26h182v-26h-182z" />
    <glyph glyph-name="uni0306" unicode="&#x306;" horiz-adv-x="0" 
d="M0 607q-48 0 -75 27.5t-32 76.5h26q6 -76 81 -76t81 76h26q-5 -49 -32 -76.5t-75 -27.5z" />
    <glyph glyph-name="uni0307" unicode="&#x307;" horiz-adv-x="0" 
d="M-18 629v64h36v-64h-36z" />
    <glyph glyph-name="uni0308" unicode="&#x308;" horiz-adv-x="0" 
d="M-98 629v64h36v-64h-36zM62 629v64h36v-64h-36z" />
    <glyph glyph-name="uni030A" unicode="&#x30a;" horiz-adv-x="0" 
d="M0 592q-35 0 -57.5 22t-22.5 56t22.5 56t57.5 22t57.5 -22t22.5 -56t-22.5 -56t-57.5 -22zM0 616q23 0 38 15t15 39t-15 39t-38 15t-38 -15t-15 -39t15 -39t38 -15z" />
    <glyph glyph-name="uni030B" unicode="&#x30b;" horiz-adv-x="0" 
d="M-105 600l85 122h40l-96 -122h-29zM36 600l86 122h39l-96 -122h-29z" />
    <glyph glyph-name="uni030C" unicode="&#x30c;" horiz-adv-x="0" 
d="M-14 600l-105 122h32l87 -95l87 95h32l-105 -122h-28z" />
    <glyph glyph-name="uni0312" unicode="&#x312;" horiz-adv-x="0" 
d="M-18 601v53q0 67 50 70v-23q-26 -1 -26 -48h12v-52h-36z" />
    <glyph glyph-name="uni0326" unicode="&#x326;" horiz-adv-x="0" 
d="M-32 -214v23q26 1 26 48h-12v52h36v-53q0 -67 -50 -70z" />
    <glyph glyph-name="uni0327" unicode="&#x327;" horiz-adv-x="0" 
d="M-17 -194q-47 0 -81 18l10 23q29 -18 69 -18q62 0 62 40q0 19 -14.5 26.5t-49.5 7.5h-25l41 112h25l-33 -91h5q80 0 80 -56q0 -62 -89 -62z" />
    <glyph glyph-name="uni0328" unicode="&#x328;" horiz-adv-x="0" 
d="M10 -194q-37 0 -57.5 19t-20.5 54q0 82 116 141l17 -17q-106 -54 -106 -121q0 -53 53 -53q28 0 55 18v-27q-28 -14 -57 -14z" />
    <glyph glyph-name="uni0394" unicode="&#x394;" horiz-adv-x="591" 
d="M14 0l265 680h33l265 -680h-563zM57 29h476l-238 610z" />
    <glyph glyph-name="uni03A9" unicode="&#x3a9;" horiz-adv-x="652" 
d="M76 0v29h109q-52 27 -83 86.5t-31 135.5v182q0 126 66 192.5t189 66.5t189 -66.5t66 -192.5v-182q0 -76 -31 -135.5t-83 -86.5h109v-29h-196v24q80 11 125 71.5t45 155.5v177q0 235 -224 235t-224 -235v-177q0 -95 45 -155.5t125 -71.5v-24h-196z" />
    <glyph glyph-name="uni03BC" unicode="&#x3bc;" horiz-adv-x="574" 
d="M95 -182v691h30v-335q0 -159 132 -159q129 0 192 154v340h30v-509h-26l-2 120q-65 -132 -195 -132q-93 0 -131 70v-240h-30z" />
    <glyph glyph-name="pi" unicode="&#x3c0;" horiz-adv-x="582" 
d="M122 0v482h-108v27h547v-27h-108v-350q0 -58 17.5 -81.5t60.5 -23.5h28v-27h-30q-56 0 -81 30.5t-25 99.5v352h-271v-482h-30z" />
    <glyph glyph-name="Wgrave" unicode="&#x1e80;" horiz-adv-x="876" 
d="M451 759l-115 122h41l106 -122h-32zM214 0l-200 680h32l186 -633l190 633h33l190 -633l186 633h31l-200 -680h-33l-191 630l-191 -630h-33z" />
    <glyph glyph-name="wgrave" unicode="&#x1e81;" horiz-adv-x="769" 
d="M398 600l-115 122h41l106 -122h-32zM193 0l-174 509h32l159 -471l159 471h31l160 -472l159 472h31l-174 -509h-34l-158 465l-158 -465h-33z" />
    <glyph glyph-name="Wacute" unicode="&#x1e82;" horiz-adv-x="876" 
d="M393 759l106 122h41l-115 -122h-32zM214 0l-200 680h32l186 -633l190 633h33l190 -633l186 633h31l-200 -680h-33l-191 630l-191 -630h-33z" />
    <glyph glyph-name="wacute" unicode="&#x1e83;" horiz-adv-x="769" 
d="M340 600l106 122h41l-115 -122h-32zM193 0l-174 509h32l159 -471l159 471h31l160 -472l159 472h31l-174 -509h-34l-158 465l-158 -465h-33z" />
    <glyph glyph-name="Wdieresis" unicode="&#x1e84;" horiz-adv-x="876" 
d="M340 788v64h36v-64h-36zM500 788v64h36v-64h-36zM214 0l-200 680h32l186 -633l190 633h33l190 -633l186 633h31l-200 -680h-33l-191 630l-191 -630h-33z" />
    <glyph glyph-name="wdieresis" unicode="&#x1e85;" horiz-adv-x="769" 
d="M287 629v64h36v-64h-36zM447 629v64h36v-64h-36zM193 0l-174 509h32l159 -471l159 471h31l160 -472l159 472h31l-174 -509h-34l-158 465l-158 -465h-33z" />
    <glyph glyph-name="uni1E9E" unicode="&#x1e9e;" horiz-adv-x="620" 
d="M84 0v483q0 101 54.5 149t169.5 48h230v-27l-209 -273h21q126 0 182.5 -45.5t56.5 -147.5q0 -97 -51 -142t-161 -45h-119v29h115q98 0 141.5 37t43.5 121q0 88 -49 126t-163 38h-57v25l210 275h-190q-102 0 -148 -40.5t-46 -129.5v-481h-31z" />
    <glyph glyph-name="Ygrave" unicode="&#x1ef2;" horiz-adv-x="530" 
d="M278 759l-115 122h41l106 -122h-32zM250 0v306l-246 374h37l225 -342l224 342h36l-246 -374v-306h-30z" />
    <glyph glyph-name="ygrave" unicode="&#x1ef3;" horiz-adv-x="455" 
d="M241 600l-115 122h41l106 -122h-32zM57 -182v27h25q40 0 60 16.5t38 65.5l37 99l-198 483h33l182 -446l172 446h30l-228 -589q-23 -59 -48.5 -80.5t-74.5 -21.5h-28z" />
    <glyph glyph-name="uni2002" unicode="&#x2002;" horiz-adv-x="500" 
 />
    <glyph glyph-name="uni2003" unicode="&#x2003;" horiz-adv-x="900" 
 />
    <glyph glyph-name="uni2007" unicode="&#x2007;" horiz-adv-x="600" 
 />
    <glyph glyph-name="uni2008" unicode="&#x2008;" horiz-adv-x="239" 
 />
    <glyph glyph-name="uni200B" unicode="&#x200b;" horiz-adv-x="0" 
 />
    <glyph glyph-name="figuredash" unicode="&#x2012;" horiz-adv-x="600" 
d="M30 276v26h540v-26h-540z" />
    <glyph glyph-name="endash" unicode="&#x2013;" horiz-adv-x="500" 
d="M30 276v26h440v-26h-440z" />
    <glyph glyph-name="emdash" unicode="&#x2014;" horiz-adv-x="900" 
d="M30 276v26h840v-26h-840z" />
    <glyph glyph-name="quoteleft" unicode="&#x2018;" horiz-adv-x="209" 
d="M84 504v91q0 88 58 97v-24q-31 -7 -31 -67v-18h14v-79h-41z" />
    <glyph glyph-name="quoteright" unicode="&#x2019;" horiz-adv-x="209" 
d="M67 492v24q31 7 31 67v18h-14v79h41v-91q0 -88 -58 -97z" />
    <glyph glyph-name="quotesinglbase" unicode="&#x201a;" horiz-adv-x="209" 
d="M67 -109v24q31 7 31 67v18h-14v79h41v-91q0 -88 -58 -97z" />
    <glyph glyph-name="quotedblleft" unicode="&#x201c;" horiz-adv-x="367" 
d="M84 504v91q0 88 58 97v-24q-31 -7 -31 -67v-18h14v-79h-41zM242 504v91q0 88 58 97v-24q-31 -7 -31 -67v-18h14v-79h-41z" />
    <glyph glyph-name="quotedblright" unicode="&#x201d;" horiz-adv-x="367" 
d="M67 492v24q31 7 31 67v18h-14v79h41v-91q0 -88 -58 -97zM225 492v24q31 7 31 67v18h-14v79h41v-91q0 -88 -58 -97z" />
    <glyph glyph-name="quotedblbase" unicode="&#x201e;" horiz-adv-x="367" 
d="M67 -109v24q31 7 31 67v18h-14v79h41v-91q0 -88 -58 -97zM225 -109v24q31 7 31 67v18h-14v79h41v-91q0 -88 -58 -97z" />
    <glyph glyph-name="dagger" unicode="&#x2020;" horiz-adv-x="576" 
d="M273 -182v571l-233 -3v29l233 -3v268h30v-268l233 3v-29l-233 3v-571h-30z" />
    <glyph glyph-name="daggerdbl" unicode="&#x2021;" horiz-adv-x="576" 
d="M273 -182v248l-233 -3v29l233 -3v320l-233 -3v29l233 -3v248h30v-248l233 3v-29l-233 3v-320l233 3v-29l-233 3v-248h-30z" />
    <glyph glyph-name="bullet" unicode="&#x2022;" horiz-adv-x="500" 
d="M164 203v172h172v-172h-172z" />
    <glyph glyph-name="ellipsis" unicode="&#x2026;" horiz-adv-x="900" 
d="M130 0v79h40v-79h-40zM430 0v79h40v-79h-40zM730 0v79h40v-79h-40z" />
    <glyph glyph-name="perthousand" unicode="&#x2030;" horiz-adv-x="1109" 
d="M184 321q-67 0 -103 35t-36 101v99q0 66 36 101t103 35t103 -35t36 -101v-99q0 -66 -36 -101t-103 -35zM163 -12l406 704h32l-406 -704h-32zM184 348q109 0 109 112v94q0 111 -109 111t-109 -111v-94q0 -112 109 -112zM580 -12q-67 0 -103 35t-36 101v99q0 66 36 101
t103 35t103 -35t36 -101v-99q0 -66 -36 -101t-103 -35zM925 -12q-67 0 -103 35t-36 101v99q0 66 36 101t103 35t103 -35t36 -101v-99q0 -66 -36 -101t-103 -35zM580 15q109 0 109 112v94q0 111 -109 111t-109 -111v-94q0 -112 109 -112zM925 15q109 0 109 112v94
q0 111 -109 111t-109 -111v-94q0 -112 109 -112z" />
    <glyph glyph-name="guilsinglleft" unicode="&#x2039;" horiz-adv-x="247" 
d="M179 82l-149 172l149 172h38l-149 -172l149 -172h-38z" />
    <glyph glyph-name="guilsinglright" unicode="&#x203a;" horiz-adv-x="247" 
d="M30 82l149 172l-149 172h38l149 -172l-149 -172h-38z" />
    <glyph glyph-name="fraction" unicode="&#x2044;" horiz-adv-x="98" 
d="M-154 -12l374 704h32l-374 -704h-32z" />
    <glyph glyph-name="uni2070" unicode="&#x2070;" 
d="M183 404q-67 0 -102.5 35t-35.5 101v146q0 66 35.5 101t102.5 35t102.5 -35t35.5 -101v-146q0 -66 -35.5 -101t-102.5 -35zM183 431q108 0 108 112v141q0 111 -108 111t-108 -111v-141q0 -112 108 -112z" />
    <glyph glyph-name="uni2074" unicode="&#x2074;" 
d="M262 416v90h-229v29l226 275h33v-277h55v-27h-55v-90h-30zM66 533h196v239z" />
    <glyph glyph-name="uni2075" unicode="&#x2075;" 
d="M182 404q-62 0 -99 27t-39 74h29q1 -34 30 -54t78 -20q117 0 117 107q0 51 -27.5 78t-80.5 27q-67 0 -108 -38h-23l12 205h237v-27h-213l-9 -148q44 35 108 35t99 -35t35 -97q0 -65 -38 -99.5t-108 -34.5z" />
    <glyph glyph-name="uni2076" unicode="&#x2076;" 
d="M192 404q-69 0 -105.5 34.5t-36.5 99.5v148q0 65 36.5 100.5t105.5 35.5q59 0 93 -25.5t37 -72.5h-29q-5 71 -101 71q-112 0 -112 -112v-80q42 59 123 59q61 0 93.5 -33t32.5 -95q0 -64 -35 -97t-102 -33zM191 431q108 0 108 103q0 101 -100 101q-83 0 -119 -77v-17
q0 -110 111 -110z" />
    <glyph glyph-name="uni2077" unicode="&#x2077;" 
d="M116 416q9 209 179 367h-259v27h292v-29q-171 -154 -180 -365h-32z" />
    <glyph glyph-name="uni2078" unicode="&#x2078;" 
d="M183 404q-72 0 -110.5 29t-38.5 85q0 81 81 104v1q-68 20 -68 91q0 51 36 79.5t100 28.5q65 0 100.5 -28t35.5 -80q0 -71 -68 -91v-1q81 -23 81 -104q0 -114 -149 -114zM183 632q107 0 107 81q0 41 -27.5 62.5t-79.5 21.5q-51 0 -79 -22t-28 -62q0 -39 27.5 -60t79.5 -21
zM184 430q118 0 118 89t-118 89q-120 0 -120 -89t120 -89z" />
    <glyph glyph-name="uni2079" unicode="&#x2079;" 
d="M174 404q-59 0 -93 25.5t-37 72.5h29q5 -71 101 -71q112 0 112 112v80q-42 -59 -123 -59q-61 0 -93.5 33t-32.5 95q0 64 35 97t102 33q69 0 105.5 -34.5t36.5 -99.5v-148q0 -65 -36.5 -100.5t-105.5 -35.5zM167 591q83 0 119 77v17q0 110 -111 110q-108 0 -108 -103
q0 -101 100 -101z" />
    <glyph glyph-name="uni2080" unicode="&#x2080;" 
d="M183 -132q-67 0 -102.5 35t-35.5 101v146q0 66 35.5 101t102.5 35t102.5 -35t35.5 -101v-146q0 -66 -35.5 -101t-102.5 -35zM183 -105q108 0 108 112v141q0 111 -108 111t-108 -111v-141q0 -112 108 -112z" />
    <glyph glyph-name="uni2081" unicode="&#x2081;" 
d="M94 -120v27h100v328q-53 -31 -112 -34v23q69 6 113 50h29v-367h100v-27h-230z" />
    <glyph glyph-name="uni2082" unicode="&#x2082;" 
d="M48 -120v20q0 56 30.5 92.5t103.5 70.5q59 27 83 52.5t24 61.5q0 39 -26 60.5t-74 21.5q-51 0 -78 -24t-27 -68v-6h-29v9q0 55 35.5 85.5t99.5 30.5q62 0 95.5 -29t33.5 -80q0 -44 -27.5 -75t-93.5 -62t-92.5 -60.5t-27.5 -72.5h241v-27h-271z" />
    <glyph glyph-name="uni2083" unicode="&#x2083;" 
d="M185 -132q-68 0 -104.5 28t-36.5 81v9h29v-6q0 -85 112 -85q110 0 110 89q0 86 -107 86h-49v27h51q94 0 94 79q0 83 -101 83q-50 0 -77 -22.5t-27 -62.5v-3h-29v6q0 50 36.5 79.5t98.5 29.5q60 0 94.5 -28.5t34.5 -79.5q0 -74 -69 -92v-1q80 -19 80 -103
q0 -114 -140 -114z" />
    <glyph glyph-name="uni2084" unicode="&#x2084;" 
d="M262 -120v90h-229v29l226 275h33v-277h55v-27h-55v-90h-30zM66 -3h196v239z" />
    <glyph glyph-name="uni2085" unicode="&#x2085;" 
d="M182 -132q-62 0 -99 27t-39 74h29q1 -34 30 -54t78 -20q117 0 117 107q0 51 -27.5 78t-80.5 27q-67 0 -108 -38h-23l12 205h237v-27h-213l-9 -148q44 35 108 35t99 -35t35 -97q0 -65 -38 -99.5t-108 -34.5z" />
    <glyph glyph-name="uni2086" unicode="&#x2086;" 
d="M192 -132q-69 0 -105.5 34.5t-36.5 99.5v148q0 65 36.5 100.5t105.5 35.5q59 0 93 -25.5t37 -72.5h-29q-5 71 -101 71q-112 0 -112 -112v-80q42 59 123 59q61 0 93.5 -33t32.5 -95q0 -64 -35 -97t-102 -33zM191 -105q108 0 108 103q0 101 -100 101q-83 0 -119 -77v-17
q0 -110 111 -110z" />
    <glyph glyph-name="uni2087" unicode="&#x2087;" 
d="M116 -120q9 209 179 367h-259v27h292v-29q-171 -154 -180 -365h-32z" />
    <glyph glyph-name="uni2088" unicode="&#x2088;" 
d="M183 -132q-72 0 -110.5 29t-38.5 85q0 81 81 104v1q-68 20 -68 91q0 51 36 79.5t100 28.5q65 0 100.5 -28t35.5 -80q0 -71 -68 -91v-1q81 -23 81 -104q0 -114 -149 -114zM183 96q107 0 107 81q0 41 -27.5 62.5t-79.5 21.5q-51 0 -79 -22t-28 -62q0 -39 27.5 -60t79.5 -21
zM184 -106q118 0 118 89t-118 89q-120 0 -120 -89t120 -89z" />
    <glyph glyph-name="uni2089" unicode="&#x2089;" 
d="M174 -132q-59 0 -93 25.5t-37 72.5h29q5 -71 101 -71q112 0 112 112v80q-42 -59 -123 -59q-61 0 -93.5 33t-32.5 95q0 64 35 97t102 33q69 0 105.5 -34.5t36.5 -99.5v-148q0 -65 -36.5 -100.5t-105.5 -35.5zM167 55q83 0 119 77v17q0 110 -111 110q-108 0 -108 -103
q0 -101 100 -101z" />
    <glyph glyph-name="Euro" unicode="&#x20ac;" horiz-adv-x="600" 
d="M328 -12q-106 0 -164.5 58t-58.5 165v43h-63v27h63v118h-63v27h63v43q0 107 58.5 165t164.5 58q96 0 150.5 -48t62.5 -137h-29q-13 158 -184 158q-95 0 -144 -51t-49 -149v-39h246l-4 -27h-242v-118h219l-4 -27h-215v-39q0 -98 49 -149t144 -51q171 0 184 158h29
q-7 -89 -62.5 -137t-150.5 -48z" />
    <glyph glyph-name="uni20B9" unicode="&#x20b9;" horiz-adv-x="600" 
d="M440 0l-358 308v23h133q108 0 158.5 40t50.5 125v1h-357l8 27h348q-7 67 -54.5 98t-141.5 31h-160l8 27h483l-8 -27h-187q79 -34 90 -129h105l-8 -27h-96v-2q0 -97 -58.5 -144t-179.5 -47h-84l354 -304h-46z" />
    <glyph glyph-name="uni2113" unicode="&#x2113;" horiz-adv-x="452" 
d="M252 -12q-79 0 -121.5 45t-42.5 131v402q0 176 154 176q143 0 143 -151q0 -204 -267 -381v-46q0 -149 135 -149q71 0 130 45l15 -24q-66 -48 -146 -48zM118 242q237 158 237 346q0 66 -28 96.5t-85 30.5q-124 0 -124 -149v-324z" />
    <glyph glyph-name="uni2116" unicode="&#x2116;" horiz-adv-x="1088" 
d="M104 0v680h40l416 -626v626h30v-680h-30l-426 641v-641h-30zM870 124q-73 0 -112.5 40t-39.5 114v66q0 74 39.5 114t112.5 40t112.5 -40t39.5 -114v-66q0 -74 -39.5 -114t-112.5 -40zM870 151q122 0 122 130v60q0 130 -122 130t-122 -130v-60q0 -130 122 -130zM722 0v27
h296v-27h-296z" />
    <glyph glyph-name="uni2117" unicode="&#x2117;" horiz-adv-x="784" 
d="M392 -12q-152 0 -252 100t-100 252t100 252t252 100t252 -100t100 -252t-100 -252t-252 -100zM392 15q142 0 232 91.5t90 233.5t-90 233.5t-232 91.5q-141 0 -231.5 -91.5t-90.5 -233.5t90.5 -233.5t231.5 -91.5zM285 159v362h140q63 0 92.5 -26t29.5 -81t-29.5 -81
t-92.5 -26h-110v-148h-30zM315 334h109q49 0 71.5 19t22.5 61t-22.5 61t-71.5 19h-109v-160z" />
    <glyph glyph-name="uni2120" unicode="&#x2120;" horiz-adv-x="675" 
d="M137 357q-55 0 -84 23.5t-29 67.5h31q0 -63 82 -63q80 0 80 61q0 29 -19 43.5t-68 22.5q-55 9 -78 28.5t-23 57.5q0 44 27.5 67t79.5 23q104 0 104 -89h-30q0 61 -76 61q-75 0 -75 -59q0 -29 19 -43.5t66 -20.5q56 -8 79.5 -28t23.5 -61q0 -91 -110 -91zM320 365v315h44
l113 -271l114 271h43v-315h-30v274l-115 -274h-25l-116 275v-275h-28z" />
    <glyph glyph-name="trademark" unicode="&#x2122;" horiz-adv-x="647" 
d="M100 365v288h-99v27h228v-27h-99v-288h-30zM292 365v315h44l113 -271l114 271h43v-315h-30v274l-115 -274h-25l-116 275v-275h-28z" />
    <glyph glyph-name="uni2126" unicode="&#x2126;" horiz-adv-x="652" 
d="M76 0v29h109q-52 27 -83 86.5t-31 135.5v182q0 126 66 192.5t189 66.5t189 -66.5t66 -192.5v-182q0 -76 -31 -135.5t-83 -86.5h109v-29h-196v24q80 11 125 71.5t45 155.5v177q0 235 -224 235t-224 -235v-177q0 -95 45 -155.5t125 -71.5v-24h-196z" />
    <glyph glyph-name="estimated" unicode="&#x212e;" horiz-adv-x="808" 
d="M414 -12q-154 0 -262.5 103t-108.5 249t108.5 249t262.5 103t262.5 -103t108.5 -249v-9h-601q-5 0 -5 -5v-191q0 -10 9 -21q89 -105 228 -105q69 0 132 31.5t107 85.5h54q-52 -64 -129.5 -101t-165.5 -37zM184 351h461q6 0 6 6v193q0 12 -10 22q-94 99 -225 99
q-135 0 -228 -103q-9 -11 -9 -22v-190q0 -5 5 -5z" />
    <glyph glyph-name="uni2153" unicode="&#x2153;" horiz-adv-x="830" 
d="M212 -12l374 704h32l-374 -704h-32zM94 286v27h100v328q-53 -31 -112 -34v23q69 6 113 50h29v-367h100v-27h-230zM649 -12q-68 0 -104.5 28t-36.5 81v9h29v-6q0 -85 112 -85q110 0 110 89q0 86 -107 86h-49v27h51q94 0 94 79q0 83 -101 83q-50 0 -77 -22.5t-27 -62.5v-3
h-29v6q0 50 36.5 79.5t98.5 29.5q60 0 94.5 -28.5t34.5 -79.5q0 -74 -69 -92v-1q80 -19 80 -103q0 -114 -140 -114z" />
    <glyph glyph-name="uni2154" unicode="&#x2154;" horiz-adv-x="830" 
d="M48 286v20q0 56 30.5 92.5t103.5 70.5q59 27 83 52.5t24 61.5q0 39 -26 60.5t-74 21.5q-51 0 -78 -24t-27 -68v-6h-29v9q0 55 35.5 85.5t99.5 30.5q62 0 95.5 -29t33.5 -80q0 -44 -27.5 -75t-93.5 -62t-92.5 -60.5t-27.5 -72.5h241v-27h-271zM212 -12l374 704h32
l-374 -704h-32zM649 -12q-68 0 -104.5 28t-36.5 81v9h29v-6q0 -85 112 -85q110 0 110 89q0 86 -107 86h-49v27h51q94 0 94 79q0 83 -101 83q-50 0 -77 -22.5t-27 -62.5v-3h-29v6q0 50 36.5 79.5t98.5 29.5q60 0 94.5 -28.5t34.5 -79.5q0 -74 -69 -92v-1q80 -19 80 -103
q0 -114 -140 -114z" />
    <glyph glyph-name="uni2155" unicode="&#x2155;" horiz-adv-x="830" 
d="M212 -12l374 704h32l-374 -704h-32zM94 286v27h100v328q-53 -31 -112 -34v23q69 6 113 50h29v-367h100v-27h-230zM646 -12q-62 0 -99 27t-39 74h29q1 -34 30 -54t78 -20q117 0 117 107q0 51 -27.5 78t-80.5 27q-67 0 -108 -38h-23l12 205h237v-27h-213l-9 -148
q44 35 108 35t99 -35t35 -97q0 -65 -38 -99.5t-108 -34.5z" />
    <glyph glyph-name="uni2156" unicode="&#x2156;" horiz-adv-x="830" 
d="M48 286v20q0 56 30.5 92.5t103.5 70.5q59 27 83 52.5t24 61.5q0 39 -26 60.5t-74 21.5q-51 0 -78 -24t-27 -68v-6h-29v9q0 55 35.5 85.5t99.5 30.5q62 0 95.5 -29t33.5 -80q0 -44 -27.5 -75t-93.5 -62t-92.5 -60.5t-27.5 -72.5h241v-27h-271zM212 -12l374 704h32
l-374 -704h-32zM646 -12q-62 0 -99 27t-39 74h29q1 -34 30 -54t78 -20q117 0 117 107q0 51 -27.5 78t-80.5 27q-67 0 -108 -38h-23l12 205h237v-27h-213l-9 -148q44 35 108 35t99 -35t35 -97q0 -65 -38 -99.5t-108 -34.5z" />
    <glyph glyph-name="uni2157" unicode="&#x2157;" horiz-adv-x="830" 
d="M185 274q-68 0 -104.5 28t-36.5 81v9h29v-6q0 -85 112 -85q110 0 110 89q0 86 -107 86h-49v27h51q94 0 94 79q0 83 -101 83q-50 0 -77 -22.5t-27 -62.5v-3h-29v6q0 50 36.5 79.5t98.5 29.5q60 0 94.5 -28.5t34.5 -79.5q0 -74 -69 -92v-1q80 -19 80 -103q0 -114 -140 -114
zM212 -12l374 704h32l-374 -704h-32zM646 -12q-62 0 -99 27t-39 74h29q1 -34 30 -54t78 -20q117 0 117 107q0 51 -27.5 78t-80.5 27q-67 0 -108 -38h-23l12 205h237v-27h-213l-9 -148q44 35 108 35t99 -35t35 -97q0 -65 -38 -99.5t-108 -34.5z" />
    <glyph glyph-name="uni2158" unicode="&#x2158;" horiz-adv-x="830" 
d="M212 -12l374 704h32l-374 -704h-32zM262 286v90h-229v29l226 275h33v-277h55v-27h-55v-90h-30zM66 403h196v239zM646 -12q-62 0 -99 27t-39 74h29q1 -34 30 -54t78 -20q117 0 117 107q0 51 -27.5 78t-80.5 27q-67 0 -108 -38h-23l12 205h237v-27h-213l-9 -148
q44 35 108 35t99 -35t35 -97q0 -65 -38 -99.5t-108 -34.5z" />
    <glyph glyph-name="uni2159" unicode="&#x2159;" horiz-adv-x="830" 
d="M212 -12l374 704h32l-374 -704h-32zM94 286v27h100v328q-53 -31 -112 -34v23q69 6 113 50h29v-367h100v-27h-230zM656 -12q-69 0 -105.5 34.5t-36.5 99.5v148q0 65 36.5 100.5t105.5 35.5q59 0 93 -25.5t37 -72.5h-29q-5 71 -101 71q-112 0 -112 -112v-80q42 59 123 59
q61 0 93.5 -33t32.5 -95q0 -64 -35 -97t-102 -33zM655 15q108 0 108 103q0 101 -100 101q-83 0 -119 -77v-17q0 -110 111 -110z" />
    <glyph glyph-name="uni215A" unicode="&#x215a;" horiz-adv-x="830" 
d="M212 -12l374 704h32l-374 -704h-32zM182 274q-62 0 -99 27t-39 74h29q1 -34 30 -54t78 -20q117 0 117 107q0 51 -27.5 78t-80.5 27q-67 0 -108 -38h-23l12 205h237v-27h-213l-9 -148q44 35 108 35t99 -35t35 -97q0 -65 -38 -99.5t-108 -34.5zM656 -12q-69 0 -105.5 34.5
t-36.5 99.5v148q0 65 36.5 100.5t105.5 35.5q59 0 93 -25.5t37 -72.5h-29q-5 71 -101 71q-112 0 -112 -112v-80q42 59 123 59q61 0 93.5 -33t32.5 -95q0 -64 -35 -97t-102 -33zM655 15q108 0 108 103q0 101 -100 101q-83 0 -119 -77v-17q0 -110 111 -110z" />
    <glyph glyph-name="oneeighth" unicode="&#x215b;" horiz-adv-x="830" 
d="M212 -12l374 704h32l-374 -704h-32zM94 286v27h100v328q-53 -31 -112 -34v23q69 6 113 50h29v-367h100v-27h-230zM647 -12q-72 0 -110.5 29t-38.5 85q0 81 81 104v1q-68 20 -68 91q0 51 36 79.5t100 28.5q65 0 100.5 -28t35.5 -80q0 -71 -68 -91v-1q81 -23 81 -104
q0 -114 -149 -114zM647 216q107 0 107 81q0 41 -27.5 62.5t-79.5 21.5q-51 0 -79 -22t-28 -62q0 -39 27.5 -60t79.5 -21zM648 14q118 0 118 89t-118 89q-120 0 -120 -89t120 -89z" />
    <glyph glyph-name="threeeighths" unicode="&#x215c;" horiz-adv-x="830" 
d="M185 274q-68 0 -104.5 28t-36.5 81v9h29v-6q0 -85 112 -85q110 0 110 89q0 86 -107 86h-49v27h51q94 0 94 79q0 83 -101 83q-50 0 -77 -22.5t-27 -62.5v-3h-29v6q0 50 36.5 79.5t98.5 29.5q60 0 94.5 -28.5t34.5 -79.5q0 -74 -69 -92v-1q80 -19 80 -103q0 -114 -140 -114
zM212 -12l374 704h32l-374 -704h-32zM647 -12q-72 0 -110.5 29t-38.5 85q0 81 81 104v1q-68 20 -68 91q0 51 36 79.5t100 28.5q65 0 100.5 -28t35.5 -80q0 -71 -68 -91v-1q81 -23 81 -104q0 -114 -149 -114zM647 216q107 0 107 81q0 41 -27.5 62.5t-79.5 21.5q-51 0 -79 -22
t-28 -62q0 -39 27.5 -60t79.5 -21zM648 14q118 0 118 89t-118 89q-120 0 -120 -89t120 -89z" />
    <glyph glyph-name="fiveeighths" unicode="&#x215d;" horiz-adv-x="830" 
d="M212 -12l374 704h32l-374 -704h-32zM182 274q-62 0 -99 27t-39 74h29q1 -34 30 -54t78 -20q117 0 117 107q0 51 -27.5 78t-80.5 27q-67 0 -108 -38h-23l12 205h237v-27h-213l-9 -148q44 35 108 35t99 -35t35 -97q0 -65 -38 -99.5t-108 -34.5zM647 -12q-72 0 -110.5 29
t-38.5 85q0 81 81 104v1q-68 20 -68 91q0 51 36 79.5t100 28.5q65 0 100.5 -28t35.5 -80q0 -71 -68 -91v-1q81 -23 81 -104q0 -114 -149 -114zM647 216q107 0 107 81q0 41 -27.5 62.5t-79.5 21.5q-51 0 -79 -22t-28 -62q0 -39 27.5 -60t79.5 -21zM648 14q118 0 118 89
t-118 89q-120 0 -120 -89t120 -89z" />
    <glyph glyph-name="seveneighths" unicode="&#x215e;" horiz-adv-x="830" 
d="M175 -12l374 704h32l-374 -704h-32zM116 286q9 209 179 367h-259v27h292v-29q-171 -154 -180 -365h-32zM647 -12q-72 0 -110.5 29t-38.5 85q0 81 81 104v1q-68 20 -68 91q0 51 36 79.5t100 28.5q65 0 100.5 -28t35.5 -80q0 -71 -68 -91v-1q81 -23 81 -104
q0 -114 -149 -114zM647 216q107 0 107 81q0 41 -27.5 62.5t-79.5 21.5q-51 0 -79 -22t-28 -62q0 -39 27.5 -60t79.5 -21zM648 14q118 0 118 89t-118 89q-120 0 -120 -89t120 -89z" />
    <glyph glyph-name="arrowleft" unicode="&#x2190;" horiz-adv-x="800" 
d="M360 33l-306 307l306 307l20 -20l-273 -273h638v-28h-638l273 -273z" />
    <glyph glyph-name="arrowup" unicode="&#x2191;" horiz-adv-x="800" 
d="M385 0v638l-273 -274l-20 20l308 308l308 -308l-20 -20l-273 274v-638h-30z" />
    <glyph glyph-name="arrowright" unicode="&#x2192;" horiz-adv-x="800" 
d="M439 35l-20 20l273 273h-638v28h638l-273 273l20 20l306 -307z" />
    <glyph glyph-name="arrowdown" unicode="&#x2193;" horiz-adv-x="800" 
d="M400 -12l-308 308l20 20l273 -274v638h30v-638l273 274l20 -20z" />
    <glyph glyph-name="arrowboth" unicode="&#x2194;" horiz-adv-x="1000" 
d="M340 53l-286 287l286 287l20 -20l-253 -253h786l-253 253l20 20l286 -287l-286 -287l-20 20l253 253h-786l253 -253z" />
    <glyph glyph-name="arrowupdn" unicode="&#x2195;" horiz-adv-x="800" 
d="M400 -84l-288 288l20 20l253 -254v740l-253 -254l-20 20l288 288l288 -288l-20 -20l-253 254v-740l253 254l20 -20z" />
    <glyph glyph-name="uni2196" unicode="&#x2196;" horiz-adv-x="800" 
d="M673 52l-508 508l1 -371h-29v419h419v-28l-372 1l509 -509z" />
    <glyph glyph-name="uni2197" unicode="&#x2197;" horiz-adv-x="800" 
d="M127 52l-20 20l509 509l-372 -1v28h419v-419h-29l1 371z" />
    <glyph glyph-name="uni2198" unicode="&#x2198;" horiz-adv-x="800" 
d="M244 72v28l372 -1l-509 509l20 20l508 -508l-1 371h29v-419h-419z" />
    <glyph glyph-name="uni2199" unicode="&#x2199;" horiz-adv-x="800" 
d="M137 72v419h29l-1 -371l508 508l20 -20l-509 -509l372 1v-28h-419z" />
    <glyph glyph-name="partialdiff" unicode="&#x2202;" horiz-adv-x="602" 
d="M260 -12q-99 0 -155.5 59.5t-56.5 160.5q0 111 65.5 181.5t169.5 70.5q75 0 132.5 -38t84.5 -104q4 35 4 83q0 164 -52.5 239t-165.5 75q-93 0 -149 -49v35q61 41 152 41q126 0 185.5 -82t59.5 -257q0 -197 -71 -306t-203 -109zM260 15q94 0 153.5 64t79.5 184
q-21 79 -77 124.5t-133 45.5q-92 0 -148.5 -62t-56.5 -162q0 -90 48 -142t134 -52z" />
    <glyph glyph-name="emptyset" unicode="&#x2205;" horiz-adv-x="851" 
d="M93 -12l-19 18l91 91q-91 99 -91 243q0 152 100 252t252 100q144 0 241 -91l91 91l19 -18l-91 -91q91 -99 91 -243q0 -152 -100 -252t-251 -100q-145 0 -242 91zM186 118l461 463q-90 84 -221 84q-139 0 -230.5 -92.5t-91.5 -232.5q0 -132 82 -222zM426 15
q138 0 229.5 92.5t91.5 232.5q0 132 -82 222l-461 -463q90 -84 222 -84z" />
    <glyph glyph-name="uni2206" unicode="&#x2206;" horiz-adv-x="591" 
d="M14 0l265 680h33l265 -680h-563zM57 29h476l-238 610z" />
    <glyph glyph-name="product" unicode="&#x220f;" horiz-adv-x="789" 
d="M111 -183v954h567v-954h-30v927h-507v-927h-30z" />
    <glyph glyph-name="summation" unicode="&#x2211;" horiz-adv-x="598" 
d="M22 -183v30l352 447l-352 447v30h554v-27h-521l356 -450l-356 -450h521v-27h-554z" />
    <glyph glyph-name="minus" unicode="&#x2212;" horiz-adv-x="600" 
d="M58 294v28h484v-28h-484z" />
    <glyph glyph-name="uni2215" unicode="&#x2215;" horiz-adv-x="384" 
d="M14 -12l325 704h31l-325 -704h-31z" />
    <glyph glyph-name="uni2219" unicode="&#x2219;" horiz-adv-x="239" 
d="M99 268v79h41v-79h-41z" />
    <glyph glyph-name="radical" unicode="&#x221a;" horiz-adv-x="600" 
d="M266 -183l-130 364h-78v28h96l126 -344l296 906h30l-312 -954h-28z" />
    <glyph glyph-name="infinity" unicode="&#x221e;" horiz-adv-x="936" 
d="M248 110q-82 0 -134 57.5t-52 148.5q0 93 52.5 151.5t136.5 58.5q79 0 126.5 -46t91.5 -131q45 95 96 136t124 41q82 0 133.5 -57t51.5 -148q0 -93 -52.5 -152t-135.5 -59q-42 0 -76 13.5t-60.5 41.5t-43.5 54t-38 67q-46 -95 -96.5 -135.5t-123.5 -40.5zM249 137
q68 0 112.5 39t91.5 139q-19 37 -30 56.5t-31 48t-38.5 43t-45.5 25.5t-59 11q-69 0 -113 -51.5t-44 -131.5q0 -79 43.5 -129t113.5 -50zM688 137q69 0 112.5 51.5t43.5 132.5q0 78 -43.5 128t-112.5 50q-68 0 -113.5 -39.5t-91.5 -139.5q19 -37 29.5 -56t31 -47.5t39 -43
t46 -25.5t59.5 -11z" />
    <glyph glyph-name="integral" unicode="&#x222b;" horiz-adv-x="290" 
d="M42 -194q-27 0 -57 11v30q28 -14 57 -14q46 0 67 31t21 100v666q0 79 28.5 117t89.5 38q24 0 57 -10v-30q-30 13 -57 13q-46 0 -67 -31t-21 -100v-666q0 -79 -28.5 -117t-89.5 -38z" />
    <glyph glyph-name="approxequal" unicode="&#x2248;" horiz-adv-x="600" 
d="M413 343q-60 0 -121 53q-32 28 -55 38.5t-51 10.5q-89 0 -98 -96h-26q5 59 37.5 91t87.5 32q60 0 121 -53q32 -28 55 -38.5t51 -10.5q89 0 98 96h26q-5 -59 -37.5 -91t-87.5 -32zM413 125q-60 0 -121 53q-32 28 -55 38.5t-51 10.5q-89 0 -98 -96h-26q5 59 37.5 91
t87.5 32q60 0 121 -53q32 -28 55 -38.5t51 -10.5q89 0 98 96h26q-5 -59 -37.5 -91t-87.5 -32z" />
    <glyph glyph-name="notequal" unicode="&#x2260;" horiz-adv-x="600" 
d="M542 403h-155l-141 -190h296v-28h-316l-115 -155h-34l115 155h-134v28h154l141 190h-295v28h316l115 156h34l-115 -156h134v-28z" />
    <glyph glyph-name="lessequal" unicode="&#x2264;" horiz-adv-x="600" 
d="M542 105l-484 215v25l484 215v-30l-445 -197l445 -198v-30zM58 0v28h484v-28h-484z" />
    <glyph glyph-name="greaterequal" unicode="&#x2265;" horiz-adv-x="600" 
d="M58 105v30l445 198l-445 197v30l484 -215v-25zM58 0v28h484v-28h-484z" />
    <glyph glyph-name="lozenge" unicode="&#x25ca;" horiz-adv-x="600" 
d="M300 -32l-266 372l266 372l266 -372zM300 16l231 324l-231 324l-231 -324z" />
    <glyph glyph-name="uniF8FF" unicode="&#xf8ff;" horiz-adv-x="649" 
d="M263 50q-101 0 -163 61t-62 163q0 101 64.5 163t185.5 62h50v116h157v-116h132v-149h-132v-51q0 -116 -63.5 -182.5t-168.5 -66.5zM266 205q72 0 72 92v53h-49q-89 0 -89 -76q0 -32 17.5 -50.5t48.5 -18.5z" />
    <glyph glyph-name="Iacute_J.loclNLD" horiz-adv-x="787" 
d="M75 759l106 122h41l-115 -122h-32zM642 759l106 122h41l-115 -122h-32zM104 0v680h31v-680h-31zM478 -12q-112 0 -166 53t-54 163v12h29v-7q0 -101 45 -146.5t145 -45.5q104 0 149.5 50t45.5 164v449h31v-454q0 -122 -54.5 -180t-170.5 -58z" />
    <glyph glyph-name="iacute_j.loclNLD" horiz-adv-x="440" 
d="M65 600l106 122h41l-115 -122h-32zM285 600l106 122h41l-115 -122h-32zM95 0v509h30v-509h-30zM214 -182v27h21q46 0 63 21.5t17 80.5v562h30v-564q0 -68 -25 -97.5t-83 -29.5h-23z" />
    <glyph glyph-name="i.loclTRK" horiz-adv-x="220" 
d="M92 626v70h36v-70h-36zM95 0v509h30v-509h-30z" />
    <glyph glyph-name="germandbls.calt" horiz-adv-x="620" 
d="M84 0v483q0 101 54.5 149t169.5 48h230v-27l-209 -273h21q126 0 182.5 -45.5t56.5 -147.5q0 -97 -51 -142t-161 -45h-119v29h115q98 0 141.5 37t43.5 121q0 88 -49 126t-163 38h-57v25l210 275h-190q-102 0 -148 -40.5t-46 -129.5v-481h-31z" />
    <glyph glyph-name="zero.pf" horiz-adv-x="638" 
d="M319 -12q-110 0 -168 57.5t-58 165.5v258q0 108 58 165.5t168 57.5t168 -57.5t58 -165.5v-258q0 -108 -58 -165.5t-168 -57.5zM319 15q196 0 196 200v250q0 200 -196 200t-196 -200v-250q0 -200 196 -200z" />
    <glyph glyph-name="one.pf" horiz-adv-x="408" 
d="M260 0v639q-81 -58 -196 -69v24q119 12 196 86h30v-680h-30z" />
    <glyph glyph-name="two.pf" horiz-adv-x="572" 
d="M64 0v27q0 92 51.5 154.5t175.5 119.5q106 49 149 96t43 114q0 72 -48.5 113t-138.5 41q-93 0 -142.5 -44.5t-49.5 -128.5v-9h-29v12q0 94 58.5 145.5t164.5 51.5q103 0 158.5 -49t55.5 -133q0 -75 -46 -127t-159 -105q-117 -55 -165.5 -111t-48.5 -138v-1h418v-28h-447z
" />
    <glyph glyph-name="three.pf" horiz-adv-x="594" 
d="M299 -12q-111 0 -171.5 49t-60.5 138v11h29v-9q0 -162 202 -162q201 0 201 165q0 158 -192 158h-82v27h86q81 0 125.5 38t44.5 108q0 73 -48 113.5t-136 40.5q-91 0 -141 -42.5t-50 -119.5v-4h-29v7q0 85 60 135.5t162 50.5q99 0 155 -48t56 -132q0 -126 -119 -158v-1
q138 -33 138 -174q0 -94 -59.5 -142.5t-170.5 -48.5z" />
    <glyph glyph-name="four.pf" horiz-adv-x="587" 
d="M436 0v167h-392v30l388 483h34v-485h94v-28h-94v-167h-30zM75 195h361v447z" />
    <glyph glyph-name="five.pf" horiz-adv-x="583" 
d="M289 -12q-103 0 -165 46t-64 123h29q2 -66 55 -104t144 -38q103 0 157 50.5t54 148.5q0 99 -54 148t-145 49q-115 0 -194 -71h-22l22 340h392v-28h-367l-18 -273q79 59 187 59q109 0 169 -58t60 -165q0 -109 -63 -168t-177 -59z" />
    <glyph glyph-name="six.pf" horiz-adv-x="630" 
d="M325 -12q-110 0 -169 57.5t-59 165.5v254q0 110 60.5 168.5t171.5 58.5q96 0 151.5 -43t60.5 -120h-29q-6 66 -53 101t-129 35q-100 0 -151.5 -52t-51.5 -153v-148q69 113 215 113q101 0 156 -55t55 -159q0 -107 -58.5 -165t-169.5 -58zM324 15q98 0 148.5 49.5
t50.5 145.5q0 93 -46.5 140.5t-136.5 47.5q-150 0 -213 -141v-41q0 -201 197 -201z" />
    <glyph glyph-name="seven.pf" horiz-adv-x="533" 
d="M157 0q15 363 312 651h-446v29h482v-32q-301 -280 -316 -648h-32z" />
    <glyph glyph-name="eight.pf" horiz-adv-x="620" 
d="M310 -12q-119 0 -182 49t-63 140q0 143 148 177v2q-126 32 -126 156q0 84 59.5 132t163.5 48q105 0 164 -48t59 -132q0 -124 -126 -156v-1q148 -35 148 -178q0 -91 -63 -140t-182 -49zM310 367q95 0 144.5 37.5t49.5 108.5q0 73 -51 112.5t-143 39.5t-143 -39.5
t-51 -112.5q0 -71 49.5 -108.5t144.5 -37.5zM310 15q106 0 160.5 41.5t54.5 121.5q0 162 -215 162t-215 -162q0 -80 54.5 -121.5t160.5 -41.5z" />
    <glyph glyph-name="nine.pf" horiz-adv-x="630" 
d="M301 -12q-96 0 -151.5 43t-60.5 120h29q6 -66 53 -101t129 -35q100 0 151.5 52t51.5 153v148q-69 -113 -215 -113q-101 0 -156 55t-55 159q0 107 58.5 165t169.5 58q110 0 169 -57.5t59 -165.5v-254q0 -110 -60.5 -168.5t-171.5 -58.5zM290 282q150 0 213 141v41
q0 201 -197 201q-98 0 -148.5 -49.5t-50.5 -145.5q0 -93 46.5 -140.5t136.5 -47.5z" />
    <glyph glyph-name="zero.numr" 
d="M183 274q-67 0 -102.5 35t-35.5 101v146q0 66 35.5 101t102.5 35t102.5 -35t35.5 -101v-146q0 -66 -35.5 -101t-102.5 -35zM183 301q108 0 108 112v141q0 111 -108 111t-108 -111v-141q0 -112 108 -112z" />
    <glyph glyph-name="one.numr" 
d="M94 286v27h100v328q-53 -31 -112 -34v23q69 6 113 50h29v-367h100v-27h-230z" />
    <glyph glyph-name="two.numr" 
d="M48 286v20q0 56 30.5 92.5t103.5 70.5q59 27 83 52.5t24 61.5q0 39 -26 60.5t-74 21.5q-51 0 -78 -24t-27 -68v-6h-29v9q0 55 35.5 85.5t99.5 30.5q62 0 95.5 -29t33.5 -80q0 -44 -27.5 -75t-93.5 -62t-92.5 -60.5t-27.5 -72.5h241v-27h-271z" />
    <glyph glyph-name="three.numr" 
d="M185 274q-68 0 -104.5 28t-36.5 81v9h29v-6q0 -85 112 -85q110 0 110 89q0 86 -107 86h-49v27h51q94 0 94 79q0 83 -101 83q-50 0 -77 -22.5t-27 -62.5v-3h-29v6q0 50 36.5 79.5t98.5 29.5q60 0 94.5 -28.5t34.5 -79.5q0 -74 -69 -92v-1q80 -19 80 -103q0 -114 -140 -114
z" />
    <glyph glyph-name="four.numr" 
d="M262 286v90h-229v29l226 275h33v-277h55v-27h-55v-90h-30zM66 403h196v239z" />
    <glyph glyph-name="five.numr" 
d="M182 274q-62 0 -99 27t-39 74h29q1 -34 30 -54t78 -20q117 0 117 107q0 51 -27.5 78t-80.5 27q-67 0 -108 -38h-23l12 205h237v-27h-213l-9 -148q44 35 108 35t99 -35t35 -97q0 -65 -38 -99.5t-108 -34.5z" />
    <glyph glyph-name="six.numr" 
d="M192 274q-69 0 -105.5 34.5t-36.5 99.5v148q0 65 36.5 100.5t105.5 35.5q59 0 93 -25.5t37 -72.5h-29q-5 71 -101 71q-112 0 -112 -112v-80q42 59 123 59q61 0 93.5 -33t32.5 -95q0 -64 -35 -97t-102 -33zM191 301q108 0 108 103q0 101 -100 101q-83 0 -119 -77v-17
q0 -110 111 -110z" />
    <glyph glyph-name="seven.numr" 
d="M116 286q9 209 179 367h-259v27h292v-29q-171 -154 -180 -365h-32z" />
    <glyph glyph-name="eight.numr" 
d="M183 274q-72 0 -110.5 29t-38.5 85q0 81 81 104v1q-68 20 -68 91q0 51 36 79.5t100 28.5q65 0 100.5 -28t35.5 -80q0 -71 -68 -91v-1q81 -23 81 -104q0 -114 -149 -114zM183 502q107 0 107 81q0 41 -27.5 62.5t-79.5 21.5q-51 0 -79 -22t-28 -62q0 -39 27.5 -60t79.5 -21
zM184 300q118 0 118 89t-118 89q-120 0 -120 -89t120 -89z" />
    <glyph glyph-name="nine.numr" 
d="M174 274q-59 0 -93 25.5t-37 72.5h29q5 -71 101 -71q112 0 112 112v80q-42 -59 -123 -59q-61 0 -93.5 33t-32.5 95q0 64 35 97t102 33q69 0 105.5 -34.5t36.5 -99.5v-148q0 -65 -36.5 -100.5t-105.5 -35.5zM167 461q83 0 119 77v17q0 110 -111 110q-108 0 -108 -103
q0 -101 100 -101z" />
    <glyph glyph-name="zero.dnom" 
d="M183 -12q-67 0 -102.5 35t-35.5 101v146q0 66 35.5 101t102.5 35t102.5 -35t35.5 -101v-146q0 -66 -35.5 -101t-102.5 -35zM183 15q108 0 108 112v141q0 111 -108 111t-108 -111v-141q0 -112 108 -112z" />
    <glyph glyph-name="one.dnom" 
d="M94 0v27h100v328q-53 -31 -112 -34v23q69 6 113 50h29v-367h100v-27h-230z" />
    <glyph glyph-name="two.dnom" 
d="M48 0v20q0 56 30.5 92.5t103.5 70.5q59 27 83 52.5t24 61.5q0 39 -26 60.5t-74 21.5q-51 0 -78 -24t-27 -68v-6h-29v9q0 55 35.5 85.5t99.5 30.5q62 0 95.5 -29t33.5 -80q0 -44 -27.5 -75t-93.5 -62t-92.5 -60.5t-27.5 -72.5h241v-27h-271z" />
    <glyph glyph-name="three.dnom" 
d="M185 -12q-68 0 -104.5 28t-36.5 81v9h29v-6q0 -85 112 -85q110 0 110 89q0 86 -107 86h-49v27h51q94 0 94 79q0 83 -101 83q-50 0 -77 -22.5t-27 -62.5v-3h-29v6q0 50 36.5 79.5t98.5 29.5q60 0 94.5 -28.5t34.5 -79.5q0 -74 -69 -92v-1q80 -19 80 -103q0 -114 -140 -114
z" />
    <glyph glyph-name="four.dnom" 
d="M262 0v90h-229v29l226 275h33v-277h55v-27h-55v-90h-30zM66 117h196v239z" />
    <glyph glyph-name="five.dnom" 
d="M182 -12q-62 0 -99 27t-39 74h29q1 -34 30 -54t78 -20q117 0 117 107q0 51 -27.5 78t-80.5 27q-67 0 -108 -38h-23l12 205h237v-27h-213l-9 -148q44 35 108 35t99 -35t35 -97q0 -65 -38 -99.5t-108 -34.5z" />
    <glyph glyph-name="six.dnom" 
d="M192 -12q-69 0 -105.5 34.5t-36.5 99.5v148q0 65 36.5 100.5t105.5 35.5q59 0 93 -25.5t37 -72.5h-29q-5 71 -101 71q-112 0 -112 -112v-80q42 59 123 59q61 0 93.5 -33t32.5 -95q0 -64 -35 -97t-102 -33zM191 15q108 0 108 103q0 101 -100 101q-83 0 -119 -77v-17
q0 -110 111 -110z" />
    <glyph glyph-name="seven.dnom" 
d="M116 0q9 209 179 367h-259v27h292v-29q-171 -154 -180 -365h-32z" />
    <glyph glyph-name="eight.dnom" 
d="M183 -12q-72 0 -110.5 29t-38.5 85q0 81 81 104v1q-68 20 -68 91q0 51 36 79.5t100 28.5q65 0 100.5 -28t35.5 -80q0 -71 -68 -91v-1q81 -23 81 -104q0 -114 -149 -114zM183 216q107 0 107 81q0 41 -27.5 62.5t-79.5 21.5q-51 0 -79 -22t-28 -62q0 -39 27.5 -60t79.5 -21
zM184 14q118 0 118 89t-118 89q-120 0 -120 -89t120 -89z" />
    <glyph glyph-name="nine.dnom" 
d="M174 -12q-59 0 -93 25.5t-37 72.5h29q5 -71 101 -71q112 0 112 112v80q-42 -59 -123 -59q-61 0 -93.5 33t-32.5 95q0 64 35 97t102 33q69 0 105.5 -34.5t36.5 -99.5v-148q0 -65 -36.5 -100.5t-105.5 -35.5zM167 175q83 0 119 77v17q0 110 -111 110q-108 0 -108 -103
q0 -101 100 -101z" />
    <glyph glyph-name="exclamdown.case" horiz-adv-x="257" 
d="M108 601v79h41v-79h-41zM113 0l1 144l4 331h21l4 -331l1 -144h-31z" />
    <glyph glyph-name="questiondown.case" horiz-adv-x="413" 
d="M204 601v79h41v-79h-41zM209 -12q-86 0 -133.5 44.5t-47.5 123.5q0 51 21.5 84.5t74.5 64.5q48 28 68 60t20 83v27h25v-26q0 -58 -22 -96t-72 -67q-48 -28 -67 -57t-19 -75q0 -67 40 -103t114 -36q76 0 116.5 39t40.5 112h28q0 -84 -49.5 -131t-137.5 -47z" />
    <glyph glyph-name="at.case" horiz-adv-x="762" 
d="M410 -16q-168 0 -268 97t-100 257q0 159 99 258.5t258 99.5q152 0 245 -90.5t93 -236.5q0 -96 -40.5 -153.5t-107.5 -57.5q-76 0 -88 82q-47 -82 -137 -82q-60 0 -93.5 37t-33.5 102v81q0 65 33.5 102t93.5 37q88 0 136 -80l2 67h26v-235q0 -84 64 -84q53 0 85 48.5
t32 132.5q0 137 -84.5 220t-225.5 83q-148 0 -237.5 -91t-89.5 -239q0 -149 92 -238.5t246 -89.5q117 0 200 54l12 -25q-83 -56 -212 -56zM365 185q83 0 133 98v110q-50 97 -133 97q-47 0 -72.5 -29.5t-25.5 -86.5v-74q0 -56 25.5 -85.5t72.5 -29.5z" />
    <glyph glyph-name="parenleft.case" horiz-adv-x="317" 
d="M296 -96q-103 44 -160.5 158t-57.5 278t57.5 278t160.5 158v-25q-90 -45 -139 -152t-49 -259t49 -259t139 -152v-25z" />
    <glyph glyph-name="parenright.case" horiz-adv-x="317" 
d="M21 -96v25q90 45 139 152t49 259t-49 259t-139 152v25q103 -44 160.5 -158t57.5 -278t-57.5 -278t-160.5 -158z" />
    <glyph glyph-name="braceleft.case" horiz-adv-x="317" 
d="M260 -84q-67 0 -99.5 36.5t-32.5 112.5v181q0 47 -19 64.5t-71 17.5v24q52 0 71 17.5t19 64.5v181q0 76 32.5 112.5t99.5 36.5h36v-24h-35q-104 0 -104 -125v-178q0 -83 -56 -96v-2q56 -13 56 -96v-178q0 -125 104 -125h35v-24h-36z" />
    <glyph glyph-name="braceright.case" horiz-adv-x="317" 
d="M21 -84v24h35q104 0 104 125v178q0 83 56 96v2q-56 13 -56 96v178q0 125 -104 125h-35v24h36q67 0 99.5 -36.5t32.5 -112.5v-181q0 -47 19 -64.5t71 -17.5v-24q-52 0 -71 -17.5t-19 -64.5v-181q0 -76 -32.5 -112.5t-99.5 -36.5h-36z" />
    <glyph glyph-name="bracketleft.case" horiz-adv-x="317" 
d="M104 -84v848h192v-24h-163v-800h163v-24h-192z" />
    <glyph glyph-name="bracketright.case" horiz-adv-x="317" 
d="M21 -84v24h163v800h-163v24h192v-848h-192z" />
    <glyph glyph-name="bar.case" horiz-adv-x="270" 
d="M120 -160v1000h30v-1000h-30z" />
    <glyph glyph-name="brokenbar.case" horiz-adv-x="270" 
d="M120 440v400h30v-400h-30zM120 -160v400h30v-400h-30z" />
    <glyph glyph-name="periodcentered.case" horiz-adv-x="239" 
d="M99 300v79h41v-79h-41z" />
    <glyph glyph-name="bullet.case" horiz-adv-x="500" 
d="M164 254v172h172v-172h-172z" />
    <glyph glyph-name="hyphen.case" horiz-adv-x="355" 
d="M35 326v28h285v-28h-285z" />
    <glyph glyph-name="uni00AD.case" horiz-adv-x="355" 
d="M35 326v28h285v-28h-285z" />
    <glyph glyph-name="figuredash.case" horiz-adv-x="600" 
d="M30 327v26h540v-26h-540z" />
    <glyph glyph-name="endash.case" horiz-adv-x="500" 
d="M30 327v26h440v-26h-440z" />
    <glyph glyph-name="emdash.case" horiz-adv-x="900" 
d="M30 327v26h840v-26h-840z" />
    <glyph glyph-name="guillemotleft.case" horiz-adv-x="430" 
d="M179 168l-149 172l149 172h38l-149 -172l149 -172h-38zM362 168l-149 172l149 172h38l-149 -172l149 -172h-38z" />
    <glyph glyph-name="guillemotright.case" horiz-adv-x="430" 
d="M30 168l149 172l-149 172h38l149 -172l-149 -172h-38zM213 168l149 172l-149 172h38l149 -172l-149 -172h-38z" />
    <glyph glyph-name="guilsinglleft.case" horiz-adv-x="247" 
d="M179 168l-149 172l149 172h38l-149 -172l149 -172h-38z" />
    <glyph glyph-name="guilsinglright.case" horiz-adv-x="247" 
d="M30 168l149 172l-149 172h38l149 -172l-149 -172h-38z" />
    <glyph glyph-name="caron.alt" horiz-adv-x="110" 
d="M22 545l41 185h33l-50 -185h-24z" />
    <glyph glyph-name="ringacute" horiz-adv-x="500" 
d="M205 771l106 122h41l-115 -122h-32zM250 571q-35 0 -57.5 22t-22.5 56t22.5 56t57.5 22t57.5 -22t22.5 -56t-22.5 -56t-57.5 -22zM250 595q23 0 38 15t15 39t-15 39t-38 15t-38 -15t-15 -39t15 -39t38 -15z" />
    <glyph glyph-name="NULL" horiz-adv-x="0" 
 />
    </font>
</defs>
</svg>
