<?xml version="1.0" standalone="no"?>
<!DOCTYPE svg PUBLIC "-//W3C//DTD SVG 1.1//EN" "http://www.w3.org/Graphics/SVG/1.1/DTD/svg11.dtd" >
<svg xmlns="http://www.w3.org/2000/svg" xmlns:xlink="http://www.w3.org/1999/xlink" version="1.1">
<metadata>
Created by FontForge 20170731 at Fri Feb  5 17:51:09 2016
 By Aleksey,,,
Copyright (c) 2014-2015 by Ryoichi Tsunekawa. All rights reserved.
</metadata>
<defs>
<font id="BioSans-ExtraBoldItalic" horiz-adv-x="366" >
  <font-face 
    font-family="Bio Sans ExtraBold"
    font-weight="800"
    font-style="italic"
    font-stretch="normal"
    units-per-em="1000"
    panose-1="2 11 8 4 2 2 2 11 2 4"
    ascent="800"
    descent="-200"
    x-height="525"
    cap-height="680"
    bbox="-233 -263 1125 1128"
    underline-thickness="78"
    underline-position="-256"
    slope="-10"
    unicode-range="U+000D-FB02"
  />
<missing-glyph horiz-adv-x="676" 
d="M18 0l120 680h548l-120 -680h-548zM366 442l115 141h-182zM152 179l135 166l-74 156zM490 179l61 322l-135 -166zM223 97h182l-67 141z" />
    <glyph glyph-name="fi" unicode="fi" horiz-adv-x="656" 
d="M34 0l70 396h-72l22 129h73l6 36q16 89 59 129t123 40h134l-23 -132h-61q-24 0 -36.5 -11t-16.5 -38l-4 -24h101l-22 -129h-102l-70 -396h-181zM477 588l25 142h185l-25 -142h-185zM376 0l93 525h181l-93 -525h-181z" />
    <glyph glyph-name="fl" unicode="fl" horiz-adv-x="656" 
d="M34 0l70 396h-72l22 129h73l6 36q16 89 59 129t123 40h134l-23 -132h-61q-24 0 -36.5 -11t-16.5 -38l-4 -24h101l-22 -129h-102l-70 -396h-181zM376 0l129 730h181l-129 -730h-181z" />
    <glyph glyph-name=".notdef" horiz-adv-x="676" 
d="M18 0l120 680h548l-120 -680h-548zM366 442l115 141h-182zM152 179l135 166l-74 156zM490 179l61 322l-135 -166zM223 97h182l-67 141z" />
    <glyph glyph-name=".null" horiz-adv-x="0" 
 />
    <glyph glyph-name="nonmarkingreturn" horiz-adv-x="333" 
 />
    <glyph glyph-name="CR" unicode="&#xd;" horiz-adv-x="226" 
 />
    <glyph glyph-name="space" unicode=" " horiz-adv-x="226" 
 />
    <glyph glyph-name="exclam" unicode="!" horiz-adv-x="322" 
d="M90 236l19 242l31 202h190l-39 -202l-69 -242h-132zM23 0l28 163h184l-28 -163h-184z" />
    <glyph glyph-name="quotedbl" unicode="&#x22;" horiz-adv-x="484" 
d="M79 373l33 307h168l-72 -307h-129zM317 373l33 307h168l-72 -307h-129z" />
    <glyph glyph-name="numbersign" unicode="#" horiz-adv-x="594" 
d="M20 0l47 158h-50l20 118h66l41 138h-50l21 119h65l44 147h150l-44 -147h78l44 147h150l-44 -147h49l-21 -119h-64l-41 -138h48l-20 -118h-64l-47 -158h-150l47 158h-78l-47 -158h-150zM253 276h78l41 138h-78z" />
    <glyph glyph-name="dollar" unicode="$" horiz-adv-x="594" 
d="M175 -72l13 76q-151 22 -151 154q0 24 5 57h167q-3 -17 -3 -29q0 -55 67 -55q44 0 68 19t24 53q0 28 -20 41t-86 30q-98 25 -134 61t-36 110q0 97 57 157t161 74l13 76h133l-13 -78q136 -26 136 -155q0 -24 -4 -48h-166q2 18 2 25q0 53 -58 53q-38 0 -60 -20.5t-22 -51.5
q0 -28 21.5 -42t84.5 -29q97 -23 133.5 -60t36.5 -113q0 -98 -57.5 -156.5t-165.5 -72.5l-13 -76h-133z" />
    <glyph glyph-name="percent" unicode="%" horiz-adv-x="796" 
d="M201 308q-69 0 -106.5 28t-37.5 81q0 15 3 31l20 113q12 70 54.5 100.5t114.5 30.5q69 0 106.5 -28t37.5 -81q0 -15 -3 -31l-20 -113q-12 -70 -54.5 -100.5t-114.5 -30.5zM83 -12l535 704h123l-535 -704h-123zM208 404q34 0 41 41l19 108q2 12 2 18q0 25 -28 25
q-34 0 -41 -41l-19 -108q-2 -12 -2 -18q0 -25 28 -25zM575 -12q-69 0 -106.5 28t-37.5 81q0 15 3 31l20 113q12 70 54.5 100.5t114.5 30.5q69 0 106.5 -28t37.5 -81q0 -15 -3 -31l-20 -113q-12 -70 -54.5 -100.5t-114.5 -30.5zM582 84q34 0 41 41l19 108q2 12 2 18
q0 25 -28 25q-34 0 -41 -41l-19 -108q-2 -12 -2 -18q0 -25 28 -25z" />
    <glyph glyph-name="ampersand" unicode="&#x26;" horiz-adv-x="685" 
d="M224 -12q-98 0 -153.5 44t-55.5 131q0 139 163 225q-30 55 -30 107q0 89 63 143t165 54q82 0 124.5 -37t42.5 -105q0 -62 -37.5 -108.5t-118.5 -86.5l61 -91q18 41 34 99h162q-39 -133 -111 -223l94 -140h-211l-18 29q-80 -41 -174 -41zM322 452q77 38 77 83q0 38 -41 38
q-27 0 -43 -18.5t-16 -44.5q0 -24 23 -58zM271 119q32 0 63 14l-92 148q-51 -38 -51 -91q0 -71 80 -71z" />
    <glyph glyph-name="quotesingle" unicode="'" horiz-adv-x="253" 
d="M78 373l35 307h175l-75 -307h-135z" />
    <glyph glyph-name="parenleft" unicode="(" horiz-adv-x="341" 
d="M262 -130q-219 48 -219 331q0 128 41.5 242t128 197t203.5 102l-22 -122q-92 -48 -144.5 -188t-52.5 -274q0 -143 83 -186z" />
    <glyph glyph-name="parenright" unicode=")" horiz-adv-x="341" 
d="M-60 -130l22 122q92 48 144.5 188t52.5 274q0 143 -83 186l18 102q219 -48 219 -331q0 -128 -41.5 -242t-128 -197t-203.5 -102z" />
    <glyph glyph-name="asterisk" unicode="*" horiz-adv-x="436" 
d="M160 274l-90 77l98 101l-118 31l41 114l120 -52l16 135h122l-31 -130l115 46l31 -117l-133 -33l75 -115l-108 -57l-51 112z" />
    <glyph glyph-name="plus" unicode="+" horiz-adv-x="594" 
d="M190 54l33 187h-177l24 136h177l33 187h140l-33 -187h177l-24 -136h-177l-33 -187h-140z" />
    <glyph glyph-name="comma" unicode="," horiz-adv-x="299" 
d="M-25 -204l16 94q68 0 81 76l6 34h-68l33 185h186l-34 -193q-19 -108 -67.5 -152t-152.5 -44z" />
    <glyph glyph-name="hyphen" unicode="-" horiz-adv-x="390" 
d="M26 223l27 152h324l-27 -152h-324z" />
    <glyph glyph-name="period" unicode="." horiz-adv-x="299" 
d="M10 0l33 185h186l-33 -185h-186z" />
    <glyph glyph-name="slash" unicode="/" horiz-adv-x="479" 
d="M-72 -140l482 870h152l-482 -870h-152z" />
    <glyph glyph-name="zero" unicode="0" horiz-adv-x="594" 
d="M260 -12q-111 0 -169.5 46t-58.5 135q0 27 5 55l43 244q40 224 281 224q111 0 169.5 -46t58.5 -135q0 -27 -5 -55l-43 -244q-40 -224 -281 -224zM275 131q37 0 57.5 21.5t29.5 72.5l41 232q3 17 3 33q0 30 -14 44.5t-46 14.5q-37 0 -57.5 -21.5t-29.5 -72.5l-41 -232
q-3 -16 -3 -33q0 -30 14 -44.5t46 -14.5z" />
    <glyph glyph-name="one" unicode="1" horiz-adv-x="594" 
d="M32 0l25 144h160l57 320h-180l22 128q132 1 206 88h171l-95 -536h160l-25 -144h-501z" />
    <glyph glyph-name="two" unicode="2" horiz-adv-x="594" 
d="M-8 0l15 85q18 100 74 161t177 111q79 33 114 65t35 72q0 55 -62 55q-74 0 -90 -90l-4 -23h-170l7 40q38 216 274 216q224 0 224 -183q0 -95 -62.5 -164.5t-199.5 -125.5q-60 -25 -86.5 -41t-36.5 -34h323l-25 -144h-507z" />
    <glyph glyph-name="three" unicode="3" horiz-adv-x="594" 
d="M255 -12q-114 0 -171.5 41.5t-57.5 119.5q0 21 4 44l6 34h174l-3 -17q-2 -12 -2 -23q0 -56 67 -56q44 0 67.5 23.5t23.5 59.5q0 60 -82 60h-60l24 134h54q48 0 73.5 22.5t25.5 65.5q0 28 -12.5 40.5t-40.5 12.5q-71 0 -84 -74l-3 -17h-172l6 34q36 200 272 200
q218 0 218 -171q0 -126 -115 -170v-2q76 -33 76 -133q0 -109 -75.5 -168.5t-212.5 -59.5z" />
    <glyph glyph-name="four" unicode="4" horiz-adv-x="594" 
d="M282 0l23 134h-299l26 146l361 400h190l-73 -412h64l-24 -134h-63l-24 -134h-181zM196 268h133l34 193z" />
    <glyph glyph-name="five" unicode="5" horiz-adv-x="594" 
d="M254 -12q-111 0 -167.5 43.5t-56.5 122.5q0 23 4 44h172v-11q0 -56 65 -56q50 0 76 32.5t26 78.5q0 67 -67 67q-52 0 -83 -29h-156l97 400h434l-26 -144h-286l-28 -116q48 28 118 28q92 0 134.5 -45.5t42.5 -138.5q0 -129 -76.5 -202.5t-222.5 -73.5z" />
    <glyph glyph-name="six" unicode="6" horiz-adv-x="594" 
d="M266 -12q-114 0 -172 45.5t-58 133.5q0 29 5 56l42 238q41 231 289 231q110 0 166 -42.5t56 -122.5q0 -24 -4 -45h-171v12q0 55 -61 55q-40 0 -63.5 -23t-32.5 -78l-8 -47q52 39 126 39q83 0 127.5 -43t44.5 -124q0 -136 -74 -210.5t-212 -74.5zM280 131q45 0 67 33
t22 84q0 53 -51 53q-56 0 -92 -59l-3 -16q-3 -18 -3 -34q0 -61 60 -61z" />
    <glyph glyph-name="seven" unicode="7" horiz-adv-x="594" 
d="M73 0q73 339 335 531h-321l26 149h510l-27 -154q-139 -116 -216.5 -239.5t-113.5 -286.5h-193z" />
    <glyph glyph-name="eight" unicode="8" horiz-adv-x="594" 
d="M253 -12q-236 0 -236 180q0 142 136 188v2q-66 34 -66 123q0 100 76 155.5t204 55.5q224 0 224 -173q0 -125 -116 -167v-2q77 -36 77 -137q0 -108 -80.5 -166.5t-218.5 -58.5zM322 410q40 0 64 26.5t24 62.5q0 54 -60 54q-42 0 -65 -24t-23 -60q0 -59 60 -59zM271 127
q49 0 75 23.5t26 62.5q0 63 -71 63q-49 0 -75 -26.5t-26 -64.5q0 -58 71 -58z" />
    <glyph glyph-name="nine" unicode="9" horiz-adv-x="594" 
d="M249 -12q-110 0 -166 42.5t-56 122.5q0 24 4 45h171v-12q0 -55 61 -55q40 0 63.5 23t32.5 78l8 47q-52 -39 -126 -39q-83 0 -127.5 43t-44.5 124q0 136 74 210.5t212 74.5q114 0 172 -45.5t58 -133.5q0 -29 -5 -56l-42 -238q-41 -231 -289 -231zM303 379q56 0 92 59l3 16
q3 18 3 34q0 61 -60 61q-45 0 -67 -33t-22 -84q0 -53 51 -53z" />
    <glyph glyph-name="colon" unicode=":" horiz-adv-x="299" 
d="M68 330l33 185h186l-33 -185h-186zM10 0l33 185h186l-33 -185h-186z" />
    <glyph glyph-name="semicolon" unicode=";" horiz-adv-x="299" 
d="M69 330l33 185h186l-33 -185h-186zM-25 -204l16 94q68 0 81 76l6 34h-68l33 185h186l-34 -193q-19 -108 -67.5 -152t-152.5 -44z" />
    <glyph glyph-name="less" unicode="&#x3c;" horiz-adv-x="594" 
d="M507 51l-461 190l23 132l528 192l-27 -154l-317 -109l279 -109z" />
    <glyph glyph-name="equal" unicode="=" horiz-adv-x="594" 
d="M66 356l24 136h494l-24 -136h-494zM26 126l24 136h494l-24 -136h-494z" />
    <glyph glyph-name="greater" unicode="&#x3e;" horiz-adv-x="594" 
d="M13 51l27 154l317 109l-279 109l25 142l461 -190l-23 -132z" />
    <glyph glyph-name="question" unicode="?" horiz-adv-x="484" 
d="M136 236l4 23q10 56 36 92.5t81 69.5q40 24 56 44.5t16 49.5q0 34 -41 34q-58 0 -71 -79h-169q20 115 81 168.5t172 53.5q101 0 155 -40t54 -114q0 -70 -30 -116t-100 -85q-41 -22 -59.5 -42.5t-23.5 -47.5l-2 -11h-159zM83 0l28 163h183l-28 -163h-183z" />
    <glyph glyph-name="at" unicode="@" horiz-adv-x="754" 
d="M385 -68q-165 0 -260 87.5t-95 241.5q0 170 109 283t288 113q147 0 238 -78.5t91 -213.5q0 -103 -53.5 -172.5t-153.5 -69.5q-84 0 -110 52q-44 -52 -112 -52q-51 0 -77.5 24.5t-26.5 70.5q0 21 4 45l12 68q12 67 43 97t85 30q68 0 99 -50l12 38h99l-32 -182
q-2 -12 -2 -23q0 -23 22 -23q24 0 40.5 25.5t23 57.5t6.5 63q0 86 -56 136t-152 50q-125 0 -197 -81.5t-72 -202.5q0 -108 60.5 -167.5t167.5 -59.5q105 0 179 54l38 -110q-95 -51 -218 -51zM372 218q27 0 45 29l16 87q-8 29 -35 29q-30 0 -37 -38l-12 -68q-1 -6 -1 -10
q0 -29 24 -29z" />
    <glyph glyph-name="A" unicode="A" horiz-adv-x="625" 
d="M-46 0l334 680h197l94 -680h-190l-11 121h-182l-55 -121h-187zM257 263h110l-16 221z" />
    <glyph glyph-name="B" unicode="B" horiz-adv-x="636" 
d="M19 0l120 680h272q115 0 165 -37t50 -121q0 -129 -124 -165v-2q48 -16 69.5 -49.5t21.5 -89.5q0 -106 -69 -161t-200 -55h-305zM276 412h61q103 0 103 82q0 28 -14.5 38.5t-52.5 10.5h-74zM227 137h82q102 0 102 83q0 34 -18.5 46t-70.5 12h-70z" />
    <glyph glyph-name="C" unicode="C" horiz-adv-x="605" 
d="M277 -12q-122 0 -180 50t-58 154q0 42 7 81l26 148q25 141 98 206t211 65q120 0 177.5 -48.5t57.5 -148.5q0 -33 -6 -72h-174q5 32 5 50q0 37 -17.5 52.5t-56.5 15.5q-51 0 -74.5 -28t-37.5 -105l-24 -136q-7 -39 -7 -65q0 -38 16 -53t55 -15q51 0 74.5 25.5t36.5 91.5
h175q-27 -143 -99.5 -205.5t-204.5 -62.5z" />
    <glyph glyph-name="D" unicode="D" horiz-adv-x="640" 
d="M19 0l120 680h258q233 0 233 -193q0 -35 -8 -81l-25 -142q-25 -139 -98 -201.5t-212 -62.5h-268zM228 144h55q64 0 91 28t40 102l23 130q6 34 6 56q0 42 -21 59t-70 17h-54z" />
    <glyph glyph-name="E" unicode="E" horiz-adv-x="590" 
d="M19 0l120 680h477l-27 -149h-292l-20 -114h242l-25 -144h-243l-22 -124h303l-26 -149h-487z" />
    <glyph glyph-name="F" unicode="F" horiz-adv-x="558" 
d="M19 0l120 680h470l-27 -149h-285l-22 -121h236l-26 -149h-236l-46 -261h-184z" />
    <glyph glyph-name="G" unicode="G" horiz-adv-x="636" 
d="M284 -12q-246 0 -246 202q0 38 8 84l27 153q25 138 100 201.5t209 63.5q119 0 181 -48.5t62 -142.5q0 -19 -3 -42h-174q1 8 1 16q0 36 -18 51t-58 15q-52 0 -78 -27.5t-40 -105.5l-24 -136q-6 -34 -6 -60q0 -40 18 -56.5t60 -16.5q50 0 75.5 24.5t38.5 86.5h-94l24 135
h268l-23 -130q-25 -140 -99 -203.5t-209 -63.5z" />
    <glyph glyph-name="H" unicode="H" horiz-adv-x="678" 
d="M19 0l120 680h184l-46 -259h180l46 259h184l-120 -680h-184l47 269h-180l-47 -269h-184z" />
    <glyph glyph-name="I" unicode="I" horiz-adv-x="314" 
d="M19 0l120 680h184l-120 -680h-184z" />
    <glyph glyph-name="J" unicode="J" horiz-adv-x="557" 
d="M222 -12q-114 0 -166.5 44t-52.5 135q0 31 7 70l3 17h175l-4 -23q-4 -23 -4 -38q0 -29 12 -41.5t40 -12.5q35 0 53.5 21.5t27.5 72.5l79 447h184l-81 -459q-22 -123 -85.5 -178t-187.5 -55z" />
    <glyph glyph-name="K" unicode="K" horiz-adv-x="628" 
d="M19 0l120 680h184l-45 -255l227 255h212l-262 -284l140 -396h-196l-87 261l-79 -90l-30 -171h-184z" />
    <glyph glyph-name="L" unicode="L" horiz-adv-x="518" 
d="M19 0l120 680h184l-93 -528h263l-27 -152h-447z" />
    <glyph glyph-name="M" unicode="M" horiz-adv-x="895" 
d="M19 0l120 680h255l48 -398l188 398h274l-120 -680h-184l85 480l-231 -480h-119l-63 489l-86 -489h-167z" />
    <glyph glyph-name="N" unicode="N" horiz-adv-x="672" 
d="M19 0l120 680h178l129 -385l68 385h167l-120 -680h-167l-136 406l-72 -406h-167z" />
    <glyph glyph-name="O" unicode="O" horiz-adv-x="652" 
d="M287 -12q-129 0 -188.5 50t-59.5 154q0 42 7 81l26 148q25 143 101.5 207t218.5 64q129 0 188.5 -50t59.5 -154q0 -42 -7 -81l-26 -148q-25 -143 -101.5 -207t-218.5 -64zM306 139q54 0 79.5 29.5t38.5 103.5l24 136q6 34 6 58q0 40 -18.5 57.5t-62.5 17.5
q-54 0 -79.5 -29.5t-38.5 -103.5l-24 -136q-6 -35 -6 -58q0 -40 18.5 -57.5t62.5 -17.5z" />
    <glyph glyph-name="P" unicode="P" horiz-adv-x="617" 
d="M19 0l120 680h271q122 0 173 -43t51 -146q0 -132 -74.5 -200.5t-220.5 -68.5h-97l-39 -222h-184zM268 366h74q51 0 79 27.5t28 77.5q0 36 -17 50.5t-60 14.5h-74z" />
    <glyph glyph-name="Q" unicode="Q" horiz-adv-x="652" 
d="M392 692q129 0 188.5 -50t59.5 -154q0 -42 -7 -81l-26 -148q-18 -103 -63 -165l61 -72l-139 -115l-76 91q-43 -10 -103 -10q-129 0 -188.5 50t-59.5 154q0 42 7 81l26 148q25 143 101.5 207t218.5 64zM225 214q0 -40 18.5 -57.5t62.5 -17.5q54 0 79.5 29.5t38.5 103.5
l24 136q6 34 6 58q0 40 -18.5 57.5t-62.5 17.5q-54 0 -79.5 -29.5t-38.5 -103.5l-24 -136q-6 -35 -6 -58z" />
    <glyph glyph-name="R" unicode="R" horiz-adv-x="633" 
d="M19 0l120 680h280q117 0 165.5 -42t48.5 -142q0 -191 -156 -242l94 -254h-197l-72 237h-57l-42 -237h-184zM270 381h81q47 0 72 25t25 72q0 32 -15 45t-55 13h-80z" />
    <glyph glyph-name="S" unicode="S" horiz-adv-x="572" 
d="M246 -12q-121 0 -177 41t-56 126q0 22 5 57h180q-3 -18 -3 -32q0 -30 16 -42.5t50 -12.5q87 0 87 78q0 24 -23.5 39.5t-81.5 29.5q-92 23 -133 61.5t-41 103.5q0 124 75 189.5t209 65.5q223 0 223 -165q0 -20 -5 -52h-179q3 17 3 30q0 50 -55 50q-38 0 -60 -21t-22 -53
q0 -25 23 -40t82 -29q92 -23 133 -61.5t41 -104.5q0 -258 -291 -258z" />
    <glyph glyph-name="T" unicode="T" horiz-adv-x="538" 
d="M131 0l93 528h-171l27 152h526l-27 -152h-171l-93 -528h-184z" />
    <glyph glyph-name="U" unicode="U" horiz-adv-x="629" 
d="M277 -12q-121 0 -177 43.5t-56 135.5q0 32 7 71l78 442h184l-78 -442q-4 -23 -4 -41q0 -31 15.5 -44.5t50.5 -13.5q44 0 66 22t32 77l78 442h175l-80 -453q-22 -128 -90.5 -183.5t-200.5 -55.5z" />
    <glyph glyph-name="V" unicode="V" horiz-adv-x="600" 
d="M157 0l-83 680h189l35 -442l191 442h185l-323 -680h-194z" />
    <glyph glyph-name="W" unicode="W" horiz-adv-x="891" 
d="M114 0l-37 680h186l7 -430l177 430h149l25 -430l159 430h182l-277 -680h-189l-23 402l-165 -402h-194z" />
    <glyph glyph-name="X" unicode="X" horiz-adv-x="592" 
d="M-50 0l252 360l-122 320h199l64 -187l121 187h204l-244 -348l126 -332h-199l-67 200l-130 -200h-204z" />
    <glyph glyph-name="Y" unicode="Y" horiz-adv-x="549" 
d="M135 0l51 287l-140 393h199l64 -212l138 212h204l-284 -403l-49 -277h-183z" />
    <glyph glyph-name="Z" unicode="Z" horiz-adv-x="564" 
d="M-22 0l24 135l347 396h-260l26 149h490l-24 -134l-348 -397h287l-26 -149h-516z" />
    <glyph glyph-name="bracketleft" unicode="[" horiz-adv-x="341" 
d="M-3 -118l149 848h267l-20 -118h-108l-107 -612h107l-21 -118h-267z" />
    <glyph glyph-name="backslash" unicode="\" horiz-adv-x="479" 
d="M263 -140l-180 870h144l180 -870h-144z" />
    <glyph glyph-name="bracketright" unicode="]" horiz-adv-x="341" 
d="M-57 -118l20 118h108l107 612h-107l21 118h267l-149 -848h-267z" />
    <glyph glyph-name="asciicircum" unicode="^" horiz-adv-x="594" 
d="M35 333l264 347h140l140 -347h-153l-76 197l-147 -197h-168z" />
    <glyph glyph-name="underscore" unicode="_" horiz-adv-x="500" 
d="M-72 -144l19 106h500l-19 -106h-500z" />
    <glyph glyph-name="grave" unicode="`" horiz-adv-x="500" 
d="M271 588l-125 142h178l89 -142h-142z" />
    <glyph glyph-name="a" unicode="a" horiz-adv-x="534" 
d="M147 -12q-145 0 -145 142q0 95 62.5 143t175.5 48h79l3 16q4 23 4 32q0 38 -41 38q-46 0 -61 -51h-172q22 96 81.5 138.5t169.5 42.5q106 0 155 -37t49 -117q0 -27 -5 -53l-58 -330h-154l5 53q-57 -65 -148 -65zM221 118q39 0 69 40l13 69h-40q-85 0 -85 -64
q0 -45 43 -45z" />
    <glyph glyph-name="b" unicode="b" horiz-adv-x="573" 
d="M315 -12q-97 0 -140 73l-15 -61h-154l129 730h181l-40 -227q47 34 113 34q79 0 121 -42t42 -118q0 -24 -6 -57l-22 -125q-37 -207 -209 -207zM279 125q52 0 65 74l22 124q3 18 3 31q0 46 -42 46q-49 0 -80 -59l-28 -157q10 -59 60 -59z" />
    <glyph glyph-name="c" unicode="c" horiz-adv-x="526" 
d="M234 -12q-211 0 -211 173q0 29 5 58l18 102q19 110 83.5 163t178.5 53q209 0 209 -166q0 -23 -5 -56h-173q4 30 4 39q0 25 -11 35.5t-35 10.5q-30 0 -46.5 -19t-24.5 -66l-18 -102q-4 -23 -4 -38q0 -27 11 -38.5t35 -11.5q31 0 46.5 19t24.5 66h173q-21 -117 -84 -169.5
t-176 -52.5z" />
    <glyph glyph-name="d" unicode="d" horiz-adv-x="574" 
d="M184 -12q-79 0 -121 42t-42 118q0 24 6 57l22 125q37 207 209 207q80 0 122 -48l43 241h181l-129 -730h-154l4 46q-58 -58 -141 -58zM246 125q49 0 80 59l28 157q-10 59 -60 59q-52 0 -65 -74l-22 -124q-3 -18 -3 -31q0 -46 42 -46z" />
    <glyph glyph-name="e" unicode="e" horiz-adv-x="551" 
d="M246 -12q-223 0 -223 173q0 31 5 58l18 102q38 216 268 216q107 0 161.5 -44.5t54.5 -128.5q0 -30 -5 -57l-16 -91h-301l-2 -14q-3 -18 -3 -34q0 -51 53 -51q55 0 69 50h173q-20 -93 -82 -136t-170 -43zM227 318h129l1 6q4 22 4 35q0 49 -54 49q-35 0 -53.5 -20.5
t-25.5 -63.5z" />
    <glyph glyph-name="f" unicode="f" horiz-adv-x="370" 
d="M34 0l70 396h-72l22 129h73l6 36q16 89 59 129t123 40h134l-23 -132h-61q-24 0 -36.5 -11t-16.5 -38l-4 -24h101l-22 -129h-102l-70 -396h-181z" />
    <glyph glyph-name="g" unicode="g" horiz-adv-x="573" 
d="M209 -194q-104 0 -159.5 38.5t-55.5 113.5q0 13 2 29h171v-8q0 -44 50 -44q36 0 54.5 20.5t26.5 67.5l7 42q-48 -35 -114 -35q-79 0 -121 42t-42 118q0 24 6 57l15 83q38 207 209 207q97 0 140 -73l15 61h154l-90 -510q-19 -106 -84 -157.5t-184 -51.5zM253 167
q50 0 81 60l20 114q-10 59 -60 59q-27 0 -42 -17.5t-23 -56.5l-15 -82q-3 -18 -3 -31q0 -46 42 -46z" />
    <glyph glyph-name="h" unicode="h" horiz-adv-x="566" 
d="M6 0l129 730h181l-40 -228q50 35 115 35q73 0 109.5 -36.5t36.5 -103.5q0 -30 -5 -57l-60 -340h-181l58 329q2 10 2 25q0 34 -33 34q-43 0 -71 -50l-60 -338h-181z" />
    <glyph glyph-name="i" unicode="i" horiz-adv-x="286" 
d="M107 588l25 142h185l-25 -142h-185zM6 0l93 525h181l-93 -525h-181z" />
    <glyph glyph-name="j" unicode="j" horiz-adv-x="286" 
d="M107 588l25 142h185l-25 -142h-185zM-84 -182l23 134h22q21 0 30 9t14 33l94 531h181l-98 -553q-15 -85 -52.5 -119.5t-114.5 -34.5h-99z" />
    <glyph glyph-name="k" unicode="k" horiz-adv-x="562" 
d="M6 0l129 730h181l-67 -380l166 175h209l-218 -220l124 -305h-198l-67 188l-55 -60l-23 -128h-181z" />
    <glyph glyph-name="l" unicode="l" horiz-adv-x="286" 
d="M6 0l129 730h181l-129 -730h-181z" />
    <glyph glyph-name="m" unicode="m" horiz-adv-x="857" 
d="M6 0l93 525h154l-5 -48q60 60 145 60q99 0 132 -65q65 65 153 65q73 0 112 -34.5t39 -101.5q0 -26 -4 -50l-62 -351h-181l59 334q2 10 2 21q0 33 -36 33q-39 0 -72 -51l-60 -337h-181l59 334q1 6 1 15q0 39 -35 39q-38 0 -73 -50l-59 -338h-181z" />
    <glyph glyph-name="n" unicode="n" horiz-adv-x="566" 
d="M6 0l93 525h154l-5 -46q61 58 143 58q73 0 109.5 -36.5t36.5 -103.5q0 -30 -5 -57l-60 -340h-181l58 329q2 10 2 25q0 34 -33 34q-43 0 -71 -50l-60 -338h-181z" />
    <glyph glyph-name="o" unicode="o" horiz-adv-x="562" 
d="M242 -12q-219 0 -219 173q0 31 5 57l18 103q19 111 86 163.5t188 52.5q219 0 219 -173q0 -31 -5 -57l-18 -103q-19 -111 -86 -163.5t-188 -52.5zM257 125q34 0 52.5 20t27.5 70l17 96q4 28 4 37q0 52 -53 52q-34 0 -52.5 -20t-27.5 -70l-17 -96q-4 -28 -4 -37
q0 -52 53 -52z" />
    <glyph glyph-name="p" unicode="p" horiz-adv-x="573" 
d="M-26 -182l125 707h154l-4 -45q57 57 140 57q79 0 121 -42t42 -118q0 -24 -6 -57l-22 -125q-37 -207 -209 -207q-80 0 -122 48l-38 -218h-181zM279 125q52 0 65 74l22 124q3 18 3 31q0 46 -42 46q-49 0 -80 -59l-28 -158q10 -58 60 -58z" />
    <glyph glyph-name="q" unicode="q" horiz-adv-x="573" 
d="M262 -182l36 205q-48 -35 -114 -35q-79 0 -121 42t-42 118q0 24 6 57l22 125q37 207 209 207q97 0 140 -73l15 61h154l-125 -707h-180zM246 125q49 0 80 59l28 157q-10 59 -60 59q-52 0 -65 -74l-22 -124q-3 -18 -3 -31q0 -46 42 -46z" />
    <glyph glyph-name="r" unicode="r" horiz-adv-x="387" 
d="M6 0l93 525h154l-8 -79q22 47 54.5 68t81.5 21h46l-29 -162h-29q-53 0 -83.5 -19t-47.5 -62l-51 -292h-181z" />
    <glyph glyph-name="s" unicode="s" horiz-adv-x="512" 
d="M216 -12q-211 0 -211 143q0 18 3 39h172q-2 -12 -2 -22q0 -42 51 -42q61 0 61 44q0 21 -20 33t-69 21q-81 15 -117 48t-36 94q0 92 67 141.5t182 49.5q100 0 150.5 -37.5t50.5 -104.5q0 -17 -3 -33h-172q2 12 2 21q0 36 -39 36q-27 0 -41.5 -13.5t-14.5 -34.5
q0 -19 19 -30t67 -20q83 -16 119 -49t36 -95q0 -96 -67 -142.5t-188 -46.5z" />
    <glyph glyph-name="t" unicode="t" horiz-adv-x="375" 
d="M193 0q-70 0 -103.5 30t-33.5 93q0 27 5 56l38 217h-67l22 129h72l31 127h169l-23 -127h98l-22 -129h-98l-38 -211q-2 -10 -2 -21q0 -30 38 -30h57l-23 -134h-120z" />
    <glyph glyph-name="u" unicode="u" horiz-adv-x="570" 
d="M178 -12q-73 0 -111 36t-38 103q0 29 4 52l61 346h181l-58 -329q-2 -11 -2 -24q0 -35 35 -35q43 0 74 52l59 336h181l-93 -525h-153l5 48q-60 -60 -145 -60z" />
    <glyph glyph-name="v" unicode="v" horiz-adv-x="516" 
d="M110 0l-67 525h186l17 -334l133 334h186l-251 -525h-204z" />
    <glyph glyph-name="w" unicode="w" horiz-adv-x="812" 
d="M93 0l-46 525h183l6 -325l140 325h151l27 -325l119 325h184l-230 -525h-195l-23 278l-121 -278h-195z" />
    <glyph glyph-name="x" unicode="x" horiz-adv-x="517" 
d="M-62 0l210 278l-108 247h196l53 -136l91 136h197l-202 -268l112 -257h-196l-58 147l-98 -147h-197z" />
    <glyph glyph-name="y" unicode="y" horiz-adv-x="512" 
d="M-16 -182l23 134h70q19 0 27.5 5.5t17.5 24.5l9 18l-88 525h188l24 -297l120 297h186l-270 -567q-42 -87 -81.5 -113.5t-126.5 -26.5h-99z" />
    <glyph glyph-name="z" unicode="z" horiz-adv-x="476" 
d="M-28 0l20 118l254 274h-184l23 133h414l-20 -118l-254 -274h210l-23 -133h-440z" />
    <glyph glyph-name="braceleft" unicode="{" horiz-adv-x="341" 
d="M180 -118q-74 0 -109.5 31.5t-35.5 98.5q0 28 6 64l18 102q3 15 3 25q0 25 -13 34.5t-40 9.5l21 118q36 0 52 16.5t23 56.5l19 109q18 102 63 142.5t132 40.5h94l-20 -118h-44q-33 0 -46.5 -15.5t-21.5 -62.5l-17 -95q-11 -63 -37 -94.5t-75 -39.5v-2q67 -17 67 -99
q0 -22 -4 -43l-14 -80q-5 -28 -5 -44q0 -20 10 -28.5t35 -8.5h44l-21 -118h-84z" />
    <glyph glyph-name="bar" unicode="|" horiz-adv-x="290" 
d="M-11 -226l176 1000h140l-176 -1000h-140z" />
    <glyph glyph-name="braceright" unicode="}" horiz-adv-x="341" 
d="M-57 -118l20 118h44q33 0 46.5 15.5t21.5 62.5l17 95q11 63 37 94.5t75 39.5v2q-67 17 -67 99q0 22 4 43l14 80q5 28 5 44q0 20 -10 28.5t-35 8.5h-44l21 118h84q74 0 109.5 -31.5t35.5 -98.5q0 -28 -6 -64l-18 -102q-3 -15 -3 -25q0 -25 13 -34.5t40 -9.5l-21 -118
q-36 0 -52 -16.5t-23 -56.5l-19 -109q-18 -102 -63 -142.5t-132 -40.5h-94z" />
    <glyph glyph-name="asciitilde" unicode="~" horiz-adv-x="594" 
d="M393 200q-71 0 -130 51q-35 30 -60 30q-47 0 -61 -67h-117q36 203 193 203q70 0 129 -51q35 -30 60 -30q47 0 61 67h117q-36 -203 -192 -203z" />
    <glyph glyph-name="uni00A0" unicode="&#xa0;" horiz-adv-x="226" 
 />
    <glyph glyph-name="exclamdown" unicode="&#xa1;" horiz-adv-x="322" 
d="M87 362l28 163h184l-28 -163h-184zM-8 -155l39 202l69 242h132l-19 -242l-31 -202h-190z" />
    <glyph glyph-name="cent" unicode="&#xa2;" horiz-adv-x="594" 
d="M184 -72l14 78q-147 26 -147 158q0 27 5 55l17 97q32 186 216 206l13 75h127l-14 -78q139 -26 139 -157q0 -22 -5 -52h-174q3 18 3 32q0 25 -12 36t-39 11q-34 0 -50 -18t-24 -62l-17 -96q-3 -18 -3 -31q0 -25 12 -35.5t39 -10.5q33 0 49.5 17.5t25.5 61.5h174
q-18 -100 -68.5 -150.5t-140.5 -61.5l-13 -75h-127z" />
    <glyph glyph-name="sterling" unicode="&#xa3;" horiz-adv-x="594" 
d="M18 0l23 134q75 31 99 119h-99l24 132h71q-13 46 -13 78q0 110 72 169.5t195 59.5q205 0 205 -161q0 -32 -5 -58h-167q3 15 3 26q0 50 -54 50q-78 0 -78 -116q0 -21 3 -48h216l-24 -132h-195q-15 -70 -63 -109h294l-25 -144h-482z" />
    <glyph glyph-name="currency" unicode="&#xa4;" horiz-adv-x="594" 
d="M122 68l-87 87l102 102q-19 40 -19 83t19 83l-102 102l87 87l103 -103q41 18 85 18t85 -18l103 103l87 -87l-102 -102q19 -40 19 -83t-19 -83l102 -102l-87 -87l-103 103q-41 -18 -85 -18t-85 18zM310 275q28 0 46 18t18 47t-18 47t-46 18t-46 -18t-18 -47t18 -47t46 -18
z" />
    <glyph glyph-name="yen" unicode="&#xa5;" horiz-adv-x="594" 
d="M161 0l18 104h-139l15 85h139l9 50h-139l15 85h130l-135 356h196l61 -205l133 205h208l-261 -356h127l-15 -85h-139l-9 -50h139l-15 -85h-139l-18 -104h-181z" />
    <glyph glyph-name="brokenbar" unicode="&#xa6;" horiz-adv-x="290" 
d="M95 374l70 400h140l-70 -400h-140zM-11 -226l70 400h140l-70 -400h-140z" />
    <glyph glyph-name="section" unicode="&#xa7;" horiz-adv-x="618" 
d="M234 -196q-231 0 -231 153q0 13 4 43h173q-2 -14 -2 -21q0 -53 69 -53q38 0 60.5 14t22.5 42q0 25 -22.5 40t-90.5 34q-101 29 -140 64.5t-39 97.5q0 107 109 160v2q-44 37 -44 109q0 98 72 150.5t195 52.5q106 0 163 -39.5t57 -112.5q0 -17 -3 -35h-172q2 14 2 20
q0 47 -57 47q-34 0 -55 -17.5t-21 -42.5q0 -24 22.5 -38.5t88.5 -32.5q101 -28 140.5 -63.5t39.5 -98.5q0 -106 -109 -160v-2q45 -37 45 -111q0 -100 -73 -151t-204 -51zM348 173q48 28 48 71q0 26 -23 41.5t-90 33.5l-22 6q-44 -27 -44 -73q0 -26 23 -40.5t91 -33.5z" />
    <glyph glyph-name="dieresis" unicode="&#xa8;" horiz-adv-x="500" 
d="M119 588l25 142h155l-25 -142h-155zM340 588l25 142h155l-25 -142h-155z" />
    <glyph glyph-name="copyright" unicode="&#xa9;" horiz-adv-x="756" 
d="M391 -12q-151 0 -251.5 100t-100.5 252t100.5 252t251.5 100t251.5 -100t100.5 -252t-100.5 -252t-251.5 -100zM391 79q112 0 180.5 72t68.5 189t-68.5 189t-180.5 72t-180.5 -72t-68.5 -189t68.5 -189t180.5 -72zM392 153q-76 0 -111 35.5t-35 113.5v76q0 78 35 113.5
t111 35.5t111 -35.5t36 -111.5h-101q-1 33 -11 46.5t-32 13.5q-23 0 -32.5 -14.5t-9.5 -50.5v-70q0 -36 9.5 -50.5t32.5 -14.5q22 0 32 13.5t11 46.5h101q-1 -77 -36 -112t-111 -35z" />
    <glyph glyph-name="ordfeminine" unicode="&#xaa;" horiz-adv-x="416" 
d="M158 304q-115 0 -115 106q0 62 43 95.5t124 33.5h78l2 13q1 4 1 11q0 32 -35 32q-39 0 -48 -33h-128q14 67 58.5 98.5t126.5 31.5q160 0 160 -115q0 -17 -3 -35l-40 -226h-115l3 32q-43 -44 -112 -44zM209 401q35 0 59 27l8 43h-43q-61 0 -61 -41q0 -29 37 -29zM5 140
l19 105h346l-19 -105h-346z" />
    <glyph glyph-name="guillemotleft" unicode="&#xab;" horiz-adv-x="567" 
d="M114 82l-102 187l158 175h175l-171 -190l93 -172h-153zM368 82l-102 187l158 175h175l-171 -190l93 -172h-153z" />
    <glyph glyph-name="logicalnot" unicode="&#xac;" horiz-adv-x="594" 
d="M380 124l33 187h-354l24 136h494l-57 -323h-140z" />
    <glyph glyph-name="uni00AD" unicode="&#xad;" horiz-adv-x="390" 
d="M26 223l27 152h324l-27 -152h-324z" />
    <glyph glyph-name="registered" unicode="&#xae;" horiz-adv-x="756" 
d="M391 -12q-151 0 -251.5 100t-100.5 252t100.5 252t251.5 100t251.5 -100t100.5 -252t-100.5 -252t-251.5 -100zM391 79q112 0 180.5 72t68.5 189t-68.5 189t-180.5 72t-180.5 -72t-68.5 -189t68.5 -189t180.5 -72zM245 163v354h161q73 0 107 -28t34 -90q0 -80 -61 -105
l82 -131h-121l-64 119h-31v-119h-107zM352 361h42q46 0 46 35q0 37 -46 37h-42v-72z" />
    <glyph glyph-name="macron" unicode="&#xaf;" horiz-adv-x="500" 
d="M152 602l20 114h316l-20 -114h-316z" />
    <glyph glyph-name="degree" unicode="&#xb0;" horiz-adv-x="426" 
d="M244 350q-76 0 -123.5 45t-47.5 119q0 84 58.5 142t145.5 58q76 0 123.5 -45t47.5 -119q0 -84 -58.5 -142t-145.5 -58zM250 462q32 0 53.5 25t21.5 59q0 27 -15 41.5t-39 14.5q-32 0 -53.5 -25t-21.5 -59q0 -27 15 -41.5t39 -14.5z" />
    <glyph glyph-name="plusminus" unicode="&#xb1;" horiz-adv-x="594" 
d="M212 180l23 130h-177l24 136h177l27 149h140l-27 -149h177l-24 -136h-177l-23 -130h-140zM4 0l24 136h494l-24 -136h-494z" />
    <glyph glyph-name="uni00B2" unicode="&#xb2;" 
d="M50 416l10 57q10 57 45.5 95t103.5 64q43 16 61.5 32t18.5 36q0 26 -29 26q-35 0 -42 -42l-2 -11h-114l4 23q22 126 163 126q142 0 142 -113q0 -115 -162 -170q-44 -15 -55 -26h184l-17 -97h-311z" />
    <glyph glyph-name="uni00B3" unicode="&#xb3;" 
d="M217 404q-71 0 -108.5 26t-37.5 71q0 12 2 24l3 17h117l-1 -6q-1 -6 -1 -10q0 -28 31 -28q23 0 34.5 12t11.5 31q0 30 -43 30h-36l15 83h31q27 0 40.5 13t13.5 34q0 27 -27 27q-32 0 -38 -35l-1 -6h-116l3 17q11 60 49 89t112 29q140 0 140 -106q0 -75 -68 -98v-2
q45 -20 45 -81q0 -63 -45 -97t-126 -34z" />
    <glyph glyph-name="acute" unicode="&#xb4;" horiz-adv-x="500" 
d="M193 588l139 142h194l-175 -142h-158z" />
    <glyph glyph-name="uni00B5" unicode="&#xb5;" horiz-adv-x="574" 
d="M-26 -182l125 707h181l-59 -331q-2 -16 -2 -20q0 -37 34 -37q44 0 75 52l59 336h181l-93 -525h-153l5 48q-60 -60 -139 -60h-3l-30 -170h-181z" />
    <glyph glyph-name="paragraph" unicode="&#xb6;" horiz-adv-x="618" 
d="M121 -183l78 441q-77 8 -111.5 48.5t-34.5 120.5q0 125 65 189t192 64h311l-152 -863h-134l130 738h-78l-131 -738h-135z" />
    <glyph glyph-name="periodcentered" unicode="&#xb7;" horiz-adv-x="299" 
d="M47 207l33 185h186l-33 -185h-186z" />
    <glyph glyph-name="cedilla" unicode="&#xb8;" horiz-adv-x="500" 
d="M152 -214q-67 0 -128 24l34 61q34 -17 63 -17q45 0 45 26q0 11 -11.5 15.5t-41.5 4.5h-13l65 115h75l-37 -67q100 -1 100 -74q0 -88 -151 -88z" />
    <glyph glyph-name="uni00B9" unicode="&#xb9;" 
d="M80 416l16 94h93l29 163h-105l15 86q46 0 74 11.5t47 39.5h115l-53 -300h91l-16 -94h-306z" />
    <glyph glyph-name="ordmasculine" unicode="&#xba;" horiz-adv-x="410" 
d="M224 304q-161 0 -161 127q0 21 4 41l11 62q15 84 60.5 121t130.5 37q161 0 161 -127q0 -21 -4 -41l-11 -62q-15 -84 -60.5 -121t-130.5 -37zM231 406q22 0 33.5 13t17.5 46l12 68q2 9 2 24q0 17 -8 25t-26 8q-22 0 -33.5 -13t-17.5 -46l-12 -68q-2 -9 -2 -24
q0 -17 7.5 -25t26.5 -8zM10 140l19 105h346l-19 -105h-346z" />
    <glyph glyph-name="guillemotright" unicode="&#xbb;" horiz-adv-x="567" 
d="M-32 82l171 190l-93 172h153l102 -187l-158 -175h-175zM222 82l171 190l-93 172h153l102 -187l-158 -175h-175z" />
    <glyph glyph-name="onequarter" unicode="&#xbc;" horiz-adv-x="850" 
d="M163 -12l494 704h118l-494 -704h-118zM57 286l16 94h93l29 163h-105l15 86q46 0 74 11.5t47 39.5h115l-53 -300h91l-16 -94h-306zM632 0l14 78h-174l18 97l205 219h128l-40 -227h36l-16 -89h-35l-14 -78h-122zM591 167h70l17 97z" />
    <glyph glyph-name="onehalf" unicode="&#xbd;" horiz-adv-x="850" 
d="M627 692h118l-494 -704h-118l209 298h-285l16 94h93l29 163h-105l15 86q46 0 74 11.5t47 39.5h115l-53 -300h91l-9 -55zM660 123q-44 -15 -55 -26h184l-17 -97h-311l10 57q10 57 45.5 95t103.5 64q43 16 61.5 32t18.5 36q0 26 -29 26q-35 0 -42 -42l-2 -11h-114l4 23
q22 126 163 126q142 0 142 -113q0 -115 -162 -170z" />
    <glyph glyph-name="threequarters" unicode="&#xbe;" horiz-adv-x="850" 
d="M194 274q-71 0 -108.5 26t-37.5 71q0 12 2 24l3 17h117l-1 -6q-1 -6 -1 -10q0 -28 31 -28q23 0 34.5 12t11.5 31q0 30 -43 30h-36l15 83h31q27 0 40.5 13t13.5 34q0 27 -27 27q-32 0 -38 -35l-1 -6h-116l3 17q11 60 49 89t112 29q140 0 140 -106q0 -75 -68 -98v-2
q45 -20 45 -81q0 -63 -45 -97t-126 -34zM163 -12l494 704h118l-494 -704h-118zM632 0l14 78h-174l18 97l205 219h128l-40 -227h36l-16 -89h-35l-14 -78h-122zM591 167h70l17 97z" />
    <glyph glyph-name="questiondown" unicode="&#xbf;" horiz-adv-x="484" 
d="M190 362l28 163h183l-28 -163h-183zM183 -167q-101 0 -155 40t-54 114q0 70 30 116t100 85q41 22 59.5 42.5t23.5 47.5l2 11h159l-4 -23q-10 -56 -36 -92.5t-81 -69.5q-40 -24 -56 -44.5t-16 -49.5q0 -34 41 -34q58 0 71 79h169q-20 -115 -81 -168.5t-172 -53.5z" />
    <glyph glyph-name="Agrave" unicode="&#xc0;" horiz-adv-x="625" 
d="M361 739l-125 142h178l89 -142h-142zM-46 0l334 680h197l94 -680h-190l-11 121h-182l-55 -121h-187zM257 263h110l-16 221z" />
    <glyph glyph-name="Aacute" unicode="&#xc1;" horiz-adv-x="625" 
d="M283 739l139 142h194l-175 -142h-158zM-46 0l334 680h197l94 -680h-190l-11 121h-182l-55 -121h-187zM257 263h110l-16 221z" />
    <glyph glyph-name="Acircumflex" unicode="&#xc2;" horiz-adv-x="625" 
d="M190 739l153 142h154l103 -142h-142l-46 51l-64 -51h-158zM-46 0l334 680h197l94 -680h-190l-11 121h-182l-55 -121h-187zM257 263h110l-16 221z" />
    <glyph glyph-name="Atilde" unicode="&#xc3;" horiz-adv-x="625" 
d="M470 728q-41 0 -86 28q-23 15 -37 15q-24 0 -35 -37h-93q30 153 130 153q41 0 86 -28q23 -15 37 -15q24 0 35 37h93q-30 -153 -130 -153zM-46 0l334 680h197l94 -680h-190l-11 121h-182l-55 -121h-187zM257 263h110l-16 221z" />
    <glyph glyph-name="Adieresis" unicode="&#xc4;" horiz-adv-x="625" 
d="M209 739l25 142h155l-25 -142h-155zM430 739l25 142h155l-25 -142h-155zM-46 0l334 680h197l94 -680h-190l-11 121h-182l-55 -121h-187zM257 263h110l-16 221z" />
    <glyph glyph-name="Aring" unicode="&#xc5;" horiz-adv-x="625" 
d="M401 718q-54 0 -88 32.5t-34 84.5q0 56 39.5 92.5t99.5 36.5q54 0 88 -32.5t34 -84.5q0 -56 -39.5 -92.5t-99.5 -36.5zM405 798q20 0 31.5 14t11.5 37q0 35 -34 35q-20 0 -31.5 -14t-11.5 -37q0 -35 34 -35zM-46 0l334 680h197l94 -680h-190l-11 121h-182l-55 -121h-187z
M257 263h110l-16 221z" />
    <glyph glyph-name="AE" unicode="&#xc6;" horiz-adv-x="916" 
d="M-74 0l485 680h531l-27 -149h-267l-21 -117h218l-26 -144h-217l-22 -121h278l-26 -149h-462l21 121h-178l-86 -121h-201zM306 263h110l44 246z" />
    <glyph glyph-name="Ccedilla" unicode="&#xc7;" horiz-adv-x="605" 
d="M610 423h-174q5 32 5 50q0 37 -17.5 52.5t-56.5 15.5q-51 0 -74.5 -28t-37.5 -105l-24 -136q-7 -39 -7 -65q0 -38 16 -53t55 -15q51 0 74.5 25.5t36.5 91.5h175q-26 -137 -93 -199.5t-187 -67.5l-22 -41q100 -1 100 -74q0 -88 -151 -88q-67 0 -128 24l34 61
q34 -17 63 -17q45 0 45 26q0 11 -11.5 15.5t-41.5 4.5h-13l51 90q-96 10 -142 59.5t-46 142.5q0 42 7 81l26 148q25 141 98 206t211 65q120 0 177.5 -48.5t57.5 -148.5q0 -33 -6 -72z" />
    <glyph glyph-name="Egrave" unicode="&#xc8;" horiz-adv-x="590" 
d="M352 739l-125 142h178l89 -142h-142zM19 0l120 680h477l-27 -149h-292l-20 -114h242l-25 -144h-243l-22 -124h303l-26 -149h-487z" />
    <glyph glyph-name="Eacute" unicode="&#xc9;" horiz-adv-x="590" 
d="M274 739l139 142h194l-175 -142h-158zM19 0l120 680h477l-27 -149h-292l-20 -114h242l-25 -144h-243l-22 -124h303l-26 -149h-487z" />
    <glyph glyph-name="Ecircumflex" unicode="&#xca;" horiz-adv-x="590" 
d="M181 739l153 142h154l103 -142h-142l-46 51l-64 -51h-158zM19 0l120 680h477l-27 -149h-292l-20 -114h242l-25 -144h-243l-22 -124h303l-26 -149h-487z" />
    <glyph glyph-name="Edieresis" unicode="&#xcb;" horiz-adv-x="590" 
d="M200 739l25 142h155l-25 -142h-155zM421 739l25 142h155l-25 -142h-155zM19 0l120 680h477l-27 -149h-292l-20 -114h242l-25 -144h-243l-22 -124h303l-26 -149h-487z" />
    <glyph glyph-name="Igrave" unicode="&#xcc;" horiz-adv-x="314" 
d="M205 739l-125 142h178l89 -142h-142zM19 0l120 680h184l-120 -680h-184z" />
    <glyph glyph-name="Iacute" unicode="&#xcd;" horiz-adv-x="314" 
d="M127 739l139 142h194l-175 -142h-158zM19 0l120 680h184l-120 -680h-184z" />
    <glyph glyph-name="Icircumflex" unicode="&#xce;" horiz-adv-x="314" 
d="M44 739l140 142h160l90 -142h-136l-41 54l-61 -54h-152zM19 0l120 680h184l-120 -680h-184z" />
    <glyph glyph-name="Idieresis" unicode="&#xcf;" horiz-adv-x="314" 
d="M63 739l25 142h150l-25 -142h-150zM268 739l25 142h150l-25 -142h-150zM19 0l120 680h184l-120 -680h-184z" />
    <glyph glyph-name="Eth" unicode="&#xd0;" horiz-adv-x="650" 
d="M407 680q233 0 233 -193q0 -35 -8 -81l-25 -142q-25 -139 -98 -201.5t-212 -62.5h-268l48 273h-56l25 144h57l46 263h258zM447 404q6 34 6 56q0 42 -21 59t-70 17h-54l-21 -119h89l-25 -144h-90l-23 -129h55q64 0 91 28t40 102z" />
    <glyph glyph-name="Ntilde" unicode="&#xd1;" horiz-adv-x="672" 
d="M493 728q-41 0 -86 28q-23 15 -37 15q-24 0 -35 -37h-93q30 153 130 153q41 0 86 -28q23 -15 37 -15q24 0 35 37h93q-30 -153 -130 -153zM19 0l120 680h178l129 -385l68 385h167l-120 -680h-167l-136 406l-72 -406h-167z" />
    <glyph glyph-name="Ograve" unicode="&#xd2;" horiz-adv-x="652" 
d="M374 739l-125 142h178l89 -142h-142zM287 -12q-129 0 -188.5 50t-59.5 154q0 42 7 81l26 148q25 143 101.5 207t218.5 64q129 0 188.5 -50t59.5 -154q0 -42 -7 -81l-26 -148q-25 -143 -101.5 -207t-218.5 -64zM306 139q54 0 79.5 29.5t38.5 103.5l24 136q6 34 6 58
q0 40 -18.5 57.5t-62.5 17.5q-54 0 -79.5 -29.5t-38.5 -103.5l-24 -136q-6 -35 -6 -58q0 -40 18.5 -57.5t62.5 -17.5z" />
    <glyph glyph-name="Oacute" unicode="&#xd3;" horiz-adv-x="652" 
d="M296 739l139 142h194l-175 -142h-158zM287 -12q-129 0 -188.5 50t-59.5 154q0 42 7 81l26 148q25 143 101.5 207t218.5 64q129 0 188.5 -50t59.5 -154q0 -42 -7 -81l-26 -148q-25 -143 -101.5 -207t-218.5 -64zM306 139q54 0 79.5 29.5t38.5 103.5l24 136q6 34 6 58
q0 40 -18.5 57.5t-62.5 17.5q-54 0 -79.5 -29.5t-38.5 -103.5l-24 -136q-6 -35 -6 -58q0 -40 18.5 -57.5t62.5 -17.5z" />
    <glyph glyph-name="Ocircumflex" unicode="&#xd4;" horiz-adv-x="652" 
d="M203 739l153 142h154l103 -142h-142l-46 51l-64 -51h-158zM287 -12q-129 0 -188.5 50t-59.5 154q0 42 7 81l26 148q25 143 101.5 207t218.5 64q129 0 188.5 -50t59.5 -154q0 -42 -7 -81l-26 -148q-25 -143 -101.5 -207t-218.5 -64zM306 139q54 0 79.5 29.5t38.5 103.5
l24 136q6 34 6 58q0 40 -18.5 57.5t-62.5 17.5q-54 0 -79.5 -29.5t-38.5 -103.5l-24 -136q-6 -35 -6 -58q0 -40 18.5 -57.5t62.5 -17.5z" />
    <glyph glyph-name="Otilde" unicode="&#xd5;" horiz-adv-x="652" 
d="M483 728q-41 0 -86 28q-23 15 -37 15q-24 0 -35 -37h-93q30 153 130 153q41 0 86 -28q23 -15 37 -15q24 0 35 37h93q-30 -153 -130 -153zM287 -12q-129 0 -188.5 50t-59.5 154q0 42 7 81l26 148q25 143 101.5 207t218.5 64q129 0 188.5 -50t59.5 -154q0 -42 -7 -81
l-26 -148q-25 -143 -101.5 -207t-218.5 -64zM306 139q54 0 79.5 29.5t38.5 103.5l24 136q6 34 6 58q0 40 -18.5 57.5t-62.5 17.5q-54 0 -79.5 -29.5t-38.5 -103.5l-24 -136q-6 -35 -6 -58q0 -40 18.5 -57.5t62.5 -17.5z" />
    <glyph glyph-name="Odieresis" unicode="&#xd6;" horiz-adv-x="652" 
d="M222 739l25 142h155l-25 -142h-155zM443 739l25 142h155l-25 -142h-155zM287 -12q-129 0 -188.5 50t-59.5 154q0 42 7 81l26 148q25 143 101.5 207t218.5 64q129 0 188.5 -50t59.5 -154q0 -42 -7 -81l-26 -148q-25 -143 -101.5 -207t-218.5 -64zM306 139q54 0 79.5 29.5
t38.5 103.5l24 136q6 34 6 58q0 40 -18.5 57.5t-62.5 17.5q-54 0 -79.5 -29.5t-38.5 -103.5l-24 -136q-6 -35 -6 -58q0 -40 18.5 -57.5t62.5 -17.5z" />
    <glyph glyph-name="multiply" unicode="&#xd7;" horiz-adv-x="594" 
d="M110 53l-86 101l189 163l-132 163l103 85l130 -161l186 161l87 -101l-189 -163l132 -163l-104 -85l-130 161z" />
    <glyph glyph-name="Oslash" unicode="&#xd8;" horiz-adv-x="652" 
d="M670 625l-44 -48q14 -39 14 -89q0 -42 -7 -81l-26 -148q-25 -143 -101.5 -207t-218.5 -64q-110 0 -171 38l-35 -38l-72 67l44 48q-14 39 -14 89q0 42 7 81l26 148q25 143 101.5 207t218.5 64q111 0 172 -38l35 38zM255 408l-19 -108l203 220q-18 21 -66 21
q-54 0 -79.5 -29.5t-38.5 -103.5zM424 272l19 107l-203 -219q20 -21 66 -21q54 0 79.5 29.5t38.5 103.5z" />
    <glyph glyph-name="Ugrave" unicode="&#xd9;" horiz-adv-x="629" 
d="M363 739l-125 142h178l89 -142h-142zM277 -12q-121 0 -177 43.5t-56 135.5q0 32 7 71l78 442h184l-78 -442q-4 -23 -4 -41q0 -31 15.5 -44.5t50.5 -13.5q44 0 66 22t32 77l78 442h175l-80 -453q-22 -128 -90.5 -183.5t-200.5 -55.5z" />
    <glyph glyph-name="Uacute" unicode="&#xda;" horiz-adv-x="629" 
d="M285 739l139 142h194l-175 -142h-158zM277 -12q-121 0 -177 43.5t-56 135.5q0 32 7 71l78 442h184l-78 -442q-4 -23 -4 -41q0 -31 15.5 -44.5t50.5 -13.5q44 0 66 22t32 77l78 442h175l-80 -453q-22 -128 -90.5 -183.5t-200.5 -55.5z" />
    <glyph glyph-name="Ucircumflex" unicode="&#xdb;" horiz-adv-x="629" 
d="M192 739l153 142h154l103 -142h-142l-46 51l-64 -51h-158zM277 -12q-121 0 -177 43.5t-56 135.5q0 32 7 71l78 442h184l-78 -442q-4 -23 -4 -41q0 -31 15.5 -44.5t50.5 -13.5q44 0 66 22t32 77l78 442h175l-80 -453q-22 -128 -90.5 -183.5t-200.5 -55.5z" />
    <glyph glyph-name="Udieresis" unicode="&#xdc;" horiz-adv-x="629" 
d="M211 739l25 142h155l-25 -142h-155zM432 739l25 142h155l-25 -142h-155zM277 -12q-121 0 -177 43.5t-56 135.5q0 32 7 71l78 442h184l-78 -442q-4 -23 -4 -41q0 -31 15.5 -44.5t50.5 -13.5q44 0 66 22t32 77l78 442h175l-80 -453q-22 -128 -90.5 -183.5t-200.5 -55.5z
" />
    <glyph glyph-name="Yacute" unicode="&#xdd;" horiz-adv-x="549" 
d="M244 739l139 142h194l-175 -142h-158zM135 0l51 287l-140 393h199l64 -212l138 212h204l-284 -403l-49 -277h-183z" />
    <glyph glyph-name="Thorn" unicode="&#xde;" horiz-adv-x="617" 
d="M19 0l120 680h184l-15 -85h87q122 0 173 -43t51 -146q0 -132 -74.5 -200.5t-220.5 -68.5h-97l-24 -137h-184zM253 281h74q51 0 79 27.5t28 77.5q0 36 -17 50.5t-60 14.5h-74z" />
    <glyph glyph-name="germandbls" unicode="&#xdf;" horiz-adv-x="621" 
d="M34 0l70 396h-72l22 129h73l4 25q17 98 78.5 145t171.5 47q101 0 155 -37.5t54 -110.5q0 -79 -73 -151q-39 -38 -39 -63t42 -51t57 -51t15 -69q0 -98 -67 -153.5t-191 -55.5h-80l23 134h76q27 0 42 13t15 34q0 15 -9 26.5t-33 28.5q-36 24 -50 48t-14 60q0 71 63 138
q46 50 46 88q0 41 -40 41q-50 0 -62 -67l-96 -544h-181z" />
    <glyph glyph-name="agrave" unicode="&#xe0;" horiz-adv-x="534" 
d="M284 588l-125 142h178l89 -142h-142zM147 -12q-145 0 -145 142q0 95 62.5 143t175.5 48h79l3 16q4 23 4 32q0 38 -41 38q-46 0 -61 -51h-172q22 96 81.5 138.5t169.5 42.5q106 0 155 -37t49 -117q0 -27 -5 -53l-58 -330h-154l5 53q-57 -65 -148 -65zM221 118q39 0 69 40
l13 69h-40q-85 0 -85 -64q0 -45 43 -45z" />
    <glyph glyph-name="aacute" unicode="&#xe1;" horiz-adv-x="534" 
d="M206 588l139 142h194l-175 -142h-158zM147 -12q-145 0 -145 142q0 95 62.5 143t175.5 48h79l3 16q4 23 4 32q0 38 -41 38q-46 0 -61 -51h-172q22 96 81.5 138.5t169.5 42.5q106 0 155 -37t49 -117q0 -27 -5 -53l-58 -330h-154l5 53q-57 -65 -148 -65zM221 118q39 0 69 40
l13 69h-40q-85 0 -85 -64q0 -45 43 -45z" />
    <glyph glyph-name="acircumflex" unicode="&#xe2;" horiz-adv-x="534" 
d="M113 588l153 142h154l103 -142h-142l-46 51l-64 -51h-158zM147 -12q-145 0 -145 142q0 95 62.5 143t175.5 48h79l3 16q4 23 4 32q0 38 -41 38q-46 0 -61 -51h-172q22 96 81.5 138.5t169.5 42.5q106 0 155 -37t49 -117q0 -27 -5 -53l-58 -330h-154l5 53q-57 -65 -148 -65z
M221 118q39 0 69 40l13 69h-40q-85 0 -85 -64q0 -45 43 -45z" />
    <glyph glyph-name="atilde" unicode="&#xe3;" horiz-adv-x="534" 
d="M393 577q-41 0 -86 28q-23 15 -37 15q-24 0 -35 -37h-93q30 153 130 153q41 0 86 -28q23 -15 37 -15q24 0 35 37h93q-30 -153 -130 -153zM147 -12q-145 0 -145 142q0 95 62.5 143t175.5 48h79l3 16q4 23 4 32q0 38 -41 38q-46 0 -61 -51h-172q22 96 81.5 138.5
t169.5 42.5q106 0 155 -37t49 -117q0 -27 -5 -53l-58 -330h-154l5 53q-57 -65 -148 -65zM221 118q39 0 69 40l13 69h-40q-85 0 -85 -64q0 -45 43 -45z" />
    <glyph glyph-name="adieresis" unicode="&#xe4;" horiz-adv-x="534" 
d="M132 588l25 142h155l-25 -142h-155zM353 588l25 142h155l-25 -142h-155zM147 -12q-145 0 -145 142q0 95 62.5 143t175.5 48h79l3 16q4 23 4 32q0 38 -41 38q-46 0 -61 -51h-172q22 96 81.5 138.5t169.5 42.5q106 0 155 -37t49 -117q0 -27 -5 -53l-58 -330h-154l5 53
q-57 -65 -148 -65zM221 118q39 0 69 40l13 69h-40q-85 0 -85 -64q0 -45 43 -45z" />
    <glyph glyph-name="aring" unicode="&#xe5;" horiz-adv-x="534" 
d="M324 567q-54 0 -88 32.5t-34 84.5q0 56 39.5 92.5t99.5 36.5q54 0 88 -32.5t34 -84.5q0 -56 -39.5 -92.5t-99.5 -36.5zM328 647q20 0 31.5 14t11.5 37q0 35 -34 35q-20 0 -31.5 -14t-11.5 -37q0 -35 34 -35zM147 -12q-145 0 -145 142q0 95 62.5 143t175.5 48h79l3 16
q4 23 4 32q0 38 -41 38q-46 0 -61 -51h-172q22 96 81.5 138.5t169.5 42.5q106 0 155 -37t49 -117q0 -27 -5 -53l-58 -330h-154l5 53q-57 -65 -148 -65zM221 118q39 0 69 40l13 69h-40q-85 0 -85 -64q0 -45 43 -45z" />
    <glyph glyph-name="ae" unicode="&#xe6;" horiz-adv-x="825" 
d="M165 -12q-162 0 -162 143q0 95 62.5 142.5t175.5 47.5h80l3 18q3 15 3 27q0 41 -41 41q-46 0 -61 -51h-172q38 181 233 181q114 0 156 -60q56 60 165 60q197 0 197 -173q0 -30 -5 -57l-16 -91h-301l-2 -14q-3 -18 -3 -34q0 -51 53 -51q55 0 69 50h173q-20 -95 -83 -137
t-170 -42q-140 0 -191 69q-62 -69 -163 -69zM501 318h129l1 6q4 20 4 35q0 49 -54 49q-35 0 -53.5 -20.5t-25.5 -63.5zM222 118q43 0 75 48q0 23 5 49l2 12h-40q-42 0 -63.5 -17t-21.5 -47q0 -45 43 -45z" />
    <glyph glyph-name="ccedilla" unicode="&#xe7;" horiz-adv-x="526" 
d="M512 315h-173q4 30 4 39q0 25 -11 35.5t-35 10.5q-30 0 -46.5 -19t-24.5 -66l-18 -102q-4 -23 -4 -38q0 -27 11 -38.5t35 -11.5q31 0 46.5 19t24.5 66h173q-19 -111 -77 -163.5t-159 -57.5l-22 -41q100 -1 100 -74q0 -88 -151 -88q-67 0 -128 24l34 61q34 -17 63 -17
q45 0 45 26q0 11 -11.5 15.5t-41.5 4.5h-13l51 91q-161 18 -161 170q0 29 5 58l18 102q19 110 83.5 163t178.5 53q209 0 209 -166q0 -23 -5 -56z" />
    <glyph glyph-name="egrave" unicode="&#xe8;" horiz-adv-x="551" 
d="M297 588l-125 142h178l89 -142h-142zM246 -12q-223 0 -223 173q0 31 5 58l18 102q38 216 268 216q107 0 161.5 -44.5t54.5 -128.5q0 -30 -5 -57l-16 -91h-301l-2 -14q-3 -18 -3 -34q0 -51 53 -51q55 0 69 50h173q-20 -93 -82 -136t-170 -43zM227 318h129l1 6q4 22 4 35
q0 49 -54 49q-35 0 -53.5 -20.5t-25.5 -63.5z" />
    <glyph glyph-name="eacute" unicode="&#xe9;" horiz-adv-x="551" 
d="M219 588l139 142h194l-175 -142h-158zM246 -12q-223 0 -223 173q0 31 5 58l18 102q38 216 268 216q107 0 161.5 -44.5t54.5 -128.5q0 -30 -5 -57l-16 -91h-301l-2 -14q-3 -18 -3 -34q0 -51 53 -51q55 0 69 50h173q-20 -93 -82 -136t-170 -43zM227 318h129l1 6q4 22 4 35
q0 49 -54 49q-35 0 -53.5 -20.5t-25.5 -63.5z" />
    <glyph glyph-name="ecircumflex" unicode="&#xea;" horiz-adv-x="551" 
d="M126 588l153 142h154l103 -142h-142l-46 51l-64 -51h-158zM246 -12q-223 0 -223 173q0 31 5 58l18 102q38 216 268 216q107 0 161.5 -44.5t54.5 -128.5q0 -30 -5 -57l-16 -91h-301l-2 -14q-3 -18 -3 -34q0 -51 53 -51q55 0 69 50h173q-20 -93 -82 -136t-170 -43zM227 318
h129l1 6q4 22 4 35q0 49 -54 49q-35 0 -53.5 -20.5t-25.5 -63.5z" />
    <glyph glyph-name="edieresis" unicode="&#xeb;" horiz-adv-x="551" 
d="M145 588l25 142h155l-25 -142h-155zM366 588l25 142h155l-25 -142h-155zM246 -12q-223 0 -223 173q0 31 5 58l18 102q38 216 268 216q107 0 161.5 -44.5t54.5 -128.5q0 -30 -5 -57l-16 -91h-301l-2 -14q-3 -18 -3 -34q0 -51 53 -51q55 0 69 50h173q-20 -93 -82 -136
t-170 -43zM227 318h129l1 6q4 22 4 35q0 49 -54 49q-35 0 -53.5 -20.5t-25.5 -63.5z" />
    <glyph glyph-name="igrave" unicode="&#xec;" horiz-adv-x="286" 
d="M164 588l-125 142h178l89 -142h-142zM6 0l93 525h181l-93 -525h-181z" />
    <glyph glyph-name="iacute" unicode="&#xed;" horiz-adv-x="286" 
d="M86 588l139 142h194l-175 -142h-158zM6 0l93 525h181l-93 -525h-181z" />
    <glyph glyph-name="icircumflex" unicode="&#xee;" horiz-adv-x="286" 
d="M3 588l140 142h160l90 -142h-136l-41 54l-61 -54h-152zM6 0l93 525h181l-93 -525h-181z" />
    <glyph glyph-name="idieresis" unicode="&#xef;" horiz-adv-x="286" 
d="M22 588l25 142h150l-25 -142h-150zM227 588l25 142h150l-25 -142h-150zM6 0l93 525h181l-93 -525h-181z" />
    <glyph glyph-name="eth" unicode="&#xf0;" horiz-adv-x="559" 
d="M241 -12q-220 0 -220 174q0 28 5 57l12 68q18 103 71 155t131 52q45 0 72 -17.5t46 -56.5q-7 65 -42 135l-129 -45l-28 80l110 38q-40 53 -98 102h210q22 -20 45 -47l91 32l28 -80l-68 -24q60 -105 60 -232q0 -44 -8 -89l-15 -85q-19 -112 -85.5 -164.5t-187.5 -52.5z
M256 125q33 0 51 19t27 70l16 92q-7 47 -57 47q-62 0 -76 -77l-11 -63q-3 -18 -3 -34q0 -31 13.5 -42.5t39.5 -11.5z" />
    <glyph glyph-name="ntilde" unicode="&#xf1;" horiz-adv-x="566" 
d="M413 577q-41 0 -86 28q-23 15 -37 15q-24 0 -35 -37h-93q30 153 130 153q41 0 86 -28q23 -15 37 -15q24 0 35 37h93q-30 -153 -130 -153zM6 0l93 525h154l-5 -46q61 58 143 58q73 0 109.5 -36.5t36.5 -103.5q0 -30 -5 -57l-60 -340h-181l58 329q2 10 2 25q0 34 -33 34
q-43 0 -71 -50l-60 -338h-181z" />
    <glyph glyph-name="ograve" unicode="&#xf2;" horiz-adv-x="562" 
d="M302 588l-125 142h178l89 -142h-142zM242 -12q-219 0 -219 173q0 31 5 57l18 103q19 111 86 163.5t188 52.5q219 0 219 -173q0 -31 -5 -57l-18 -103q-19 -111 -86 -163.5t-188 -52.5zM257 125q34 0 52.5 20t27.5 70l17 96q4 28 4 37q0 52 -53 52q-34 0 -52.5 -20
t-27.5 -70l-17 -96q-4 -28 -4 -37q0 -52 53 -52z" />
    <glyph glyph-name="oacute" unicode="&#xf3;" horiz-adv-x="562" 
d="M224 588l139 142h194l-175 -142h-158zM242 -12q-219 0 -219 173q0 31 5 57l18 103q19 111 86 163.5t188 52.5q219 0 219 -173q0 -31 -5 -57l-18 -103q-19 -111 -86 -163.5t-188 -52.5zM257 125q34 0 52.5 20t27.5 70l17 96q4 28 4 37q0 52 -53 52q-34 0 -52.5 -20
t-27.5 -70l-17 -96q-4 -28 -4 -37q0 -52 53 -52z" />
    <glyph glyph-name="ocircumflex" unicode="&#xf4;" horiz-adv-x="562" 
d="M131 588l153 142h154l103 -142h-142l-46 51l-64 -51h-158zM242 -12q-219 0 -219 173q0 31 5 57l18 103q19 111 86 163.5t188 52.5q219 0 219 -173q0 -31 -5 -57l-18 -103q-19 -111 -86 -163.5t-188 -52.5zM257 125q34 0 52.5 20t27.5 70l17 96q4 28 4 37q0 52 -53 52
q-34 0 -52.5 -20t-27.5 -70l-17 -96q-4 -28 -4 -37q0 -52 53 -52z" />
    <glyph glyph-name="otilde" unicode="&#xf5;" horiz-adv-x="562" 
d="M411 577q-41 0 -86 28q-23 15 -37 15q-24 0 -35 -37h-93q30 153 130 153q41 0 86 -28q23 -15 37 -15q24 0 35 37h93q-30 -153 -130 -153zM242 -12q-219 0 -219 173q0 31 5 57l18 103q19 111 86 163.5t188 52.5q219 0 219 -173q0 -31 -5 -57l-18 -103q-19 -111 -86 -163.5
t-188 -52.5zM257 125q34 0 52.5 20t27.5 70l17 96q4 28 4 37q0 52 -53 52q-34 0 -52.5 -20t-27.5 -70l-17 -96q-4 -28 -4 -37q0 -52 53 -52z" />
    <glyph glyph-name="odieresis" unicode="&#xf6;" horiz-adv-x="562" 
d="M150 588l25 142h155l-25 -142h-155zM371 588l25 142h155l-25 -142h-155zM242 -12q-219 0 -219 173q0 31 5 57l18 103q19 111 86 163.5t188 52.5q219 0 219 -173q0 -31 -5 -57l-18 -103q-19 -111 -86 -163.5t-188 -52.5zM257 125q34 0 52.5 20t27.5 70l17 96q4 28 4 37
q0 52 -53 52q-34 0 -52.5 -20t-27.5 -70l-17 -96q-4 -28 -4 -37q0 -52 53 -52z" />
    <glyph glyph-name="divide" unicode="&#xf7;" horiz-adv-x="594" 
d="M238 456l25 141h186l-25 -141h-186zM46 241l24 136h494l-24 -136h-494zM161 21l25 141h186l-25 -141h-186z" />
    <glyph glyph-name="oslash" unicode="&#xf8;" horiz-adv-x="562" 
d="M563 474l-37 -36q13 -30 13 -74q0 -31 -5 -57l-18 -103q-19 -111 -86 -163.5t-188 -52.5q-95 0 -149 33l-34 -33l-60 63l37 36q-13 30 -13 74q0 31 5 57l18 103q19 111 86 163.5t188 52.5q95 0 149 -33l34 33zM225 310l-9 -50l131 126q-13 14 -42 14q-34 0 -52.5 -20
t-27.5 -70zM337 215l9 50l-131 -126q13 -14 42 -14q34 0 52.5 20t27.5 70z" />
    <glyph glyph-name="ugrave" unicode="&#xf9;" horiz-adv-x="570" 
d="M304 588l-125 142h178l89 -142h-142zM178 -12q-73 0 -111 36t-38 103q0 29 4 52l61 346h181l-58 -329q-2 -11 -2 -24q0 -35 35 -35q43 0 74 52l59 336h181l-93 -525h-153l5 48q-60 -60 -145 -60z" />
    <glyph glyph-name="uacute" unicode="&#xfa;" horiz-adv-x="570" 
d="M226 588l139 142h194l-175 -142h-158zM178 -12q-73 0 -111 36t-38 103q0 29 4 52l61 346h181l-58 -329q-2 -11 -2 -24q0 -35 35 -35q43 0 74 52l59 336h181l-93 -525h-153l5 48q-60 -60 -145 -60z" />
    <glyph glyph-name="ucircumflex" unicode="&#xfb;" horiz-adv-x="570" 
d="M133 588l153 142h154l103 -142h-142l-46 51l-64 -51h-158zM178 -12q-73 0 -111 36t-38 103q0 29 4 52l61 346h181l-58 -329q-2 -11 -2 -24q0 -35 35 -35q43 0 74 52l59 336h181l-93 -525h-153l5 48q-60 -60 -145 -60z" />
    <glyph glyph-name="udieresis" unicode="&#xfc;" horiz-adv-x="570" 
d="M152 588l25 142h155l-25 -142h-155zM373 588l25 142h155l-25 -142h-155zM178 -12q-73 0 -111 36t-38 103q0 29 4 52l61 346h181l-58 -329q-2 -11 -2 -24q0 -35 35 -35q43 0 74 52l59 336h181l-93 -525h-153l5 48q-60 -60 -145 -60z" />
    <glyph glyph-name="yacute" unicode="&#xfd;" horiz-adv-x="512" 
d="M199 588l139 142h194l-175 -142h-158zM-16 -182l23 134h70q19 0 27.5 5.5t17.5 24.5l9 18l-88 525h188l24 -297l120 297h186l-270 -567q-42 -87 -81.5 -113.5t-126.5 -26.5h-99z" />
    <glyph glyph-name="thorn" unicode="&#xfe;" horiz-adv-x="573" 
d="M-26 -182l161 912h180l-40 -228q48 35 114 35q79 0 121 -42t42 -118q0 -24 -6 -57l-22 -125q-37 -207 -209 -207q-80 0 -122 48l-38 -218h-181zM279 125q52 0 65 74l22 124q3 18 3 31q0 46 -42 46q-49 0 -80 -59l-28 -158q10 -58 60 -58z" />
    <glyph glyph-name="ydieresis" unicode="&#xff;" horiz-adv-x="512" 
d="M125 588l25 142h155l-25 -142h-155zM346 588l25 142h155l-25 -142h-155zM-16 -182l23 134h70q19 0 27.5 5.5t17.5 24.5l9 18l-88 525h188l24 -297l120 297h186l-270 -567q-42 -87 -81.5 -113.5t-126.5 -26.5h-99z" />
    <glyph glyph-name="Amacron" unicode="&#x100;" horiz-adv-x="625" 
d="M242 753l20 114h316l-20 -114h-316zM-46 0l334 680h197l94 -680h-190l-11 121h-182l-55 -121h-187zM257 263h110l-16 221z" />
    <glyph glyph-name="amacron" unicode="&#x101;" horiz-adv-x="534" 
d="M165 602l20 114h316l-20 -114h-316zM147 -12q-145 0 -145 142q0 95 62.5 143t175.5 48h79l3 16q4 23 4 32q0 38 -41 38q-46 0 -61 -51h-172q22 96 81.5 138.5t169.5 42.5q106 0 155 -37t49 -117q0 -27 -5 -53l-58 -330h-154l5 53q-57 -65 -148 -65zM221 118q39 0 69 40
l13 69h-40q-85 0 -85 -64q0 -45 43 -45z" />
    <glyph glyph-name="Abreve" unicode="&#x102;" horiz-adv-x="625" 
d="M405 727q-74 0 -116 39t-42 98q0 11 1 17h112v-4q0 -46 54 -46q56 0 69 50h113q-14 -72 -66 -113t-125 -41zM-46 0l334 680h197l94 -680h-190l-11 121h-182l-55 -121h-187zM257 263h110l-16 221z" />
    <glyph glyph-name="abreve" unicode="&#x103;" horiz-adv-x="534" 
d="M328 576q-74 0 -116 39t-42 98q0 11 1 17h112v-4q0 -46 54 -46q56 0 69 50h113q-14 -72 -66 -113t-125 -41zM147 -12q-145 0 -145 142q0 95 62.5 143t175.5 48h79l3 16q4 23 4 32q0 38 -41 38q-46 0 -61 -51h-172q22 96 81.5 138.5t169.5 42.5q106 0 155 -37t49 -117
q0 -27 -5 -53l-58 -330h-154l5 53q-57 -65 -148 -65zM221 118q39 0 69 40l13 69h-40q-85 0 -85 -64q0 -45 43 -45z" />
    <glyph glyph-name="Aogonek" unicode="&#x104;" horiz-adv-x="625" 
d="M471 -80q0 -30 36 -30q24 0 53 13l-18 -99q-26 -12 -72 -12q-133 0 -133 90q0 66 82 118h-30l-11 121h-182l-55 -121h-187l334 680h197l94 -680h-40q-68 -36 -68 -80zM257 263h110l-16 221z" />
    <glyph glyph-name="aogonek" unicode="&#x105;" horiz-adv-x="534" 
d="M303 537q106 0 155 -37t49 -117q0 -27 -5 -53l-58 -330h-38q-68 -36 -68 -80q0 -30 36 -30q24 0 53 13l-18 -99q-25 -12 -72 -12q-133 0 -133 90q0 67 86 121l5 50q-57 -65 -148 -65q-145 0 -145 142q0 95 62.5 143t175.5 48h79l3 16q4 23 4 32q0 38 -41 38
q-46 0 -61 -51h-172q22 96 81.5 138.5t169.5 42.5zM290 158l13 69h-40q-85 0 -85 -64q0 -45 43 -45q39 0 69 40z" />
    <glyph glyph-name="Cacute" unicode="&#x106;" horiz-adv-x="605" 
d="M283 739l139 142h194l-175 -142h-158zM277 -12q-122 0 -180 50t-58 154q0 42 7 81l26 148q25 141 98 206t211 65q120 0 177.5 -48.5t57.5 -148.5q0 -33 -6 -72h-174q5 32 5 50q0 37 -17.5 52.5t-56.5 15.5q-51 0 -74.5 -28t-37.5 -105l-24 -136q-7 -39 -7 -65
q0 -38 16 -53t55 -15q51 0 74.5 25.5t36.5 91.5h175q-27 -143 -99.5 -205.5t-204.5 -62.5z" />
    <glyph glyph-name="cacute" unicode="&#x107;" horiz-adv-x="526" 
d="M213 588l139 142h194l-175 -142h-158zM234 -12q-211 0 -211 173q0 29 5 58l18 102q19 110 83.5 163t178.5 53q209 0 209 -166q0 -23 -5 -56h-173q4 30 4 39q0 25 -11 35.5t-35 10.5q-30 0 -46.5 -19t-24.5 -66l-18 -102q-4 -23 -4 -38q0 -27 11 -38.5t35 -11.5
q31 0 46.5 19t24.5 66h173q-21 -117 -84 -169.5t-176 -52.5z" />
    <glyph glyph-name="Ccircumflex" unicode="&#x108;" horiz-adv-x="605" 
d="M190 739l153 142h154l103 -142h-142l-46 51l-64 -51h-158zM277 -12q-122 0 -180 50t-58 154q0 42 7 81l26 148q25 141 98 206t211 65q120 0 177.5 -48.5t57.5 -148.5q0 -33 -6 -72h-174q5 32 5 50q0 37 -17.5 52.5t-56.5 15.5q-51 0 -74.5 -28t-37.5 -105l-24 -136
q-7 -39 -7 -65q0 -38 16 -53t55 -15q51 0 74.5 25.5t36.5 91.5h175q-27 -143 -99.5 -205.5t-204.5 -62.5z" />
    <glyph glyph-name="ccircumflex" unicode="&#x109;" horiz-adv-x="526" 
d="M120 588l153 142h154l103 -142h-142l-46 51l-64 -51h-158zM234 -12q-211 0 -211 173q0 29 5 58l18 102q19 110 83.5 163t178.5 53q209 0 209 -166q0 -23 -5 -56h-173q4 30 4 39q0 25 -11 35.5t-35 10.5q-30 0 -46.5 -19t-24.5 -66l-18 -102q-4 -23 -4 -38q0 -27 11 -38.5
t35 -11.5q31 0 46.5 19t24.5 66h173q-21 -117 -84 -169.5t-176 -52.5z" />
    <glyph glyph-name="Cdotaccent" unicode="&#x10a;" horiz-adv-x="605" 
d="M314 739l25 142h165l-25 -142h-165zM277 -12q-122 0 -180 50t-58 154q0 42 7 81l26 148q25 141 98 206t211 65q120 0 177.5 -48.5t57.5 -148.5q0 -33 -6 -72h-174q5 32 5 50q0 37 -17.5 52.5t-56.5 15.5q-51 0 -74.5 -28t-37.5 -105l-24 -136q-7 -39 -7 -65q0 -38 16 -53
t55 -15q51 0 74.5 25.5t36.5 91.5h175q-27 -143 -99.5 -205.5t-204.5 -62.5z" />
    <glyph glyph-name="cdotaccent" unicode="&#x10b;" horiz-adv-x="526" 
d="M244 588l25 142h165l-25 -142h-165zM234 -12q-211 0 -211 173q0 29 5 58l18 102q19 110 83.5 163t178.5 53q209 0 209 -166q0 -23 -5 -56h-173q4 30 4 39q0 25 -11 35.5t-35 10.5q-30 0 -46.5 -19t-24.5 -66l-18 -102q-4 -23 -4 -38q0 -27 11 -38.5t35 -11.5
q31 0 46.5 19t24.5 66h173q-21 -117 -84 -169.5t-176 -52.5z" />
    <glyph glyph-name="Ccaron" unicode="&#x10c;" horiz-adv-x="605" 
d="M322 739l-103 142h142l46 -51l64 51h158l-153 -142h-154zM277 -12q-122 0 -180 50t-58 154q0 42 7 81l26 148q25 141 98 206t211 65q120 0 177.5 -48.5t57.5 -148.5q0 -33 -6 -72h-174q5 32 5 50q0 37 -17.5 52.5t-56.5 15.5q-51 0 -74.5 -28t-37.5 -105l-24 -136
q-7 -39 -7 -65q0 -38 16 -53t55 -15q51 0 74.5 25.5t36.5 91.5h175q-27 -143 -99.5 -205.5t-204.5 -62.5z" />
    <glyph glyph-name="ccaron" unicode="&#x10d;" horiz-adv-x="526" 
d="M252 588l-103 142h142l46 -51l64 51h158l-153 -142h-154zM234 -12q-211 0 -211 173q0 29 5 58l18 102q19 110 83.5 163t178.5 53q209 0 209 -166q0 -23 -5 -56h-173q4 30 4 39q0 25 -11 35.5t-35 10.5q-30 0 -46.5 -19t-24.5 -66l-18 -102q-4 -23 -4 -38q0 -27 11 -38.5
t35 -11.5q31 0 46.5 19t24.5 66h173q-21 -117 -84 -169.5t-176 -52.5z" />
    <glyph glyph-name="Dcaron" unicode="&#x10e;" horiz-adv-x="640" 
d="M315 739l-103 142h142l46 -51l64 51h158l-153 -142h-154zM19 0l120 680h258q233 0 233 -193q0 -35 -8 -81l-25 -142q-25 -139 -98 -201.5t-212 -62.5h-268zM228 144h55q64 0 91 28t40 102l23 130q6 34 6 56q0 42 -21 59t-70 17h-54z" />
    <glyph glyph-name="dcaron" unicode="&#x10f;" horiz-adv-x="655" 
d="M184 -12q-79 0 -121 42t-42 118q0 24 6 57l22 125q37 207 209 207q80 0 122 -48l43 241h181l-129 -730h-154l4 46q-58 -58 -141 -58zM580 501l75 229h163l-125 -229h-113zM246 125q49 0 80 59l28 157q-10 59 -60 59q-52 0 -65 -74l-22 -124q-3 -18 -3 -31q0 -46 42 -46z
" />
    <glyph glyph-name="Dcroat" unicode="&#x110;" horiz-adv-x="650" 
d="M407 680q233 0 233 -193q0 -35 -8 -81l-25 -142q-25 -139 -98 -201.5t-212 -62.5h-268l48 273h-56l25 144h57l46 263h258zM447 404q6 34 6 56q0 42 -21 59t-70 17h-54l-21 -119h89l-25 -144h-90l-23 -129h55q64 0 91 28t40 102z" />
    <glyph glyph-name="dcroat" unicode="&#x111;" horiz-adv-x="581" 
d="M651 670l-17 -94h-57l-102 -576h-154l4 46q-58 -58 -141 -58q-79 0 -121 42t-42 118q0 24 6 57l22 125q37 207 209 207q80 0 122 -48l16 87h-120l17 94h119l11 60h181l-11 -60h58zM326 184l28 157q-10 59 -60 59q-52 0 -65 -74l-22 -124q-3 -18 -3 -31q0 -46 42 -46
q49 0 80 59z" />
    <glyph glyph-name="Emacron" unicode="&#x112;" horiz-adv-x="590" 
d="M233 753l20 114h316l-20 -114h-316zM19 0l120 680h477l-27 -149h-292l-20 -114h242l-25 -144h-243l-22 -124h303l-26 -149h-487z" />
    <glyph glyph-name="emacron" unicode="&#x113;" horiz-adv-x="551" 
d="M178 602l20 114h316l-20 -114h-316zM246 -12q-223 0 -223 173q0 31 5 58l18 102q38 216 268 216q107 0 161.5 -44.5t54.5 -128.5q0 -30 -5 -57l-16 -91h-301l-2 -14q-3 -18 -3 -34q0 -51 53 -51q55 0 69 50h173q-20 -93 -82 -136t-170 -43zM227 318h129l1 6q4 22 4 35
q0 49 -54 49q-35 0 -53.5 -20.5t-25.5 -63.5z" />
    <glyph glyph-name="Ebreve" unicode="&#x114;" horiz-adv-x="590" 
d="M396 727q-74 0 -116 39t-42 98q0 11 1 17h112v-4q0 -46 54 -46q56 0 69 50h113q-14 -72 -66 -113t-125 -41zM19 0l120 680h477l-27 -149h-292l-20 -114h242l-25 -144h-243l-22 -124h303l-26 -149h-487z" />
    <glyph glyph-name="ebreve" unicode="&#x115;" horiz-adv-x="551" 
d="M341 576q-74 0 -116 39t-42 98q0 11 1 17h112v-4q0 -46 54 -46q56 0 69 50h113q-14 -72 -66 -113t-125 -41zM246 -12q-223 0 -223 173q0 31 5 58l18 102q38 216 268 216q107 0 161.5 -44.5t54.5 -128.5q0 -30 -5 -57l-16 -91h-301l-2 -14q-3 -18 -3 -34q0 -51 53 -51
q55 0 69 50h173q-20 -93 -82 -136t-170 -43zM227 318h129l1 6q4 22 4 35q0 49 -54 49q-35 0 -53.5 -20.5t-25.5 -63.5z" />
    <glyph glyph-name="Edotaccent" unicode="&#x116;" horiz-adv-x="590" 
d="M305 739l25 142h165l-25 -142h-165zM19 0l120 680h477l-27 -149h-292l-20 -114h242l-25 -144h-243l-22 -124h303l-26 -149h-487z" />
    <glyph glyph-name="edotaccent" unicode="&#x117;" horiz-adv-x="551" 
d="M250 588l25 142h165l-25 -142h-165zM246 -12q-223 0 -223 173q0 31 5 58l18 102q38 216 268 216q107 0 161.5 -44.5t54.5 -128.5q0 -30 -5 -57l-16 -91h-301l-2 -14q-3 -18 -3 -34q0 -51 53 -51q55 0 69 50h173q-20 -93 -82 -136t-170 -43zM227 318h129l1 6q4 22 4 35
q0 49 -54 49q-35 0 -53.5 -20.5t-25.5 -63.5z" />
    <glyph glyph-name="Eogonek" unicode="&#x118;" horiz-adv-x="590" 
d="M589 531h-292l-20 -114h242l-25 -144h-243l-22 -124h303l-26 -149h-38q-68 -36 -68 -80q0 -30 36 -30q24 0 53 13l-18 -99q-25 -12 -72 -12q-133 0 -133 90q0 66 82 118h-329l120 680h477z" />
    <glyph glyph-name="eogonek" unicode="&#x119;" horiz-adv-x="551" 
d="M314 537q107 0 161.5 -44.5t54.5 -128.5q0 -30 -5 -57l-16 -91h-301l-2 -14q-3 -18 -3 -34q0 -51 53 -51q55 0 69 50h173q-22 -101 -96 -145q-83 -48 -83 -101q0 -31 36 -31q24 0 53 13l-18 -99q-26 -12 -73 -12q-132 0 -132 91q0 56 55 105q-217 3 -217 173q0 31 5 58
l18 102q38 216 268 216zM357 324q4 22 4 35q0 49 -54 49q-35 0 -53.5 -20.5t-25.5 -63.5l-1 -6h129z" />
    <glyph glyph-name="Ecaron" unicode="&#x11a;" horiz-adv-x="590" 
d="M313 739l-103 142h142l46 -51l64 51h158l-153 -142h-154zM19 0l120 680h477l-27 -149h-292l-20 -114h242l-25 -144h-243l-22 -124h303l-26 -149h-487z" />
    <glyph glyph-name="ecaron" unicode="&#x11b;" horiz-adv-x="551" 
d="M258 588l-103 142h142l46 -51l64 51h158l-153 -142h-154zM246 -12q-223 0 -223 173q0 31 5 58l18 102q38 216 268 216q107 0 161.5 -44.5t54.5 -128.5q0 -30 -5 -57l-16 -91h-301l-2 -14q-3 -18 -3 -34q0 -51 53 -51q55 0 69 50h173q-20 -93 -82 -136t-170 -43zM227 318
h129l1 6q4 22 4 35q0 49 -54 49q-35 0 -53.5 -20.5t-25.5 -63.5z" />
    <glyph glyph-name="Gcircumflex" unicode="&#x11c;" horiz-adv-x="636" 
d="M191 739l153 142h154l103 -142h-142l-46 51l-64 -51h-158zM284 -12q-246 0 -246 202q0 38 8 84l27 153q25 138 100 201.5t209 63.5q119 0 181 -48.5t62 -142.5q0 -19 -3 -42h-174q1 8 1 16q0 36 -18 51t-58 15q-52 0 -78 -27.5t-40 -105.5l-24 -136q-6 -34 -6 -60
q0 -40 18 -56.5t60 -16.5q50 0 75.5 24.5t38.5 86.5h-94l24 135h268l-23 -130q-25 -140 -99 -203.5t-209 -63.5z" />
    <glyph glyph-name="gcircumflex" unicode="&#x11d;" horiz-adv-x="573" 
d="M132 588l153 142h154l103 -142h-142l-46 51l-64 -51h-158zM209 -194q-104 0 -159.5 38.5t-55.5 113.5q0 13 2 29h171v-8q0 -44 50 -44q36 0 54.5 20.5t26.5 67.5l7 42q-48 -35 -114 -35q-79 0 -121 42t-42 118q0 24 6 57l15 83q38 207 209 207q97 0 140 -73l15 61h154
l-90 -510q-19 -106 -84 -157.5t-184 -51.5zM253 167q50 0 81 60l20 114q-10 59 -60 59q-27 0 -42 -17.5t-23 -56.5l-15 -82q-3 -18 -3 -31q0 -46 42 -46z" />
    <glyph glyph-name="Gbreve" unicode="&#x11e;" horiz-adv-x="636" 
d="M406 727q-74 0 -116 39t-42 98q0 11 1 17h112v-4q0 -46 54 -46q56 0 69 50h113q-14 -72 -66 -113t-125 -41zM284 -12q-246 0 -246 202q0 38 8 84l27 153q25 138 100 201.5t209 63.5q119 0 181 -48.5t62 -142.5q0 -19 -3 -42h-174q1 8 1 16q0 36 -18 51t-58 15
q-52 0 -78 -27.5t-40 -105.5l-24 -136q-6 -34 -6 -60q0 -40 18 -56.5t60 -16.5q50 0 75.5 24.5t38.5 86.5h-94l24 135h268l-23 -130q-25 -140 -99 -203.5t-209 -63.5z" />
    <glyph glyph-name="gbreve" unicode="&#x11f;" horiz-adv-x="573" 
d="M347 576q-74 0 -116 39t-42 98q0 11 1 17h112v-4q0 -46 54 -46q56 0 69 50h113q-14 -72 -66 -113t-125 -41zM209 -194q-104 0 -159.5 38.5t-55.5 113.5q0 13 2 29h171v-8q0 -44 50 -44q36 0 54.5 20.5t26.5 67.5l7 42q-48 -35 -114 -35q-79 0 -121 42t-42 118q0 24 6 57
l15 83q38 207 209 207q97 0 140 -73l15 61h154l-90 -510q-19 -106 -84 -157.5t-184 -51.5zM253 167q50 0 81 60l20 114q-10 59 -60 59q-27 0 -42 -17.5t-23 -56.5l-15 -82q-3 -18 -3 -31q0 -46 42 -46z" />
    <glyph glyph-name="Gdotaccent" unicode="&#x120;" horiz-adv-x="636" 
d="M315 739l25 142h165l-25 -142h-165zM284 -12q-246 0 -246 202q0 38 8 84l27 153q25 138 100 201.5t209 63.5q119 0 181 -48.5t62 -142.5q0 -19 -3 -42h-174q1 8 1 16q0 36 -18 51t-58 15q-52 0 -78 -27.5t-40 -105.5l-24 -136q-6 -34 -6 -60q0 -40 18 -56.5t60 -16.5
q50 0 75.5 24.5t38.5 86.5h-94l24 135h268l-23 -130q-25 -140 -99 -203.5t-209 -63.5z" />
    <glyph glyph-name="gdotaccent" unicode="&#x121;" horiz-adv-x="573" 
d="M256 588l25 142h165l-25 -142h-165zM209 -194q-104 0 -159.5 38.5t-55.5 113.5q0 13 2 29h171v-8q0 -44 50 -44q36 0 54.5 20.5t26.5 67.5l7 42q-48 -35 -114 -35q-79 0 -121 42t-42 118q0 24 6 57l15 83q38 207 209 207q97 0 140 -73l15 61h154l-90 -510
q-19 -106 -84 -157.5t-184 -51.5zM253 167q50 0 81 60l20 114q-10 59 -60 59q-27 0 -42 -17.5t-23 -56.5l-15 -82q-3 -18 -3 -31q0 -46 42 -46z" />
    <glyph glyph-name="Gcommaaccent" unicode="&#x122;" horiz-adv-x="636" 
d="M284 -12q-246 0 -246 202q0 38 8 84l27 153q25 138 100 201.5t209 63.5q119 0 181 -48.5t62 -142.5q0 -19 -3 -42h-174q1 8 1 16q0 36 -18 51t-58 15q-52 0 -78 -27.5t-40 -105.5l-24 -136q-6 -34 -6 -60q0 -40 18 -56.5t60 -16.5q50 0 75.5 24.5t38.5 86.5h-94l24 135
h268l-23 -130q-25 -140 -99 -203.5t-209 -63.5zM148 -263l11 60q37 0 53.5 9.5t21.5 33.5h-68l19 107h165l-13 -74q-15 -85 -50 -110.5t-139 -25.5z" />
    <glyph glyph-name="gcommaaccent" unicode="&#x123;" horiz-adv-x="573" 
d="M457 788l-11 -60q-37 0 -53.5 -9.5t-21.5 -33.5h68l-19 -107h-165l13 74q15 85 50 110.5t139 25.5zM209 -194q-104 0 -159.5 38.5t-55.5 113.5q0 13 2 29h171v-8q0 -44 50 -44q36 0 54.5 20.5t26.5 67.5l7 42q-48 -35 -114 -35q-79 0 -121 42t-42 118q0 24 6 57l15 83
q38 207 209 207q97 0 140 -73l15 61h154l-90 -510q-19 -106 -84 -157.5t-184 -51.5zM253 167q50 0 81 60l20 114q-10 59 -60 59q-27 0 -42 -17.5t-23 -56.5l-15 -82q-3 -18 -3 -31q0 -46 42 -46z" />
    <glyph glyph-name="Hcircumflex" unicode="&#x124;" horiz-adv-x="678" 
d="M216 739l153 142h154l103 -142h-142l-46 51l-64 -51h-158zM19 0l120 680h184l-46 -259h180l46 259h184l-120 -680h-184l47 269h-180l-47 -269h-184z" />
    <glyph glyph-name="hcircumflex" unicode="&#x125;" horiz-adv-x="566" 
d="M29 789l153 142h154l103 -142h-142l-46 51l-64 -51h-158zM6 0l129 730h181l-40 -228q50 35 115 35q73 0 109.5 -36.5t36.5 -103.5q0 -30 -5 -57l-60 -340h-181l58 329q2 10 2 25q0 34 -33 34q-43 0 -71 -50l-60 -338h-181z" />
    <glyph glyph-name="Hbar" unicode="&#x126;" horiz-adv-x="698" 
d="M739 602l-21 -116h-55l-86 -486h-184l47 269h-180l-47 -269h-184l86 486h-57l21 116h56l14 78h184l-14 -78h180l14 78h184l-14 -78h56zM467 421l12 65h-180l-12 -65h180z" />
    <glyph glyph-name="hbar" unicode="&#x127;" horiz-adv-x="574" 
d="M399 537q73 0 109.5 -36.5t36.5 -103.5q0 -30 -5 -57l-60 -340h-181l58 329q2 10 2 25q0 34 -33 34q-43 0 -71 -50l-60 -338h-181l102 576h-59l17 94h58l11 60h181l-11 -60h119l-17 -94h-118l-13 -74q50 35 115 35z" />
    <glyph glyph-name="Itilde" unicode="&#x128;" horiz-adv-x="314" 
d="M310 728q-35 0 -78 28q-23 15 -35 15q-22 0 -32 -37h-92q16 79 45.5 116t77.5 37q35 0 78 -28q23 -15 35 -15q22 0 32 37h92q-16 -79 -45.5 -116t-77.5 -37zM19 0l120 680h184l-120 -680h-184z" />
    <glyph glyph-name="itilde" unicode="&#x129;" horiz-adv-x="286" 
d="M269 577q-35 0 -78 28q-23 15 -35 15q-22 0 -32 -37h-92q16 79 45.5 116t77.5 37q35 0 78 -28q23 -15 35 -15q22 0 32 37h92q-16 -79 -45.5 -116t-77.5 -37zM6 0l93 525h181l-93 -525h-181z" />
    <glyph glyph-name="Imacron" unicode="&#x12a;" horiz-adv-x="314" 
d="M96 753l20 114h295l-20 -114h-295zM19 0l120 680h184l-120 -680h-184z" />
    <glyph glyph-name="imacron" unicode="&#x12b;" horiz-adv-x="286" 
d="M55 602l20 114h295l-20 -114h-295zM6 0l93 525h181l-93 -525h-181z" />
    <glyph glyph-name="Ibreve" unicode="&#x12c;" horiz-adv-x="314" 
d="M248 727q-68 0 -108.5 37.5t-40.5 96.5q0 13 1 20h110v-6q0 -21 12.5 -32.5t34.5 -11.5q24 0 41.5 13.5t22.5 36.5h111q-12 -73 -62.5 -113.5t-121.5 -40.5zM19 0l120 680h184l-120 -680h-184z" />
    <glyph glyph-name="ibreve" unicode="&#x12d;" horiz-adv-x="286" 
d="M207 576q-68 0 -108.5 37.5t-40.5 96.5q0 13 1 20h110v-6q0 -21 12.5 -32.5t34.5 -11.5q24 0 41.5 13.5t22.5 36.5h111q-12 -73 -62.5 -113.5t-121.5 -40.5zM6 0l93 525h181l-93 -525h-181z" />
    <glyph glyph-name="Iogonek" unicode="&#x12e;" horiz-adv-x="314" 
d="M182 0q-34 -12 -56 -34.5t-22 -45.5q0 -30 40 -30q28 0 54 13l-18 -99q-26 -12 -75 -12q-64 0 -99 23t-35 66q0 67 85 119h-37l120 680h184l-120 -680h-21z" />
    <glyph glyph-name="iogonek" unicode="&#x12f;" horiz-adv-x="286" 
d="M132 730h185l-25 -142h-185zM6 0l93 525h181l-93 -525h-21q-34 -12 -56 -34.5t-22 -45.5q0 -30 40 -30q28 0 54 13l-18 -99q-25 -12 -75 -12q-64 0 -99 23t-35 66q0 67 85 119h-34z" />
    <glyph glyph-name="Idotaccent" unicode="&#x130;" horiz-adv-x="314" 
d="M158 739l25 142h165l-25 -142h-165zM19 0l120 680h184l-120 -680h-184z" />
    <glyph glyph-name="dotlessi" unicode="&#x131;" horiz-adv-x="286" 
d="M6 0l93 525h181l-93 -525h-181z" />
    <glyph glyph-name="IJ" unicode="&#x132;" horiz-adv-x="871" 
d="M19 0l120 680h184l-120 -680h-184zM536 -12q-114 0 -166.5 44t-52.5 135q0 31 7 70l3 17h175l-4 -23q-4 -23 -4 -38q0 -29 12 -41.5t40 -12.5q35 0 53.5 21.5t27.5 72.5l79 447h184l-81 -459q-22 -123 -85.5 -178t-187.5 -55z" />
    <glyph glyph-name="ij" unicode="&#x133;" horiz-adv-x="572" 
d="M107 588l25 142h185l-25 -142h-185zM393 588l25 142h185l-25 -142h-185zM6 0l93 525h181l-93 -525h-181zM202 -182l23 134h22q21 0 30 9t14 33l94 531h181l-98 -553q-15 -85 -52.5 -119.5t-114.5 -34.5h-99z" />
    <glyph glyph-name="Jcircumflex" unicode="&#x134;" horiz-adv-x="557" 
d="M297 739l140 142h160l90 -142h-136l-41 54l-61 -54h-152zM222 -12q-114 0 -166.5 44t-52.5 135q0 31 7 70l3 17h175l-4 -23q-4 -23 -4 -38q0 -29 12 -41.5t40 -12.5q35 0 53.5 21.5t27.5 72.5l79 447h184l-81 -459q-22 -123 -85.5 -178t-187.5 -55z" />
    <glyph glyph-name="jcircumflex" unicode="&#x135;" horiz-adv-x="286" 
d="M3 588l140 142h160l90 -142h-136l-41 54l-61 -54h-152zM-84 -182l23 134h22q21 0 30 9t14 33l94 531h181l-98 -553q-15 -85 -52.5 -119.5t-114.5 -34.5h-99z" />
    <glyph glyph-name="Kcommaaccent" unicode="&#x136;" horiz-adv-x="628" 
d="M19 0l120 680h184l-45 -255l227 255h212l-262 -284l140 -396h-196l-87 261l-79 -90l-30 -171h-184zM163 -263l11 60q37 0 53.5 9.5t21.5 33.5h-68l19 107h165l-13 -74q-15 -85 -50 -110.5t-139 -25.5z" />
    <glyph glyph-name="kcommaaccent" unicode="&#x137;" horiz-adv-x="562" 
d="M6 0l129 730h181l-67 -380l166 175h209l-218 -220l124 -305h-198l-67 188l-55 -60l-23 -128h-181zM124 -263l11 60q37 0 53.5 9.5t21.5 33.5h-68l19 107h165l-13 -74q-15 -85 -50 -110.5t-139 -25.5z" />
    <glyph glyph-name="kgreenlandic" unicode="&#x138;" horiz-adv-x="562" 
d="M6 0l93 525h181l-31 -175l166 175h209l-218 -220l124 -305h-198l-67 188l-55 -59l-23 -129h-181z" />
    <glyph glyph-name="Lacute" unicode="&#x139;" horiz-adv-x="518" 
d="M127 739l139 142h194l-175 -142h-158zM19 0l120 680h184l-93 -528h263l-27 -152h-447z" />
    <glyph glyph-name="lacute" unicode="&#x13a;" horiz-adv-x="286" 
d="M122 789l139 142h194l-175 -142h-158zM6 0l129 730h181l-129 -730h-181z" />
    <glyph glyph-name="Lcommaaccent" unicode="&#x13b;" horiz-adv-x="518" 
d="M19 0l120 680h184l-93 -528h263l-27 -152h-447zM113 -263l11 60q37 0 53.5 9.5t21.5 33.5h-68l19 107h165l-13 -74q-15 -85 -50 -110.5t-139 -25.5z" />
    <glyph glyph-name="lcommaaccent" unicode="&#x13c;" horiz-adv-x="286" 
d="M6 0l129 730h181l-129 -730h-181zM-32 -263l11 60q37 0 53.5 9.5t21.5 33.5h-68l19 107h165l-13 -74q-15 -85 -50 -110.5t-139 -25.5z" />
    <glyph glyph-name="Lcaron" unicode="&#x13d;" horiz-adv-x="518" 
d="M19 0l120 680h184l-93 -528h263l-27 -152h-447zM318 451l75 229h163l-125 -229h-113z" />
    <glyph glyph-name="lcaron" unicode="&#x13e;" horiz-adv-x="370" 
d="M6 0l129 730h181l-129 -730h-181zM295 501l75 229h163l-125 -229h-113z" />
    <glyph glyph-name="Ldot" unicode="&#x13f;" horiz-adv-x="518" 
d="M19 0l120 680h184l-93 -528h263l-27 -152h-447zM345 316l29 159h160l-29 -159h-160z" />
    <glyph glyph-name="ldot" unicode="&#x140;" horiz-adv-x="430" 
d="M6 0l129 730h181l-129 -730h-181zM280 281l29 159h160l-29 -159h-160z" />
    <glyph glyph-name="Lslash" unicode="&#x141;" horiz-adv-x="528" 
d="M240 152h263l-27 -152h-447l27 150l-63 -36l29 165l63 36l64 365h184l-43 -246l181 105l-29 -165l-181 -105z" />
    <glyph glyph-name="lslash" unicode="&#x142;" horiz-adv-x="321" 
d="M370 552l-27 -152l-75 -43l-63 -357h-181l42 240l-76 -44l27 152l76 44l60 338h181l-39 -221z" />
    <glyph glyph-name="Nacute" unicode="&#x143;" horiz-adv-x="672" 
d="M306 739l139 142h194l-175 -142h-158zM19 0l120 680h178l129 -385l68 385h167l-120 -680h-167l-136 406l-72 -406h-167z" />
    <glyph glyph-name="nacute" unicode="&#x144;" horiz-adv-x="566" 
d="M226 588l139 142h194l-175 -142h-158zM6 0l93 525h154l-5 -46q61 58 143 58q73 0 109.5 -36.5t36.5 -103.5q0 -30 -5 -57l-60 -340h-181l58 329q2 10 2 25q0 34 -33 34q-43 0 -71 -50l-60 -338h-181z" />
    <glyph glyph-name="Ncommaaccent" unicode="&#x145;" horiz-adv-x="672" 
d="M19 0l120 680h178l129 -385l68 385h167l-120 -680h-167l-136 406l-72 -406h-167zM161 -263l11 60q37 0 53.5 9.5t21.5 33.5h-68l19 107h165l-13 -74q-15 -85 -50 -110.5t-139 -25.5z" />
    <glyph glyph-name="ncommaaccent" unicode="&#x146;" horiz-adv-x="566" 
d="M6 0l93 525h154l-5 -46q61 58 143 58q73 0 109.5 -36.5t36.5 -103.5q0 -30 -5 -57l-60 -340h-181l58 329q2 10 2 25q0 34 -33 34q-43 0 -71 -50l-60 -338h-181zM110 -263l11 60q37 0 53.5 9.5t21.5 33.5h-68l19 107h165l-13 -74q-15 -85 -50 -110.5t-139 -25.5z" />
    <glyph glyph-name="Ncaron" unicode="&#x147;" horiz-adv-x="672" 
d="M345 739l-103 142h142l46 -51l64 51h158l-153 -142h-154zM19 0l120 680h178l129 -385l68 385h167l-120 -680h-167l-136 406l-72 -406h-167z" />
    <glyph glyph-name="ncaron" unicode="&#x148;" horiz-adv-x="566" 
d="M265 588l-103 142h142l46 -51l64 51h158l-153 -142h-154zM6 0l93 525h154l-5 -46q61 58 143 58q73 0 109.5 -36.5t36.5 -103.5q0 -30 -5 -57l-60 -340h-181l58 329q2 10 2 25q0 34 -33 34q-43 0 -71 -50l-60 -338h-181z" />
    <glyph glyph-name="napostrophe" unicode="&#x149;" horiz-adv-x="677" 
d="M35 461l13 77q67 0 78 51l1 5h-69l24 136h165l-21 -120q-15 -82 -56 -115.5t-135 -33.5zM117 0l93 525h154l-5 -46q61 58 143 58q73 0 109.5 -36.5t36.5 -103.5q0 -30 -5 -57l-60 -340h-181l58 329q2 10 2 25q0 34 -33 34q-43 0 -71 -50l-60 -338h-181z" />
    <glyph glyph-name="Eng" unicode="&#x14a;" horiz-adv-x="672" 
d="M290 -182l24 134h36q20 0 29.5 8.5t13.5 33.5l1 6l-136 406l-72 -406h-167l120 680h178l129 -385l68 385h167l-125 -707q-15 -85 -53 -120t-114 -35h-99z" />
    <glyph glyph-name="eng" unicode="&#x14b;" horiz-adv-x="566" 
d="M203 -182l23 134h21q20 0 29.5 8.5t13.5 33.5l59 335q2 10 2 25q0 34 -33 34q-43 0 -71 -50l-60 -338h-181l93 525h154l-5 -46q61 58 143 58q73 0 109.5 -36.5t36.5 -103.5q0 -30 -5 -57l-65 -368q-15 -86 -55.5 -120t-125.5 -34h-83z" />
    <glyph glyph-name="Omacron" unicode="&#x14c;" horiz-adv-x="652" 
d="M255 753l20 114h316l-20 -114h-316zM287 -12q-129 0 -188.5 50t-59.5 154q0 42 7 81l26 148q25 143 101.5 207t218.5 64q129 0 188.5 -50t59.5 -154q0 -42 -7 -81l-26 -148q-25 -143 -101.5 -207t-218.5 -64zM306 139q54 0 79.5 29.5t38.5 103.5l24 136q6 34 6 58
q0 40 -18.5 57.5t-62.5 17.5q-54 0 -79.5 -29.5t-38.5 -103.5l-24 -136q-6 -35 -6 -58q0 -40 18.5 -57.5t62.5 -17.5z" />
    <glyph glyph-name="omacron" unicode="&#x14d;" horiz-adv-x="562" 
d="M183 602l20 114h316l-20 -114h-316zM242 -12q-219 0 -219 173q0 31 5 57l18 103q19 111 86 163.5t188 52.5q219 0 219 -173q0 -31 -5 -57l-18 -103q-19 -111 -86 -163.5t-188 -52.5zM257 125q34 0 52.5 20t27.5 70l17 96q4 28 4 37q0 52 -53 52q-34 0 -52.5 -20
t-27.5 -70l-17 -96q-4 -28 -4 -37q0 -52 53 -52z" />
    <glyph glyph-name="Obreve" unicode="&#x14e;" horiz-adv-x="652" 
d="M418 727q-74 0 -116 39t-42 98q0 11 1 17h112v-4q0 -46 54 -46q56 0 69 50h113q-14 -72 -66 -113t-125 -41zM287 -12q-129 0 -188.5 50t-59.5 154q0 42 7 81l26 148q25 143 101.5 207t218.5 64q129 0 188.5 -50t59.5 -154q0 -42 -7 -81l-26 -148q-25 -143 -101.5 -207
t-218.5 -64zM306 139q54 0 79.5 29.5t38.5 103.5l24 136q6 34 6 58q0 40 -18.5 57.5t-62.5 17.5q-54 0 -79.5 -29.5t-38.5 -103.5l-24 -136q-6 -35 -6 -58q0 -40 18.5 -57.5t62.5 -17.5z" />
    <glyph glyph-name="obreve" unicode="&#x14f;" horiz-adv-x="562" 
d="M346 576q-74 0 -116 39t-42 98q0 11 1 17h112v-4q0 -46 54 -46q56 0 69 50h113q-14 -72 -66 -113t-125 -41zM242 -12q-219 0 -219 173q0 31 5 57l18 103q19 111 86 163.5t188 52.5q219 0 219 -173q0 -31 -5 -57l-18 -103q-19 -111 -86 -163.5t-188 -52.5zM257 125
q34 0 52.5 20t27.5 70l17 96q4 28 4 37q0 52 -53 52q-34 0 -52.5 -20t-27.5 -70l-17 -96q-4 -28 -4 -37q0 -52 53 -52z" />
    <glyph glyph-name="Ohungarumlaut" unicode="&#x150;" horiz-adv-x="652" 
d="M206 739l114 142h178l-150 -142h-142zM428 739l114 142h178l-150 -142h-142zM287 -12q-129 0 -188.5 50t-59.5 154q0 42 7 81l26 148q25 143 101.5 207t218.5 64q129 0 188.5 -50t59.5 -154q0 -42 -7 -81l-26 -148q-25 -143 -101.5 -207t-218.5 -64zM306 139
q54 0 79.5 29.5t38.5 103.5l24 136q6 34 6 58q0 40 -18.5 57.5t-62.5 17.5q-54 0 -79.5 -29.5t-38.5 -103.5l-24 -136q-6 -35 -6 -58q0 -40 18.5 -57.5t62.5 -17.5z" />
    <glyph glyph-name="ohungarumlaut" unicode="&#x151;" horiz-adv-x="562" 
d="M134 588l114 142h178l-150 -142h-142zM356 588l114 142h178l-150 -142h-142zM242 -12q-219 0 -219 173q0 31 5 57l18 103q19 111 86 163.5t188 52.5q219 0 219 -173q0 -31 -5 -57l-18 -103q-19 -111 -86 -163.5t-188 -52.5zM257 125q34 0 52.5 20t27.5 70l17 96
q4 28 4 37q0 52 -53 52q-34 0 -52.5 -20t-27.5 -70l-17 -96q-4 -28 -4 -37q0 -52 53 -52z" />
    <glyph glyph-name="OE" unicode="&#x152;" horiz-adv-x="881" 
d="M270 0q-233 0 -233 193q0 35 8 81l25 142q25 139 98 201.5t212 62.5h527l-27 -149h-267l-20 -114h217l-25 -144h-218l-22 -124h278l-26 -149h-527zM315 144h45l70 392h-46q-64 0 -91 -28t-40 -102l-23 -130q-6 -34 -6 -56q0 -42 21 -59t70 -17z" />
    <glyph glyph-name="oe" unicode="&#x153;" horiz-adv-x="860" 
d="M226 -12q-203 0 -203 173q0 30 5 56l18 103q38 217 256 217q122 0 165 -67q57 67 173 67q97 0 148 -43.5t51 -129.5q0 -30 -5 -57l-16 -91h-301l-2 -14q-3 -18 -3 -34q0 -51 53 -51q55 0 69 50h173q-40 -179 -237 -179q-123 0 -166 67q-58 -67 -178 -67zM536 318h129l1 6
q4 22 4 35q0 49 -54 49q-66 0 -79 -84zM257 125q34 0 52.5 20t27.5 70l17 96q4 28 4 37q0 52 -53 52q-34 0 -52.5 -20t-27.5 -70l-17 -96q-4 -28 -4 -37q0 -52 53 -52z" />
    <glyph glyph-name="Racute" unicode="&#x154;" horiz-adv-x="633" 
d="M274 739l139 142h194l-175 -142h-158zM19 0l120 680h280q117 0 165.5 -42t48.5 -142q0 -191 -156 -242l94 -254h-197l-72 237h-57l-42 -237h-184zM270 381h81q47 0 72 25t25 72q0 32 -15 45t-55 13h-80z" />
    <glyph glyph-name="racute" unicode="&#x155;" horiz-adv-x="387" 
d="M152 588l139 142h194l-175 -142h-158zM6 0l93 525h154l-8 -79q22 47 54.5 68t81.5 21h46l-29 -162h-29q-53 0 -83.5 -19t-47.5 -62l-51 -292h-181z" />
    <glyph glyph-name="Rcommaaccent" unicode="&#x156;" horiz-adv-x="633" 
d="M19 0l120 680h280q117 0 165.5 -42t48.5 -142q0 -191 -156 -242l94 -254h-197l-72 237h-57l-42 -237h-184zM270 381h81q47 0 72 25t25 72q0 32 -15 45t-55 13h-80zM153 -263l11 60q37 0 53.5 9.5t21.5 33.5h-68l19 107h165l-13 -74q-15 -85 -50 -110.5t-139 -25.5z" />
    <glyph glyph-name="rcommaaccent" unicode="&#x157;" horiz-adv-x="387" 
d="M6 0l93 525h154l-8 -79q22 47 54.5 68t81.5 21h46l-29 -162h-29q-53 0 -83.5 -19t-47.5 -62l-51 -292h-181zM-32 -263l11 60q37 0 53.5 9.5t21.5 33.5h-68l19 107h165l-13 -74q-15 -85 -50 -110.5t-139 -25.5z" />
    <glyph glyph-name="Rcaron" unicode="&#x158;" horiz-adv-x="633" 
d="M313 739l-103 142h142l46 -51l64 51h158l-153 -142h-154zM19 0l120 680h280q117 0 165.5 -42t48.5 -142q0 -191 -156 -242l94 -254h-197l-72 237h-57l-42 -237h-184zM270 381h81q47 0 72 25t25 72q0 32 -15 45t-55 13h-80z" />
    <glyph glyph-name="rcaron" unicode="&#x159;" horiz-adv-x="387" 
d="M191 588l-103 142h142l46 -51l64 51h158l-153 -142h-154zM6 0l93 525h154l-8 -79q22 47 54.5 68t81.5 21h46l-29 -162h-29q-53 0 -83.5 -19t-47.5 -62l-51 -292h-181z" />
    <glyph glyph-name="Sacute" unicode="&#x15a;" horiz-adv-x="572" 
d="M249 739l139 142h194l-175 -142h-158zM246 -12q-121 0 -177 41t-56 126q0 22 5 57h180q-3 -18 -3 -32q0 -30 16 -42.5t50 -12.5q87 0 87 78q0 24 -23.5 39.5t-81.5 29.5q-92 23 -133 61.5t-41 103.5q0 124 75 189.5t209 65.5q223 0 223 -165q0 -20 -5 -52h-179q3 17 3 30
q0 50 -55 50q-38 0 -60 -21t-22 -53q0 -25 23 -40t82 -29q92 -23 133 -61.5t41 -104.5q0 -258 -291 -258z" />
    <glyph glyph-name="sacute" unicode="&#x15b;" horiz-adv-x="512" 
d="M197 588l139 142h194l-175 -142h-158zM216 -12q-211 0 -211 143q0 18 3 39h172q-2 -12 -2 -22q0 -42 51 -42q61 0 61 44q0 21 -20 33t-69 21q-81 15 -117 48t-36 94q0 92 67 141.5t182 49.5q100 0 150.5 -37.5t50.5 -104.5q0 -17 -3 -33h-172q2 12 2 21q0 36 -39 36
q-27 0 -41.5 -13.5t-14.5 -34.5q0 -19 19 -30t67 -20q83 -16 119 -49t36 -95q0 -96 -67 -142.5t-188 -46.5z" />
    <glyph glyph-name="Scircumflex" unicode="&#x15c;" horiz-adv-x="572" 
d="M156 739l153 142h154l103 -142h-142l-46 51l-64 -51h-158zM246 -12q-121 0 -177 41t-56 126q0 22 5 57h180q-3 -18 -3 -32q0 -30 16 -42.5t50 -12.5q87 0 87 78q0 24 -23.5 39.5t-81.5 29.5q-92 23 -133 61.5t-41 103.5q0 124 75 189.5t209 65.5q223 0 223 -165
q0 -20 -5 -52h-179q3 17 3 30q0 50 -55 50q-38 0 -60 -21t-22 -53q0 -25 23 -40t82 -29q92 -23 133 -61.5t41 -104.5q0 -258 -291 -258z" />
    <glyph glyph-name="scircumflex" unicode="&#x15d;" horiz-adv-x="512" 
d="M104 588l153 142h154l103 -142h-142l-46 51l-64 -51h-158zM216 -12q-211 0 -211 143q0 18 3 39h172q-2 -12 -2 -22q0 -42 51 -42q61 0 61 44q0 21 -20 33t-69 21q-81 15 -117 48t-36 94q0 92 67 141.5t182 49.5q100 0 150.5 -37.5t50.5 -104.5q0 -17 -3 -33h-172
q2 12 2 21q0 36 -39 36q-27 0 -41.5 -13.5t-14.5 -34.5q0 -19 19 -30t67 -20q83 -16 119 -49t36 -95q0 -96 -67 -142.5t-188 -46.5z" />
    <glyph glyph-name="Scedilla" unicode="&#x15e;" horiz-adv-x="572" 
d="M571 475h-179q3 17 3 30q0 50 -55 50q-38 0 -60 -21t-22 -53q0 -25 23 -40t82 -29q92 -23 133 -61.5t41 -104.5q0 -246 -266 -257l-22 -41q100 -1 100 -74q0 -88 -151 -88q-67 0 -128 24l34 61q34 -17 63 -17q45 0 45 26q0 11 -11.5 15.5t-41.5 4.5h-13l51 90
q-95 8 -139.5 49t-44.5 116q0 22 5 57h180q-3 -18 -3 -32q0 -30 16 -42.5t50 -12.5q87 0 87 78q0 24 -23.5 39.5t-81.5 29.5q-92 23 -133 61.5t-41 103.5q0 124 75 189.5t209 65.5q223 0 223 -165q0 -20 -5 -52z" />
    <glyph glyph-name="scedilla" unicode="&#x15f;" horiz-adv-x="512" 
d="M495 362h-172q2 12 2 21q0 36 -39 36q-27 0 -41.5 -13.5t-14.5 -34.5q0 -19 19 -30t67 -20q83 -16 119 -49t36 -95q0 -180 -230 -188l-22 -41q100 -1 100 -74q0 -88 -151 -88q-67 0 -128 24l34 61q34 -17 63 -17q45 0 45 26q0 11 -11.5 15.5t-41.5 4.5h-13l51 90
q-162 15 -162 141q0 18 3 39h172q-2 -12 -2 -22q0 -42 51 -42q61 0 61 44q0 21 -20 33t-69 21q-81 15 -117 48t-36 94q0 92 67 141.5t182 49.5q100 0 150.5 -37.5t50.5 -104.5q0 -17 -3 -33z" />
    <glyph glyph-name="Scaron" unicode="&#x160;" horiz-adv-x="572" 
d="M288 739l-103 142h142l46 -51l64 51h158l-153 -142h-154zM246 -12q-121 0 -177 41t-56 126q0 22 5 57h180q-3 -18 -3 -32q0 -30 16 -42.5t50 -12.5q87 0 87 78q0 24 -23.5 39.5t-81.5 29.5q-92 23 -133 61.5t-41 103.5q0 124 75 189.5t209 65.5q223 0 223 -165
q0 -20 -5 -52h-179q3 17 3 30q0 50 -55 50q-38 0 -60 -21t-22 -53q0 -25 23 -40t82 -29q92 -23 133 -61.5t41 -104.5q0 -258 -291 -258z" />
    <glyph glyph-name="scaron" unicode="&#x161;" horiz-adv-x="512" 
d="M236 588l-103 142h142l46 -51l64 51h158l-153 -142h-154zM216 -12q-211 0 -211 143q0 18 3 39h172q-2 -12 -2 -22q0 -42 51 -42q61 0 61 44q0 21 -20 33t-69 21q-81 15 -117 48t-36 94q0 92 67 141.5t182 49.5q100 0 150.5 -37.5t50.5 -104.5q0 -17 -3 -33h-172
q2 12 2 21q0 36 -39 36q-27 0 -41.5 -13.5t-14.5 -34.5q0 -19 19 -30t67 -20q83 -16 119 -49t36 -95q0 -96 -67 -142.5t-188 -46.5z" />
    <glyph glyph-name="uni0162" unicode="&#x162;" horiz-adv-x="538" 
d="M80 680h526l-27 -152h-171l-93 -528h-51l-36 -52q94 -4 94 -74q0 -88 -151 -88q-67 0 -128 24l34 61q34 -17 63 -17q45 0 45 26q0 11 -11.5 15.5t-41.5 4.5h-13l70 100h-58l93 528h-171z" />
    <glyph glyph-name="uni0163" unicode="&#x163;" horiz-adv-x="375" 
d="M281 396l-38 -211q-2 -10 -2 -21q0 -30 38 -30h57l-23 -134h-122l-29 -52q100 -1 100 -74q0 -88 -151 -88q-67 0 -128 24l34 61q34 -17 63 -17q45 0 45 26q0 11 -11.5 15.5t-41.5 4.5h-13l63 111q-66 25 -66 112q0 27 5 56l38 217h-67l22 129h72l31 127h169l-23 -127h98
l-22 -129h-98z" />
    <glyph glyph-name="Tcaron" unicode="&#x164;" horiz-adv-x="538" 
d="M278 739l-103 142h142l46 -51l64 51h158l-153 -142h-154zM131 0l93 528h-171l27 152h526l-27 -152h-171l-93 -528h-184z" />
    <glyph glyph-name="tcaron" unicode="&#x165;" horiz-adv-x="375" 
d="M332 556l75 229h163l-125 -229h-113zM193 0q-70 0 -103.5 30t-33.5 93q0 27 5 56l38 217h-67l22 129h72l31 127h169l-23 -127h98l-22 -129h-98l-38 -211q-2 -10 -2 -21q0 -30 38 -30h57l-23 -134h-120z" />
    <glyph glyph-name="Tbar" unicode="&#x166;" horiz-adv-x="538" 
d="M579 528h-171l-22 -124h114l-25 -144h-114l-46 -260h-184l46 260h-114l25 144h114l22 124h-171l27 152h526z" />
    <glyph glyph-name="tbar" unicode="&#x167;" horiz-adv-x="375" 
d="M379 396h-98l-11 -60h87l-18 -102h-87l-9 -49q-2 -10 -2 -21q0 -30 38 -30h57l-23 -134h-120q-70 0 -103.5 30t-33.5 93q0 27 5 56l10 55h-63l18 102h62l11 60h-67l22 129h72l31 127h169l-23 -127h98z" />
    <glyph glyph-name="Utilde" unicode="&#x168;" horiz-adv-x="629" 
d="M472 728q-41 0 -86 28q-23 15 -37 15q-24 0 -35 -37h-93q30 153 130 153q41 0 86 -28q23 -15 37 -15q24 0 35 37h93q-30 -153 -130 -153zM277 -12q-121 0 -177 43.5t-56 135.5q0 32 7 71l78 442h184l-78 -442q-4 -23 -4 -41q0 -31 15.5 -44.5t50.5 -13.5q44 0 66 22
t32 77l78 442h175l-80 -453q-22 -128 -90.5 -183.5t-200.5 -55.5z" />
    <glyph glyph-name="utilde" unicode="&#x169;" horiz-adv-x="570" 
d="M413 577q-41 0 -86 28q-23 15 -37 15q-24 0 -35 -37h-93q30 153 130 153q41 0 86 -28q23 -15 37 -15q24 0 35 37h93q-30 -153 -130 -153zM178 -12q-73 0 -111 36t-38 103q0 29 4 52l61 346h181l-58 -329q-2 -11 -2 -24q0 -35 35 -35q43 0 74 52l59 336h181l-93 -525h-153
l5 48q-60 -60 -145 -60z" />
    <glyph glyph-name="Umacron" unicode="&#x16a;" horiz-adv-x="629" 
d="M244 753l20 114h316l-20 -114h-316zM277 -12q-121 0 -177 43.5t-56 135.5q0 32 7 71l78 442h184l-78 -442q-4 -23 -4 -41q0 -31 15.5 -44.5t50.5 -13.5q44 0 66 22t32 77l78 442h175l-80 -453q-22 -128 -90.5 -183.5t-200.5 -55.5z" />
    <glyph glyph-name="umacron" unicode="&#x16b;" horiz-adv-x="570" 
d="M185 602l20 114h316l-20 -114h-316zM178 -12q-73 0 -111 36t-38 103q0 29 4 52l61 346h181l-58 -329q-2 -11 -2 -24q0 -35 35 -35q43 0 74 52l59 336h181l-93 -525h-153l5 48q-60 -60 -145 -60z" />
    <glyph glyph-name="Ubreve" unicode="&#x16c;" horiz-adv-x="629" 
d="M407 727q-74 0 -116 39t-42 98q0 11 1 17h112v-4q0 -46 54 -46q56 0 69 50h113q-14 -72 -66 -113t-125 -41zM277 -12q-121 0 -177 43.5t-56 135.5q0 32 7 71l78 442h184l-78 -442q-4 -23 -4 -41q0 -31 15.5 -44.5t50.5 -13.5q44 0 66 22t32 77l78 442h175l-80 -453
q-22 -128 -90.5 -183.5t-200.5 -55.5z" />
    <glyph glyph-name="ubreve" unicode="&#x16d;" horiz-adv-x="570" 
d="M348 576q-74 0 -116 39t-42 98q0 11 1 17h112v-4q0 -46 54 -46q56 0 69 50h113q-14 -72 -66 -113t-125 -41zM178 -12q-73 0 -111 36t-38 103q0 29 4 52l61 346h181l-58 -329q-2 -11 -2 -24q0 -35 35 -35q43 0 74 52l59 336h181l-93 -525h-153l5 48q-60 -60 -145 -60z" />
    <glyph glyph-name="Uring" unicode="&#x16e;" horiz-adv-x="629" 
d="M403 718q-54 0 -88 32.5t-34 84.5q0 56 39.5 92.5t99.5 36.5q54 0 88 -32.5t34 -84.5q0 -56 -39.5 -92.5t-99.5 -36.5zM407 798q20 0 31.5 14t11.5 37q0 35 -34 35q-20 0 -31.5 -14t-11.5 -37q0 -35 34 -35zM277 -12q-121 0 -177 43.5t-56 135.5q0 32 7 71l78 442h184
l-78 -442q-4 -23 -4 -41q0 -31 15.5 -44.5t50.5 -13.5q44 0 66 22t32 77l78 442h175l-80 -453q-22 -128 -90.5 -183.5t-200.5 -55.5z" />
    <glyph glyph-name="uring" unicode="&#x16f;" horiz-adv-x="570" 
d="M344 567q-54 0 -88 32.5t-34 84.5q0 56 39.5 92.5t99.5 36.5q54 0 88 -32.5t34 -84.5q0 -56 -39.5 -92.5t-99.5 -36.5zM348 647q20 0 31.5 14t11.5 37q0 35 -34 35q-20 0 -31.5 -14t-11.5 -37q0 -35 34 -35zM178 -12q-73 0 -111 36t-38 103q0 29 4 52l61 346h181
l-58 -329q-2 -11 -2 -24q0 -35 35 -35q43 0 74 52l59 336h181l-93 -525h-153l5 48q-60 -60 -145 -60z" />
    <glyph glyph-name="Uhungarumlaut" unicode="&#x170;" horiz-adv-x="629" 
d="M195 739l114 142h178l-150 -142h-142zM417 739l114 142h178l-150 -142h-142zM277 -12q-121 0 -177 43.5t-56 135.5q0 32 7 71l78 442h184l-78 -442q-4 -23 -4 -41q0 -31 15.5 -44.5t50.5 -13.5q44 0 66 22t32 77l78 442h175l-80 -453q-22 -128 -90.5 -183.5t-200.5 -55.5
z" />
    <glyph glyph-name="uhungarumlaut" unicode="&#x171;" horiz-adv-x="570" 
d="M136 588l114 142h178l-150 -142h-142zM358 588l114 142h178l-150 -142h-142zM178 -12q-73 0 -111 36t-38 103q0 29 4 52l61 346h181l-58 -329q-2 -11 -2 -24q0 -35 35 -35q43 0 74 52l59 336h181l-93 -525h-153l5 48q-60 -60 -145 -60z" />
    <glyph glyph-name="Uogonek" unicode="&#x172;" horiz-adv-x="629" 
d="M473 680h175l-80 -453q-17 -98 -60 -152.5t-119 -74.5q-91 -30 -91 -80q0 -30 36 -30q24 0 53 13l-18 -99q-25 -12 -72 -12q-133 0 -133 90q0 63 67 108q-96 7 -141.5 50.5t-45.5 126.5q0 32 7 71l78 442h184l-78 -442q-4 -23 -4 -41q0 -31 15.5 -44.5t50.5 -13.5
q44 0 66 22t32 77z" />
    <glyph glyph-name="uogonek" unicode="&#x173;" horiz-adv-x="570" 
d="M433 0q-68 -36 -68 -80q0 -30 36 -30q24 0 53 13l-18 -99q-26 -12 -72 -12q-133 0 -133 90q0 69 87 121l5 45q-60 -60 -145 -60q-73 0 -111 36t-38 103q0 29 4 52l61 346h181l-58 -329q-2 -11 -2 -24q0 -35 35 -35q43 0 74 52l59 336h181l-93 -525h-38z" />
    <glyph glyph-name="Wcircumflex" unicode="&#x174;" horiz-adv-x="891" 
d="M323 739l153 142h154l103 -142h-142l-46 51l-64 -51h-158zM114 0l-37 680h186l7 -430l177 430h149l25 -430l159 430h182l-277 -680h-189l-23 402l-165 -402h-194z" />
    <glyph glyph-name="wcircumflex" unicode="&#x175;" horiz-adv-x="812" 
d="M256 588l153 142h154l103 -142h-142l-46 51l-64 -51h-158zM93 0l-46 525h183l6 -325l140 325h151l27 -325l119 325h184l-230 -525h-195l-23 278l-121 -278h-195z" />
    <glyph glyph-name="Ycircumflex" unicode="&#x176;" horiz-adv-x="549" 
d="M151 739l153 142h154l103 -142h-142l-46 51l-64 -51h-158zM135 0l51 287l-140 393h199l64 -212l138 212h204l-284 -403l-49 -277h-183z" />
    <glyph glyph-name="ycircumflex" unicode="&#x177;" horiz-adv-x="512" 
d="M106 588l153 142h154l103 -142h-142l-46 51l-64 -51h-158zM-16 -182l23 134h70q19 0 27.5 5.5t17.5 24.5l9 18l-88 525h188l24 -297l120 297h186l-270 -567q-42 -87 -81.5 -113.5t-126.5 -26.5h-99z" />
    <glyph glyph-name="Ydieresis" unicode="&#x178;" horiz-adv-x="549" 
d="M170 739l25 142h155l-25 -142h-155zM391 739l25 142h155l-25 -142h-155zM135 0l51 287l-140 393h199l64 -212l138 212h204l-284 -403l-49 -277h-183z" />
    <glyph glyph-name="Zacute" unicode="&#x179;" horiz-adv-x="564" 
d="M256 739l139 142h194l-175 -142h-158zM-22 0l24 135l347 396h-260l26 149h490l-24 -134l-348 -397h287l-26 -149h-516z" />
    <glyph glyph-name="zacute" unicode="&#x17a;" horiz-adv-x="476" 
d="M185 588l139 142h194l-175 -142h-158zM-28 0l20 118l254 274h-184l23 133h414l-20 -118l-254 -274h210l-23 -133h-440z" />
    <glyph glyph-name="Zdotaccent" unicode="&#x17b;" horiz-adv-x="564" 
d="M287 739l25 142h165l-25 -142h-165zM-22 0l24 135l347 396h-260l26 149h490l-24 -134l-348 -397h287l-26 -149h-516z" />
    <glyph glyph-name="zdotaccent" unicode="&#x17c;" horiz-adv-x="476" 
d="M216 588l25 142h165l-25 -142h-165zM-28 0l20 118l254 274h-184l23 133h414l-20 -118l-254 -274h210l-23 -133h-440z" />
    <glyph glyph-name="Zcaron" unicode="&#x17d;" horiz-adv-x="564" 
d="M295 739l-103 142h142l46 -51l64 51h158l-153 -142h-154zM-22 0l24 135l347 396h-260l26 149h490l-24 -134l-348 -397h287l-26 -149h-516z" />
    <glyph glyph-name="zcaron" unicode="&#x17e;" horiz-adv-x="476" 
d="M224 588l-103 142h142l46 -51l64 51h158l-153 -142h-154zM-28 0l20 118l254 274h-184l23 133h414l-20 -118l-254 -274h210l-23 -133h-440z" />
    <glyph glyph-name="florin" unicode="&#x192;" horiz-adv-x="594" 
d="M-13 -60l41 133h54q28 0 43 13.5t25 47.5l59 202h-100l24 134h116l17 58q28 97 74.5 134.5t136.5 37.5h139l-39 -133h-65q-28 0 -43.5 -14t-25.5 -47l-11 -36h112l-24 -134h-127l-67 -224q-29 -97 -75 -134.5t-135 -37.5h-129z" />
    <glyph glyph-name="Aringacute" unicode="&#x1fa;" horiz-adv-x="625" 
d="M327 986l139 142h194l-175 -142h-158zM406 714q-54 0 -88 32.5t-34 84.5q0 56 39.5 92.5t99.5 36.5q54 0 88 -32.5t34 -84.5q0 -56 -39.5 -92.5t-99.5 -36.5zM410 794q20 0 31.5 14t11.5 37q0 35 -34 35q-20 0 -31.5 -14t-11.5 -37q0 -35 34 -35zM-46 0l334 680h197
l94 -680h-190l-11 121h-182l-55 -121h-187zM257 263h110l-16 221z" />
    <glyph glyph-name="aringacute" unicode="&#x1fb;" horiz-adv-x="534" 
d="M250 835l139 142h194l-175 -142h-158zM329 563q-54 0 -88 32.5t-34 84.5q0 56 39.5 92.5t99.5 36.5q54 0 88 -32.5t34 -84.5q0 -56 -39.5 -92.5t-99.5 -36.5zM333 643q20 0 31.5 14t11.5 37q0 35 -34 35q-20 0 -31.5 -14t-11.5 -37q0 -35 34 -35zM147 -12
q-145 0 -145 142q0 95 62.5 143t175.5 48h79l3 16q4 23 4 32q0 38 -41 38q-46 0 -61 -51h-172q22 96 81.5 138.5t169.5 42.5q106 0 155 -37t49 -117q0 -27 -5 -53l-58 -330h-154l5 53q-57 -65 -148 -65zM221 118q39 0 69 40l13 69h-40q-85 0 -85 -64q0 -45 43 -45z" />
    <glyph glyph-name="AEacute" unicode="&#x1fc;" horiz-adv-x="916" 
d="M439 739l139 142h194l-175 -142h-158zM-74 0l485 680h531l-27 -149h-267l-21 -117h218l-26 -144h-217l-22 -121h278l-26 -149h-462l21 121h-178l-86 -121h-201zM306 263h110l44 246z" />
    <glyph glyph-name="aeacute" unicode="&#x1fd;" horiz-adv-x="825" 
d="M349 588l139 142h194l-175 -142h-158zM165 -12q-162 0 -162 143q0 95 62.5 142.5t175.5 47.5h80l3 18q3 15 3 27q0 41 -41 41q-46 0 -61 -51h-172q38 181 233 181q114 0 156 -60q56 60 165 60q197 0 197 -173q0 -30 -5 -57l-16 -91h-301l-2 -14q-3 -18 -3 -34
q0 -51 53 -51q55 0 69 50h173q-20 -95 -83 -137t-170 -42q-140 0 -191 69q-62 -69 -163 -69zM501 318h129l1 6q4 20 4 35q0 49 -54 49q-35 0 -53.5 -20.5t-25.5 -63.5zM222 118q43 0 75 48q0 23 5 49l2 12h-40q-42 0 -63.5 -17t-21.5 -47q0 -45 43 -45z" />
    <glyph glyph-name="Oslashacute" unicode="&#x1fe;" horiz-adv-x="652" 
d="M629 881l-175 -142h-158l139 142h194zM670 625l-44 -48q14 -39 14 -89q0 -42 -7 -81l-26 -148q-25 -143 -101.5 -207t-218.5 -64q-110 0 -171 38l-35 -38l-72 67l44 48q-14 39 -14 89q0 42 7 81l26 148q25 143 101.5 207t218.5 64q111 0 172 -38l35 38zM255 408l-19 -108
l203 220q-18 21 -66 21q-54 0 -79.5 -29.5t-38.5 -103.5zM424 272l19 107l-203 -219q20 -21 66 -21q54 0 79.5 29.5t38.5 103.5z" />
    <glyph glyph-name="oslashacute" unicode="&#x1ff;" horiz-adv-x="562" 
d="M557 730l-175 -142h-158l139 142h194zM563 474l-37 -36q13 -30 13 -74q0 -31 -5 -57l-18 -103q-19 -111 -86 -163.5t-188 -52.5q-95 0 -149 33l-34 -33l-60 63l37 36q-13 30 -13 74q0 31 5 57l18 103q19 111 86 163.5t188 52.5q95 0 149 -33l34 33zM225 310l-9 -50
l131 126q-13 14 -42 14q-34 0 -52.5 -20t-27.5 -70zM337 215l9 50l-131 -126q13 -14 42 -14q34 0 52.5 20t27.5 70z" />
    <glyph glyph-name="Scommaaccent" unicode="&#x218;" horiz-adv-x="572" 
d="M246 -12q-121 0 -177 41t-56 126q0 22 5 57h180q-3 -18 -3 -32q0 -30 16 -42.5t50 -12.5q87 0 87 78q0 24 -23.5 39.5t-81.5 29.5q-92 23 -133 61.5t-41 103.5q0 124 75 189.5t209 65.5q223 0 223 -165q0 -20 -5 -52h-179q3 17 3 30q0 50 -55 50q-38 0 -60 -21t-22 -53
q0 -25 23 -40t82 -29q92 -23 133 -61.5t41 -104.5q0 -258 -291 -258zM121 -263l11 60q37 0 53.5 9.5t21.5 33.5h-68l19 107h165l-13 -74q-15 -85 -50 -110.5t-139 -25.5z" />
    <glyph glyph-name="scommaaccent" unicode="&#x219;" horiz-adv-x="512" 
d="M216 -12q-211 0 -211 143q0 18 3 39h172q-2 -12 -2 -22q0 -42 51 -42q61 0 61 44q0 21 -20 33t-69 21q-81 15 -117 48t-36 94q0 92 67 141.5t182 49.5q100 0 150.5 -37.5t50.5 -104.5q0 -17 -3 -33h-172q2 12 2 21q0 36 -39 36q-27 0 -41.5 -13.5t-14.5 -34.5
q0 -19 19 -30t67 -20q83 -16 119 -49t36 -95q0 -96 -67 -142.5t-188 -46.5zM91 -263l11 60q37 0 53.5 9.5t21.5 33.5h-68l19 107h165l-13 -74q-15 -85 -50 -110.5t-139 -25.5z" />
    <glyph glyph-name="uni021A" unicode="&#x21a;" horiz-adv-x="538" 
d="M131 0l93 528h-171l27 152h526l-27 -152h-171l-93 -528h-184zM94 -263l11 60q37 0 53.5 9.5t21.5 33.5h-68l19 107h165l-13 -74q-15 -85 -50 -110.5t-139 -25.5z" />
    <glyph glyph-name="uni021B" unicode="&#x21b;" horiz-adv-x="375" 
d="M193 0q-70 0 -103.5 30t-33.5 93q0 27 5 56l38 217h-67l22 129h72l31 127h169l-23 -127h98l-22 -129h-98l-38 -211q-2 -10 -2 -21q0 -30 38 -30h57l-23 -134h-120zM34 -263l11 60q37 0 53.5 9.5t21.5 33.5h-68l19 107h165l-13 -74q-15 -85 -50 -110.5t-139 -25.5z" />
    <glyph glyph-name="uni0237" unicode="&#x237;" horiz-adv-x="286" 
d="M-84 -182l23 134h22q21 0 30 9t14 33l94 531h181l-98 -553q-15 -85 -52.5 -119.5t-114.5 -34.5h-99z" />
    <glyph glyph-name="uni02BC" unicode="&#x2bc;" horiz-adv-x="205" 
d="M55 461l13 77q67 0 78 51l1 5h-69l24 136h165l-21 -120q-15 -82 -56 -115.5t-135 -33.5z" />
    <glyph glyph-name="circumflex" unicode="&#x2c6;" horiz-adv-x="500" 
d="M100 588l153 142h154l103 -142h-142l-46 51l-64 -51h-158z" />
    <glyph glyph-name="caron" unicode="&#x2c7;" horiz-adv-x="500" 
d="M232 588l-103 142h142l46 -51l64 51h158l-153 -142h-154z" />
    <glyph glyph-name="uni02C9" unicode="&#x2c9;" horiz-adv-x="500" 
d="M152 602l20 114h316l-20 -114h-316z" />
    <glyph glyph-name="breve" unicode="&#x2d8;" horiz-adv-x="500" 
d="M315 576q-74 0 -116 39t-42 98q0 11 1 17h112v-4q0 -46 54 -46q56 0 69 50h113q-14 -72 -66 -113t-125 -41z" />
    <glyph glyph-name="dotaccent" unicode="&#x2d9;" horiz-adv-x="500" 
d="M224 588l25 142h165l-25 -142h-165z" />
    <glyph glyph-name="ring" unicode="&#x2da;" horiz-adv-x="500" 
d="M317 567q-54 0 -88 32.5t-34 84.5q0 56 39.5 92.5t99.5 36.5q54 0 88 -32.5t34 -84.5q0 -56 -39.5 -92.5t-99.5 -36.5zM321 647q20 0 31.5 14t11.5 37q0 35 -34 35q-20 0 -31.5 -14t-11.5 -37q0 -35 34 -35z" />
    <glyph glyph-name="ogonek" unicode="&#x2db;" horiz-adv-x="500" 
d="M207 -208q-133 0 -133 90q0 101 190 168l47 -34q-103 -41 -103 -96q0 -30 36 -30q24 0 53 13l-18 -99q-25 -12 -72 -12z" />
    <glyph glyph-name="tilde" unicode="&#x2dc;" horiz-adv-x="500" 
d="M380 577q-41 0 -86 28q-23 15 -37 15q-24 0 -35 -37h-93q30 153 130 153q41 0 86 -28q23 -15 37 -15q24 0 35 37h93q-30 -153 -130 -153z" />
    <glyph glyph-name="hungarumlaut" unicode="&#x2dd;" horiz-adv-x="500" 
d="M103 588l114 142h178l-150 -142h-142zM325 588l114 142h178l-150 -142h-142z" />
    <glyph glyph-name="gravecomb" unicode="&#x300;" horiz-adv-x="0" 
d="M21 588l-125 142h178l89 -142h-142z" />
    <glyph glyph-name="acutecomb" unicode="&#x301;" horiz-adv-x="0" 
d="M-57 588l139 142h194l-175 -142h-158z" />
    <glyph glyph-name="uni0302" unicode="&#x302;" horiz-adv-x="0" 
d="M-150 588l153 142h154l103 -142h-142l-46 51l-64 -51h-158z" />
    <glyph glyph-name="tildecomb" unicode="&#x303;" horiz-adv-x="0" 
d="M130 577q-41 0 -86 28q-23 15 -37 15q-24 0 -35 -37h-93q30 153 130 153q41 0 86 -28q23 -15 37 -15q24 0 35 37h93q-30 -153 -130 -153z" />
    <glyph glyph-name="uni0304" unicode="&#x304;" horiz-adv-x="0" 
d="M-98 602l20 114h316l-20 -114h-316z" />
    <glyph glyph-name="uni0306" unicode="&#x306;" horiz-adv-x="0" 
d="M65 576q-74 0 -116 39t-42 98q0 11 1 17h112v-4q0 -46 54 -46q56 0 69 50h113q-14 -72 -66 -113t-125 -41z" />
    <glyph glyph-name="uni0307" unicode="&#x307;" horiz-adv-x="0" 
d="M-26 588l25 142h165l-25 -142h-165z" />
    <glyph glyph-name="uni0308" unicode="&#x308;" horiz-adv-x="0" 
d="M-131 588l25 142h155l-25 -142h-155zM90 588l25 142h155l-25 -142h-155z" />
    <glyph glyph-name="uni030A" unicode="&#x30a;" horiz-adv-x="0" 
d="M67 567q-54 0 -88 32.5t-34 84.5q0 56 39.5 92.5t99.5 36.5q54 0 88 -32.5t34 -84.5q0 -56 -39.5 -92.5t-99.5 -36.5zM71 647q20 0 31.5 14t11.5 37q0 35 -34 35q-20 0 -31.5 -14t-11.5 -37q0 -35 34 -35z" />
    <glyph glyph-name="uni030B" unicode="&#x30b;" horiz-adv-x="0" 
d="M-147 588l114 142h178l-150 -142h-142zM75 588l114 142h178l-150 -142h-142z" />
    <glyph glyph-name="uni030C" unicode="&#x30c;" horiz-adv-x="0" 
d="M-18 588l-103 142h142l46 -51l64 51h158l-153 -142h-154z" />
    <glyph glyph-name="uni0312" unicode="&#x312;" horiz-adv-x="0" 
d="M-27 578l13 74q15 85 50 110.5t139 25.5l-11 -60q-37 0 -53.5 -9.5t-21.5 -33.5h68l-19 -107h-165z" />
    <glyph glyph-name="uni0326" unicode="&#x326;" horiz-adv-x="0" 
d="M-175 -263l11 60q37 0 53.5 9.5t21.5 33.5h-68l19 107h165l-13 -74q-15 -85 -50 -110.5t-139 -25.5z" />
    <glyph glyph-name="uni0327" unicode="&#x327;" horiz-adv-x="0" 
d="M-98 -214q-67 0 -128 24l34 61q34 -17 63 -17q45 0 45 26q0 11 -11.5 15.5t-41.5 4.5h-13l65 115h75l-37 -67q100 -1 100 -74q0 -88 -151 -88z" />
    <glyph glyph-name="uni0328" unicode="&#x328;" horiz-adv-x="0" 
d="M-43 -208q-133 0 -133 90q0 101 190 168l47 -34q-103 -41 -103 -96q0 -30 36 -30q24 0 53 13l-18 -99q-25 -12 -72 -12z" />
    <glyph glyph-name="uni0394" unicode="&#x394;" horiz-adv-x="615" 
d="M-46 0l329 680h197l89 -680h-615zM204 148h165l-24 331z" />
    <glyph glyph-name="uni03A9" unicode="&#x3a9;" horiz-adv-x="652" 
d="M3 0l26 148h77q-54 44 -54 133q0 30 6 63l13 74q25 145 101 209.5t220 64.5q129 0 189 -49.5t60 -151.5q0 -40 -8 -85l-13 -74q-24 -131 -101 -184h64l-26 -148h-242l24 135q36 16 56.5 48t30.5 91l24 136q6 34 6 52q0 42 -19.5 60.5t-61.5 18.5q-52 0 -80 -30t-41 -101
l-24 -136q-6 -35 -6 -56q0 -61 45 -83l-24 -135h-242z" />
    <glyph glyph-name="uni03BC" unicode="&#x3bc;" horiz-adv-x="574" 
d="M-26 -182l125 707h181l-59 -331q-2 -16 -2 -20q0 -37 34 -37q44 0 75 52l59 336h181l-93 -525h-153l5 48q-60 -60 -139 -60h-3l-30 -170h-181z" />
    <glyph glyph-name="pi" unicode="&#x3c0;" horiz-adv-x="613" 
d="M34 0l69 391h-72l23 134h589l-23 -134h-73l-38 -215q-2 -14 -2 -18q0 -24 31 -24h36l-23 -134h-104q-64 0 -94.5 27t-30.5 85q0 30 5 56l39 223h-82l-69 -391h-181z" />
    <glyph glyph-name="Wgrave" unicode="&#x1e80;" horiz-adv-x="891" 
d="M494 739l-125 142h178l89 -142h-142zM114 0l-37 680h186l7 -430l177 430h149l25 -430l159 430h182l-277 -680h-189l-23 402l-165 -402h-194z" />
    <glyph glyph-name="wgrave" unicode="&#x1e81;" horiz-adv-x="812" 
d="M427 588l-125 142h178l89 -142h-142zM93 0l-46 525h183l6 -325l140 325h151l27 -325l119 325h184l-230 -525h-195l-23 278l-121 -278h-195z" />
    <glyph glyph-name="Wacute" unicode="&#x1e82;" horiz-adv-x="891" 
d="M416 739l139 142h194l-175 -142h-158zM114 0l-37 680h186l7 -430l177 430h149l25 -430l159 430h182l-277 -680h-189l-23 402l-165 -402h-194z" />
    <glyph glyph-name="wacute" unicode="&#x1e83;" horiz-adv-x="812" 
d="M349 588l139 142h194l-175 -142h-158zM93 0l-46 525h183l6 -325l140 325h151l27 -325l119 325h184l-230 -525h-195l-23 278l-121 -278h-195z" />
    <glyph glyph-name="Wdieresis" unicode="&#x1e84;" horiz-adv-x="891" 
d="M342 739l25 142h155l-25 -142h-155zM563 739l25 142h155l-25 -142h-155zM114 0l-37 680h186l7 -430l177 430h149l25 -430l159 430h182l-277 -680h-189l-23 402l-165 -402h-194z" />
    <glyph glyph-name="wdieresis" unicode="&#x1e85;" horiz-adv-x="812" 
d="M275 588l25 142h155l-25 -142h-155zM496 588l25 142h155l-25 -142h-155zM93 0l-46 525h183l6 -325l140 325h151l27 -325l119 325h184l-230 -525h-195l-23 278l-121 -278h-195z" />
    <glyph glyph-name="uni1E9E" unicode="&#x1e9e;" horiz-adv-x="658" 
d="M10 0l81 459q21 117 86.5 169t192.5 52h290l-22 -127l-137 -165q67 -13 96.5 -51.5t29.5 -109.5q0 -115 -72 -171t-219 -56h-98l25 142h80q99 0 99 74q0 29 -16.5 40t-59.5 11h-72l20 113l115 158h-61q-42 0 -64 -20t-30 -65l-80 -453h-184z" />
    <glyph glyph-name="Ygrave" unicode="&#x1ef2;" horiz-adv-x="549" 
d="M322 739l-125 142h178l89 -142h-142zM135 0l51 287l-140 393h199l64 -212l138 212h204l-284 -403l-49 -277h-183z" />
    <glyph glyph-name="ygrave" unicode="&#x1ef3;" horiz-adv-x="512" 
d="M277 588l-125 142h178l89 -142h-142zM-16 -182l23 134h70q19 0 27.5 5.5t17.5 24.5l9 18l-88 525h188l24 -297l120 297h186l-270 -567q-42 -87 -81.5 -113.5t-126.5 -26.5h-99z" />
    <glyph glyph-name="uni2002" unicode="&#x2002;" horiz-adv-x="500" 
 />
    <glyph glyph-name="uni2003" unicode="&#x2003;" horiz-adv-x="900" 
 />
    <glyph glyph-name="uni2007" unicode="&#x2007;" horiz-adv-x="594" 
 />
    <glyph glyph-name="uni2008" unicode="&#x2008;" horiz-adv-x="299" 
 />
    <glyph glyph-name="uni200B" unicode="&#x200b;" horiz-adv-x="0" 
 />
    <glyph glyph-name="figuredash" unicode="&#x2012;" horiz-adv-x="594" 
d="M24 231l24 136h534l-24 -136h-534z" />
    <glyph glyph-name="endash" unicode="&#x2013;" horiz-adv-x="500" 
d="M24 231l24 136h440l-24 -136h-440z" />
    <glyph glyph-name="emdash" unicode="&#x2014;" horiz-adv-x="900" 
d="M24 231l24 136h840l-24 -136h-840z" />
    <glyph glyph-name="quoteleft" unicode="&#x2018;" horiz-adv-x="277" 
d="M57 318l33 186q18 104 64.5 146t146.5 42l-15 -90q-66 0 -78 -73l-6 -33h65l-31 -178h-179z" />
    <glyph glyph-name="quoteright" unicode="&#x2019;" horiz-adv-x="277" 
d="M60 306l15 90q66 0 78 73l6 33h-65l31 178h179l-33 -186q-18 -104 -64.5 -146t-146.5 -42z" />
    <glyph glyph-name="quotesinglbase" unicode="&#x201a;" horiz-adv-x="277" 
d="M-29 -196l15 90q66 0 78 73l6 33h-65l31 178h179l-33 -186q-18 -104 -64.5 -146t-146.5 -42z" />
    <glyph glyph-name="quotedblleft" unicode="&#x201c;" horiz-adv-x="530" 
d="M57 318l33 186q18 104 64.5 146t146.5 42l-15 -90q-66 0 -78 -73l-6 -33h65l-31 -178h-179zM310 318l33 186q18 104 64.5 146t146.5 42l-15 -90q-66 0 -78 -73l-6 -33h65l-31 -178h-179z" />
    <glyph glyph-name="quotedblright" unicode="&#x201d;" horiz-adv-x="530" 
d="M60 306l15 90q66 0 78 73l6 33h-65l31 178h179l-33 -186q-18 -104 -64.5 -146t-146.5 -42zM313 306l15 90q66 0 78 73l6 33h-65l31 178h179l-33 -186q-18 -104 -64.5 -146t-146.5 -42z" />
    <glyph glyph-name="quotedblbase" unicode="&#x201e;" horiz-adv-x="530" 
d="M-28 -196l15 90q66 0 78 73l6 33h-65l31 178h179l-33 -186q-18 -104 -64.5 -146t-146.5 -42zM225 -196l15 90q66 0 78 73l6 33h-65l31 178h179l-33 -186q-18 -104 -64.5 -146t-146.5 -42z" />
    <glyph glyph-name="dagger" unicode="&#x2020;" horiz-adv-x="618" 
d="M144 -182l89 506l-191 -10l28 157l187 -10l39 219h172l-39 -219l193 10l-28 -157l-189 10l-89 -506h-172z" />
    <glyph glyph-name="daggerdbl" unicode="&#x2021;" horiz-adv-x="618" 
d="M145 -182l35 199l-192 -10l28 157l188 -10l33 190l-191 -10l27 157l188 -10l35 199h172l-35 -199l192 10l-27 -157l-189 10l-33 -190l192 10l-28 -157l-188 10l-35 -199h-172z" />
    <glyph glyph-name="bullet" unicode="&#x2022;" horiz-adv-x="500" 
d="M93 162l49 274h278l-49 -274h-278z" />
    <glyph glyph-name="ellipsis" unicode="&#x2026;" horiz-adv-x="900" 
d="M12 0l32 183h184l-32 -183h-184zM312 0l32 183h184l-32 -183h-184zM612 0l32 183h184l-32 -183h-184z" />
    <glyph glyph-name="perthousand" unicode="&#x2030;" horiz-adv-x="1154" 
d="M201 308q-69 0 -106.5 28t-37.5 81q0 15 3 31l20 113q12 70 54.5 100.5t114.5 30.5q69 0 106.5 -28t37.5 -81q0 -15 -3 -31l-20 -113q-12 -70 -54.5 -100.5t-114.5 -30.5zM83 -12l535 704h123l-535 -704h-123zM208 404q34 0 41 41l19 108q2 12 2 18q0 25 -28 25
q-34 0 -41 -41l-19 -108q-2 -12 -2 -18q0 -25 28 -25zM575 -12q-69 0 -106.5 28t-37.5 81q0 15 3 31l20 113q12 70 54.5 100.5t114.5 30.5q69 0 106.5 -28t37.5 -81q0 -15 -3 -31l-20 -113q-12 -70 -54.5 -100.5t-114.5 -30.5zM933 -12q-69 0 -106.5 28t-37.5 81q0 15 3 31
l20 113q12 70 54.5 100.5t114.5 30.5q69 0 106.5 -28t37.5 -81q0 -15 -3 -31l-20 -113q-12 -70 -54.5 -100.5t-114.5 -30.5zM582 84q34 0 41 41l19 108q2 12 2 18q0 25 -28 25q-34 0 -41 -41l-19 -108q-2 -12 -2 -18q0 -25 28 -25zM940 84q34 0 41 41l19 108q2 12 2 18
q0 25 -28 25q-34 0 -41 -41l-19 -108q-2 -12 -2 -18q0 -25 28 -25z" />
    <glyph glyph-name="guilsinglleft" unicode="&#x2039;" horiz-adv-x="313" 
d="M114 82l-102 187l158 175h175l-171 -190l93 -172h-153z" />
    <glyph glyph-name="guilsinglright" unicode="&#x203a;" horiz-adv-x="313" 
d="M-32 82l171 190l-93 172h153l102 -187l-158 -175h-175z" />
    <glyph glyph-name="fraction" unicode="&#x2044;" horiz-adv-x="118" 
d="M-233 -12l494 704h118l-494 -704h-118z" />
    <glyph glyph-name="uni2070" unicode="&#x2070;" 
d="M217 404q-70 0 -107 29t-37 82q0 13 3 29l27 153q22 125 169 125q70 0 107 -29t37 -82q0 -13 -3 -29l-27 -153q-22 -125 -169 -125zM225 500q34 0 41 41l25 142q1 6 1 15q0 28 -28 28q-34 0 -41 -41l-25 -142q-1 -6 -1 -15q0 -28 28 -28z" />
    <glyph glyph-name="uni2074" unicode="&#x2074;" 
d="M222 416l14 78h-174l18 97l205 219h128l-40 -227h36l-16 -89h-35l-14 -78h-122zM181 583h70l17 97z" />
    <glyph glyph-name="uni2075" unicode="&#x2075;" 
d="M215 404q-70 0 -105.5 27.5t-35.5 73.5q0 9 2 25h117v-4q0 -26 32 -26q24 0 35 15t11 37q0 33 -31 33q-24 0 -40 -14h-105l57 239h265l-17 -96h-171l-14 -57q29 16 68 16q109 0 109 -111q0 -74 -45 -116t-132 -42z" />
    <glyph glyph-name="uni2076" unicode="&#x2076;" 
d="M220 404q-71 0 -108 29.5t-37 80.5q0 14 3 30l26 147q23 131 171 131q71 0 107 -27t36 -74q0 -10 -2 -26h-115v6q0 25 -29 25q-41 0 -48 -47l-4 -25q28 17 68 17q105 0 105 -110q0 -74 -44.5 -115.5t-128.5 -41.5zM228 500q45 0 45 59q0 15 -5 21t-19 6q-29 0 -46 -26
l-3 -17q-1 -6 -1 -11q0 -32 29 -32z" />
    <glyph glyph-name="uni2077" unicode="&#x2077;" 
d="M96 416q41 193 191 295h-182l17 99h314l-18 -103q-83 -66 -127.5 -133t-64.5 -158h-130z" />
    <glyph glyph-name="uni2078" unicode="&#x2078;" 
d="M216 404q-151 0 -151 111q0 85 81 108v2q-40 21 -40 75q0 59 44 90.5t122 31.5q144 0 144 -108q0 -73 -70 -96v-2q46 -23 46 -84q0 -63 -46 -95.5t-130 -32.5zM253 656q20 0 31 13t11 34q0 29 -29 29q-43 0 -43 -45q0 -31 30 -31zM221 494q51 0 51 46q0 32 -35 32
q-49 0 -49 -49q0 -29 33 -29z" />
    <glyph glyph-name="uni2079" unicode="&#x2079;" 
d="M214 404q-71 0 -107 27t-36 74q0 10 2 26h115v-6q0 -25 29 -25q41 0 48 47l4 25q-28 -17 -68 -17q-105 0 -105 110q0 74 44.5 115.5t128.5 41.5q71 0 108 -29.5t37 -80.5q0 -14 -3 -30l-26 -147q-23 -131 -171 -131zM240 640q29 0 46 26l3 17q1 6 1 11q0 32 -29 32
q-45 0 -45 -59q0 -15 5 -21t19 -6z" />
    <glyph glyph-name="uni2080" unicode="&#x2080;" 
d="M123 -132q-70 0 -107 29t-37 82q0 13 3 29l27 153q22 125 169 125q70 0 107 -29t37 -82q0 -13 -3 -29l-27 -153q-22 -125 -169 -125zM131 -36q34 0 41 41l25 142q1 6 1 15q0 28 -28 28q-34 0 -41 -41l-25 -142q-1 -6 -1 -15q0 -28 28 -28z" />
    <glyph glyph-name="uni2081" unicode="&#x2081;" 
d="M-15 -120l16 94h93l29 163h-105l15 86q46 0 74 11.5t47 39.5h115l-53 -300h91l-16 -94h-306z" />
    <glyph glyph-name="uni2082" unicode="&#x2082;" 
d="M-44 -120l10 57q10 57 45.5 95t103.5 64q43 16 61.5 32t18.5 36q0 26 -29 26q-35 0 -42 -42l-2 -11h-114l4 23q22 126 163 126q142 0 142 -113q0 -115 -162 -170q-44 -15 -55 -26h184l-17 -97h-311z" />
    <glyph glyph-name="uni2083" unicode="&#x2083;" 
d="M123 -132q-71 0 -108.5 26t-37.5 71q0 12 2 24l3 17h117l-1 -6q-1 -6 -1 -10q0 -28 31 -28q23 0 34.5 12t11.5 31q0 30 -43 30h-36l15 83h31q27 0 40.5 13t13.5 34q0 27 -27 27q-32 0 -38 -35l-1 -6h-116l3 17q11 60 49 89t112 29q140 0 140 -106q0 -75 -68 -98v-2
q45 -20 45 -81q0 -63 -45 -97t-126 -34z" />
    <glyph glyph-name="uni2084" unicode="&#x2084;" 
d="M127 -120l14 78h-174l18 97l205 219h128l-40 -227h36l-16 -89h-35l-14 -78h-122zM86 47h70l17 97z" />
    <glyph glyph-name="uni2085" unicode="&#x2085;" 
d="M121 -132q-70 0 -105.5 27.5t-35.5 73.5q0 9 2 25h117v-4q0 -26 32 -26q24 0 35 15t11 37q0 33 -31 33q-24 0 -40 -14h-105l57 239h265l-17 -96h-171l-14 -57q29 16 68 16q109 0 109 -111q0 -74 -45 -116t-132 -42z" />
    <glyph glyph-name="uni2086" unicode="&#x2086;" 
d="M126 -132q-71 0 -108 29.5t-37 80.5q0 14 3 30l26 147q23 131 171 131q71 0 107 -27t36 -74q0 -10 -2 -26h-115v6q0 25 -29 25q-41 0 -48 -47l-4 -25q28 17 68 17q105 0 105 -110q0 -74 -44.5 -115.5t-128.5 -41.5zM134 -36q45 0 45 59q0 15 -5 21t-19 6q-29 0 -46 -26
l-3 -17q-1 -6 -1 -11q0 -32 29 -32z" />
    <glyph glyph-name="uni2087" unicode="&#x2087;" 
d="M1 -120q41 193 191 295h-182l17 99h314l-18 -103q-83 -66 -127.5 -133t-64.5 -158h-130z" />
    <glyph glyph-name="uni2088" unicode="&#x2088;" 
d="M122 -132q-151 0 -151 111q0 85 81 108v2q-40 21 -40 75q0 59 44 90.5t122 31.5q144 0 144 -108q0 -73 -70 -96v-2q46 -23 46 -84q0 -63 -46 -95.5t-130 -32.5zM159 120q20 0 31 13t11 34q0 29 -29 29q-43 0 -43 -45q0 -31 30 -31zM127 -42q51 0 51 46q0 32 -35 32
q-49 0 -49 -49q0 -29 33 -29z" />
    <glyph glyph-name="uni2089" unicode="&#x2089;" 
d="M120 -132q-71 0 -107 27t-36 74q0 10 2 26h115v-6q0 -25 29 -25q41 0 48 47l4 25q-28 -17 -68 -17q-105 0 -105 110q0 74 44.5 115.5t128.5 41.5q71 0 108 -29.5t37 -80.5q0 -14 -3 -30l-26 -147q-23 -131 -171 -131zM146 104q29 0 46 26l3 17q1 6 1 11q0 32 -29 32
q-45 0 -45 -59q0 -15 5 -21t19 -6z" />
    <glyph glyph-name="Euro" unicode="&#x20ac;" horiz-adv-x="594" 
d="M285 -12q-109 0 -166 46t-57 134q0 26 6 60l1 6h-37l15 83h37l8 46h-37l14 83h37l4 20q40 226 277 226q214 0 214 -179q0 -27 -4 -52h-167q2 18 2 28q0 60 -59 60q-72 0 -87 -87l-3 -16h156l-30 -83h-141l-8 -46h133l-29 -83h-118l-3 -15q-3 -17 -3 -30q0 -58 59 -58
q71 0 88 88h167q-23 -122 -89.5 -176.5t-179.5 -54.5z" />
    <glyph glyph-name="uni20B9" unicode="&#x20b9;" horiz-adv-x="594" 
d="M256 0l-211 227l18 101h99q103 0 136 76h-234l42 110h204q-6 30 -28.5 43t-67.5 13h-121l43 110h505l-43 -110h-135q17 -25 23 -56h125l-42 -110h-85q-30 -145 -206 -178l213 -226h-235z" />
    <glyph glyph-name="uni2113" unicode="&#x2113;" horiz-adv-x="487" 
d="M228 -12q-95 0 -143.5 43.5t-48.5 125.5q0 27 6 61l56 316q36 208 235 208q174 0 174 -157q0 -200 -282 -361l-3 -15q-3 -18 -3 -27q0 -51 56 -51q48 0 112 46l47 -120q-92 -69 -206 -69zM255 396q102 82 102 173q0 21 -6 30t-21 9q-22 0 -33.5 -19.5t-19.5 -67.5z" />
    <glyph glyph-name="uni2116" unicode="&#x2116;" horiz-adv-x="1068" 
d="M19 0l120 680h178l129 -385l68 385h167l-120 -680h-167l-136 406l-72 -406h-167zM842 164q-161 0 -161 127q0 21 4 41l11 62q15 84 60.5 121t130.5 37q161 0 161 -127q0 -21 -4 -41l-11 -62q-15 -84 -60.5 -121t-130.5 -37zM849 266q22 0 33.5 13t17.5 46l12 68q2 9 2 24
q0 17 -8 25t-26 8q-22 0 -33.5 -13t-17.5 -46l-12 -68q-2 -9 -2 -24q0 -17 7.5 -25t26.5 -8zM628 0l19 105h346l-19 -105h-346z" />
    <glyph glyph-name="uni2117" unicode="&#x2117;" horiz-adv-x="756" 
d="M391 -12q-151 0 -251.5 100t-100.5 252t100.5 252t251.5 100t251.5 -100t100.5 -252t-100.5 -252t-251.5 -100zM391 79q112 0 180.5 72t68.5 189t-68.5 189t-180.5 72t-180.5 -72t-68.5 -189t68.5 -189t180.5 -72zM261 163v354h158q77 0 111.5 -29.5t34.5 -93.5t-35 -93
t-111 -29h-51v-109h-107zM368 356h41q49 0 49 38q0 39 -49 39h-41v-77z" />
    <glyph glyph-name="uni2120" unicode="&#x2120;" horiz-adv-x="709" 
d="M158 341q-116 0 -116 86q0 10 2 24h90q-1 -5 -1 -14q0 -27 29 -27q41 0 41 33q0 13 -9.5 20.5t-39.5 16.5q-46 14 -64.5 34.5t-18.5 55.5q0 55 33 86.5t98 31.5q54 0 83 -22.5t29 -62.5q0 -8 -2 -22h-90q1 5 1 13q0 25 -25 25q-17 0 -26.5 -9.5t-9.5 -24.5q0 -13 9.5 -20
t38.5 -16q47 -15 66 -36t19 -58q0 -114 -137 -114zM331 349l58 331h128l21 -181l84 181h136l-58 -331h-92l38 218l-104 -218h-59l-28 227l-40 -227h-84z" />
    <glyph glyph-name="trademark" unicode="&#x2122;" horiz-adv-x="694" 
d="M99 349l45 256h-84l14 75h258l-14 -75h-82l-45 -256h-92zM316 349l58 331h128l21 -181l84 181h136l-58 -331h-92l38 218l-104 -218h-59l-28 227l-40 -227h-84z" />
    <glyph glyph-name="uni2126" unicode="&#x2126;" horiz-adv-x="652" 
d="M3 0l26 148h77q-54 44 -54 133q0 30 6 63l13 74q25 145 101 209.5t220 64.5q129 0 189 -49.5t60 -151.5q0 -40 -8 -85l-13 -74q-24 -131 -101 -184h64l-26 -148h-242l24 135q36 16 56.5 48t30.5 91l24 136q6 34 6 52q0 42 -19.5 60.5t-61.5 18.5q-52 0 -80 -30t-41 -101
l-24 -136q-6 -35 -6 -56q0 -61 45 -83l-24 -135h-242z" />
    <glyph glyph-name="estimated" unicode="&#x212e;" horiz-adv-x="791" 
d="M416 -12q-154 0 -262.5 103t-108.5 249t108.5 249t262.5 103t262.5 -103t108.5 -249v-9h-601q-5 0 -5 -5v-191q0 -10 9 -21q89 -105 228 -105q69 0 132 31.5t107 85.5h54q-52 -64 -129.5 -101t-165.5 -37zM186 351h461q6 0 6 6v193q0 12 -10 22q-94 99 -225 99
q-135 0 -228 -103q-9 -11 -9 -22v-190q0 -5 5 -5z" />
    <glyph glyph-name="uni2153" unicode="&#x2153;" horiz-adv-x="850" 
d="M627 692h118l-494 -704h-118l209 298h-285l16 94h93l29 163h-105l15 86q46 0 74 11.5t47 39.5h115l-53 -300h91l-9 -55zM754 200q45 -20 45 -81q0 -63 -45 -97t-126 -34q-71 0 -108.5 26t-37.5 71q0 12 2 24l3 17h117l-1 -6q-1 -6 -1 -10q0 -28 31 -28q23 0 34.5 12
t11.5 31q0 30 -43 30h-36l15 83h31q27 0 40.5 13t13.5 34q0 27 -27 27q-32 0 -38 -35l-1 -6h-116l3 17q11 60 49 89t112 29q140 0 140 -106q0 -75 -68 -98v-2z" />
    <glyph glyph-name="uni2154" unicode="&#x2154;" horiz-adv-x="850" 
d="M28 286l10 57q10 57 45.5 95t103.5 64q43 16 61.5 32t18.5 36q0 26 -29 26q-35 0 -42 -42l-2 -11h-114l4 23q22 126 163 126q142 0 142 -113q0 -115 -162 -170q-44 -15 -55 -26h184l-17 -97h-311zM133 -12l494 704h118l-494 -704h-118zM628 -12q-71 0 -108.5 26t-37.5 71
q0 12 2 24l3 17h117l-1 -6q-1 -6 -1 -10q0 -28 31 -28q23 0 34.5 12t11.5 31q0 30 -43 30h-36l15 83h31q27 0 40.5 13t13.5 34q0 27 -27 27q-32 0 -38 -35l-1 -6h-116l3 17q11 60 49 89t112 29q140 0 140 -106q0 -75 -68 -98v-2q45 -20 45 -81q0 -63 -45 -97t-126 -34z" />
    <glyph glyph-name="uni2155" unicode="&#x2155;" horiz-adv-x="850" 
d="M627 692h118l-494 -704h-118l209 298h-285l16 94h93l29 163h-105l15 86q46 0 74 11.5t47 39.5h115l-53 -300h91l-9 -55zM811 298h-171l-14 -57q29 16 68 16q109 0 109 -111q0 -74 -45 -116t-132 -42q-70 0 -105.5 27.5t-35.5 73.5q0 9 2 25h117v-4q0 -26 32 -26
q24 0 35 15t11 37q0 33 -31 33q-24 0 -40 -14h-105l57 239h265z" />
    <glyph glyph-name="uni2156" unicode="&#x2156;" horiz-adv-x="850" 
d="M28 286l10 57q10 57 45.5 95t103.5 64q43 16 61.5 32t18.5 36q0 26 -29 26q-35 0 -42 -42l-2 -11h-114l4 23q22 126 163 126q142 0 142 -113q0 -115 -162 -170q-44 -15 -55 -26h184l-17 -97h-311zM133 -12l494 704h118l-494 -704h-118zM626 -12q-70 0 -105.5 27.5
t-35.5 73.5q0 9 2 25h117v-4q0 -26 32 -26q24 0 35 15t11 37q0 33 -31 33q-24 0 -40 -14h-105l57 239h265l-17 -96h-171l-14 -57q29 16 68 16q109 0 109 -111q0 -74 -45 -116t-132 -42z" />
    <glyph glyph-name="uni2157" unicode="&#x2157;" horiz-adv-x="850" 
d="M194 274q-71 0 -108.5 26t-37.5 71q0 12 2 24l3 17h117l-1 -6q-1 -6 -1 -10q0 -28 31 -28q23 0 34.5 12t11.5 31q0 30 -43 30h-36l15 83h31q27 0 40.5 13t13.5 34q0 27 -27 27q-32 0 -38 -35l-1 -6h-116l3 17q11 60 49 89t112 29q140 0 140 -106q0 -75 -68 -98v-2
q45 -20 45 -81q0 -63 -45 -97t-126 -34zM133 -12l494 704h118l-494 -704h-118zM626 -12q-70 0 -105.5 27.5t-35.5 73.5q0 9 2 25h117v-4q0 -26 32 -26q24 0 35 15t11 37q0 33 -31 33q-24 0 -40 -14h-105l57 239h265l-17 -96h-171l-14 -57q29 16 68 16q109 0 109 -111
q0 -74 -45 -116t-132 -42z" />
    <glyph glyph-name="uni2158" unicode="&#x2158;" horiz-adv-x="850" 
d="M133 -12l494 704h118l-494 -704h-118zM199 286l14 78h-174l18 97l205 219h128l-40 -227h36l-16 -89h-35l-14 -78h-122zM158 453h70l17 97zM626 -12q-70 0 -105.5 27.5t-35.5 73.5q0 9 2 25h117v-4q0 -26 32 -26q24 0 35 15t11 37q0 33 -31 33q-24 0 -40 -14h-105l57 239
h265l-17 -96h-171l-14 -57q29 16 68 16q109 0 109 -111q0 -74 -45 -116t-132 -42z" />
    <glyph glyph-name="uni2159" unicode="&#x2159;" horiz-adv-x="850" 
d="M627 692h118l-494 -704h-118l209 298h-285l16 94h93l29 163h-105l15 86q46 0 74 11.5t47 39.5h115l-53 -300h91l-9 -55zM827 279h-115v6q0 25 -29 25q-41 0 -48 -47l-4 -25q28 17 68 17q105 0 105 -110q0 -74 -44.5 -115.5t-128.5 -41.5q-71 0 -108 29.5t-37 80.5
q0 14 3 30l26 147q23 131 171 131q71 0 107 -27t36 -74q0 -10 -2 -26zM660 170q-29 0 -46 -26l-3 -17q-1 -6 -1 -11q0 -32 29 -32q45 0 45 59q0 15 -5 21t-19 6z" />
    <glyph glyph-name="uni215A" unicode="&#x215a;" horiz-adv-x="850" 
d="M133 -12l494 704h118l-494 -704h-118zM192 274q-70 0 -105.5 27.5t-35.5 73.5q0 9 2 25h117v-4q0 -26 32 -26q24 0 35 15t11 37q0 33 -31 33q-24 0 -40 -14h-105l57 239h265l-17 -96h-171l-14 -57q29 16 68 16q109 0 109 -111q0 -74 -45 -116t-132 -42zM631 -12
q-71 0 -108 29.5t-37 80.5q0 14 3 30l26 147q23 131 171 131q71 0 107 -27t36 -74q0 -10 -2 -26h-115v6q0 25 -29 25q-41 0 -48 -47l-4 -25q28 17 68 17q105 0 105 -110q0 -74 -44.5 -115.5t-128.5 -41.5zM639 84q45 0 45 59q0 15 -5 21t-19 6q-29 0 -46 -26l-3 -17
q-1 -6 -1 -11q0 -32 29 -32z" />
    <glyph glyph-name="oneeighth" unicode="&#x215b;" horiz-adv-x="850" 
d="M627 692h118l-494 -704h-118l209 298h-285l16 94h93l29 163h-105l15 86q46 0 74 11.5t47 39.5h115l-53 -300h91l-9 -55zM757 200q46 -23 46 -84q0 -63 -46 -95.5t-130 -32.5q-151 0 -151 111q0 85 81 108v2q-40 21 -40 75q0 59 44 90.5t122 31.5q144 0 144 -108
q0 -73 -70 -96v-2zM664 240q20 0 31 13t11 34q0 29 -29 29q-43 0 -43 -45q0 -31 30 -31zM632 78q51 0 51 46q0 32 -35 32q-49 0 -49 -49q0 -29 33 -29z" />
    <glyph glyph-name="threeeighths" unicode="&#x215c;" horiz-adv-x="850" 
d="M194 274q-71 0 -108.5 26t-37.5 71q0 12 2 24l3 17h117l-1 -6q-1 -6 -1 -10q0 -28 31 -28q23 0 34.5 12t11.5 31q0 30 -43 30h-36l15 83h31q27 0 40.5 13t13.5 34q0 27 -27 27q-32 0 -38 -35l-1 -6h-116l3 17q11 60 49 89t112 29q140 0 140 -106q0 -75 -68 -98v-2
q45 -20 45 -81q0 -63 -45 -97t-126 -34zM133 -12l494 704h118l-494 -704h-118zM627 -12q-151 0 -151 111q0 85 81 108v2q-40 21 -40 75q0 59 44 90.5t122 31.5q144 0 144 -108q0 -73 -70 -96v-2q46 -23 46 -84q0 -63 -46 -95.5t-130 -32.5zM664 240q20 0 31 13t11 34
q0 29 -29 29q-43 0 -43 -45q0 -31 30 -31zM632 78q51 0 51 46q0 32 -35 32q-49 0 -49 -49q0 -29 33 -29z" />
    <glyph glyph-name="fiveeighths" unicode="&#x215d;" horiz-adv-x="850" 
d="M133 -12l494 704h118l-494 -704h-118zM192 274q-70 0 -105.5 27.5t-35.5 73.5q0 9 2 25h117v-4q0 -26 32 -26q24 0 35 15t11 37q0 33 -31 33q-24 0 -40 -14h-105l57 239h265l-17 -96h-171l-14 -57q29 16 68 16q109 0 109 -111q0 -74 -45 -116t-132 -42zM627 -12
q-151 0 -151 111q0 85 81 108v2q-40 21 -40 75q0 59 44 90.5t122 31.5q144 0 144 -108q0 -73 -70 -96v-2q46 -23 46 -84q0 -63 -46 -95.5t-130 -32.5zM664 240q20 0 31 13t11 34q0 29 -29 29q-43 0 -43 -45q0 -31 30 -31zM632 78q51 0 51 46q0 32 -35 32q-49 0 -49 -49
q0 -29 33 -29z" />
    <glyph glyph-name="seveneighths" unicode="&#x215e;" horiz-adv-x="850" 
d="M106 -12l494 704h118l-494 -704h-118zM73 286q41 193 191 295h-182l17 99h314l-18 -103q-83 -66 -127.5 -133t-64.5 -158h-130zM627 -12q-151 0 -151 111q0 85 81 108v2q-40 21 -40 75q0 59 44 90.5t122 31.5q144 0 144 -108q0 -73 -70 -96v-2q46 -23 46 -84
q0 -63 -46 -95.5t-130 -32.5zM664 240q20 0 31 13t11 34q0 29 -29 29q-43 0 -43 -45q0 -31 30 -31zM632 78q51 0 51 46q0 32 -35 32q-49 0 -49 -49q0 -29 33 -29z" />
    <glyph glyph-name="arrowleft" unicode="&#x2190;" horiz-adv-x="800" 
d="M391 16l-324 324l324 324l92 -92l-163 -160h439v-144h-439l163 -160z" />
    <glyph glyph-name="arrowup" unicode="&#x2191;" horiz-adv-x="800" 
d="M339 0v435l-166 -169l-92 92l334 334l334 -334l-92 -92l-166 169v-435h-152z" />
    <glyph glyph-name="arrowright" unicode="&#x2192;" horiz-adv-x="800" 
d="M435 16l-92 92l163 160h-439v144h439l-163 160l92 92l324 -324z" />
    <glyph glyph-name="arrowdown" unicode="&#x2193;" horiz-adv-x="800" 
d="M412 -12l-334 334l92 92l166 -169v435h152v-435l166 169l92 -92z" />
    <glyph glyph-name="arrowboth" unicode="&#x2194;" horiz-adv-x="1000" 
d="M371 36l-304 304l304 304l92 -92l-143 -140h386l-143 140l92 92l304 -304l-304 -304l-92 92l143 140h-386l143 -140z" />
    <glyph glyph-name="arrowupdn" unicode="&#x2195;" horiz-adv-x="800" 
d="M413 -84l-297 297l92 92l129 -132v334l-129 -132l-92 92l297 297l297 -297l-92 -92l-129 132v-334l129 132l92 -92z" />
    <glyph glyph-name="uni2196" unicode="&#x2196;" horiz-adv-x="800" 
d="M606 40l-332 332l2 -228h-133v464h464v-125l-236 2l340 -340z" />
    <glyph glyph-name="uni2197" unicode="&#x2197;" horiz-adv-x="800" 
d="M216 40l-105 105l340 340l-236 -2v125h464v-464h-133l2 228z" />
    <glyph glyph-name="uni2198" unicode="&#x2198;" horiz-adv-x="800" 
d="M220 72v125l236 -2l-340 340l105 105l332 -332l-2 228h133v-464h-464z" />
    <glyph glyph-name="uni2199" unicode="&#x2199;" horiz-adv-x="800" 
d="M148 72v464h133l-2 -228l332 332l105 -105l-340 -340l236 2v-125h-464z" />
    <glyph glyph-name="partialdiff" unicode="&#x2202;" horiz-adv-x="602" 
d="M215 -12q-95 0 -146 50t-51 141q0 120 77.5 209t196.5 89q78 0 115 -48q3 28 3 54q0 63 -23 92.5t-86 29.5q-65 0 -127 -37l25 142q56 32 152 32q132 0 186.5 -59t54.5 -188q0 -93 -24.5 -182.5t-70.5 -162.5t-119.5 -117.5t-162.5 -44.5zM245 125q83 0 133 158
q-12 57 -64 57q-51 0 -83.5 -50t-32.5 -105q0 -60 47 -60z" />
    <glyph glyph-name="emptyset" unicode="&#x2205;" horiz-adv-x="797" 
d="M156 -12l-97 96l58 58q-58 86 -58 198q0 151 101 251.5t251 100.5q110 0 199 -57l57 57l97 -97l-57 -57q57 -89 57 -198q0 -151 -101 -251.5t-252 -100.5q-109 0 -198 57zM219 244l292 292q-44 23 -100 23q-92 0 -151.5 -61.5t-59.5 -157.5q0 -52 19 -96zM411 121
q93 0 152.5 61.5t59.5 157.5q0 50 -19 96l-292 -292q44 -23 99 -23z" />
    <glyph glyph-name="uni2206" unicode="&#x2206;" horiz-adv-x="615" 
d="M-46 0l329 680h197l89 -680h-615zM204 148h165l-24 331z" />
    <glyph glyph-name="product" unicode="&#x220f;" horiz-adv-x="762" 
d="M-10 -183l169 954h624l-169 -954h-162l143 807h-299l-143 -807h-163z" />
    <glyph glyph-name="summation" unicode="&#x2211;" horiz-adv-x="646" 
d="M-55 -183l27 149l323 329l-208 327l27 149h598l-26 -144h-402l219 -345l-317 -321h383l-26 -144h-598z" />
    <glyph glyph-name="minus" unicode="&#x2212;" horiz-adv-x="594" 
d="M46 241l24 136h494l-24 -136h-494z" />
    <glyph glyph-name="uni2215" unicode="&#x2215;" horiz-adv-x="432" 
d="M-71 -12l438 704h164l-438 -704h-164z" />
    <glyph glyph-name="uni2219" unicode="&#x2219;" horiz-adv-x="299" 
d="M49 217l33 185h186l-33 -185h-186z" />
    <glyph glyph-name="radical" unicode="&#x221a;" horiz-adv-x="594" 
d="M134 -183l-31 311h-77l24 136h174l16 -225l318 732h151l-423 -954h-152z" />
    <glyph glyph-name="infinity" unicode="&#x221e;" horiz-adv-x="892" 
d="M228 98q-86 0 -135 48t-49 139q0 109 68.5 182t180.5 73q122 0 183 -107q52 57 101.5 82t106.5 25q86 0 135 -48t49 -138q0 -109 -68.5 -182.5t-180.5 -73.5q-122 0 -183 107q-97 -107 -208 -107zM625 237q43 0 67 31.5t24 73.5q0 65 -68 65q-34 0 -62 -18t-61 -62
q20 -44 42 -67t58 -23zM263 231q34 0 62 18t62 63q-20 44 -42 66.5t-58 22.5q-43 0 -67.5 -31.5t-24.5 -73.5q0 -65 68 -65z" />
    <glyph glyph-name="integral" unicode="&#x222b;" horiz-adv-x="336" 
d="M-3 -194q-34 0 -80 10l22 124q21 -8 40 -8q31 0 49 20t26 63l101 573q18 104 65.5 150.5t129.5 46.5q20 0 81 -9l-22 -125q-24 8 -40 8q-32 0 -50 -20t-26 -63l-101 -573q-18 -102 -65.5 -149.5t-129.5 -47.5z" />
    <glyph glyph-name="approxequal" unicode="&#x2248;" horiz-adv-x="594" 
d="M412 307q-71 0 -130 51q-35 30 -60 30q-47 0 -61 -67h-117q36 203 193 203q70 0 129 -51q35 -30 60 -30q47 0 61 67h117q-36 -203 -192 -203zM370 72q-71 0 -130 51q-35 30 -60 30q-47 0 -61 -67h-117q36 203 193 203q70 0 129 -51q35 -30 60 -30q47 0 61 67h117
q-36 -203 -192 -203z" />
    <glyph glyph-name="notequal" unicode="&#x2260;" horiz-adv-x="594" 
d="M596 607l-81 -115h69l-24 -136h-141l-67 -94h192l-24 -136h-264l-82 -116h-160l82 116h-70l24 136h142l67 94h-193l24 136h265l81 115h160z" />
    <glyph glyph-name="lessequal" unicode="&#x2264;" horiz-adv-x="594" 
d="M525 159l-466 155l23 129l521 155l-27 -152l-280 -73l254 -74zM4 0l24 136h494l-24 -136h-494z" />
    <glyph glyph-name="greaterequal" unicode="&#x2265;" horiz-adv-x="594" 
d="M32 159l27 152l280 73l-255 74l25 140l467 -155l-23 -129zM4 0l24 136h494l-24 -136h-494z" />
    <glyph glyph-name="lozenge" unicode="&#x25ca;" horiz-adv-x="594" 
d="M248 -32l-212 372l337 372l213 -372zM278 201l137 152l-72 126l-137 -152z" />
    <glyph glyph-name="uniF8FF" unicode="&#xf8ff;" horiz-adv-x="649" 
d="M276 50q-101 0 -163 61t-62 163q0 101 64.5 163t185.5 62h50v116h157v-116h132v-149h-132v-51q0 -116 -63.5 -182.5t-168.5 -66.5zM279 205q72 0 72 92v53h-49q-89 0 -89 -76q0 -32 17.5 -50.5t48.5 -18.5z" />
    <glyph glyph-name="Iacute_J.loclNLD" horiz-adv-x="871" 
d="M127 739l139 142h194l-175 -142h-158zM694 739l139 142h194l-175 -142h-158zM19 0l120 680h184l-120 -680h-184zM536 -12q-114 0 -166.5 44t-52.5 135q0 31 7 70l3 17h175l-4 -23q-4 -23 -4 -38q0 -29 12 -41.5t40 -12.5q35 0 53.5 21.5t27.5 72.5l79 447h184l-81 -459
q-22 -123 -85.5 -178t-187.5 -55z" />
    <glyph glyph-name="iacute_j.loclNLD" horiz-adv-x="572" 
d="M86 588l139 142h194l-175 -142h-158zM372 588l139 142h194l-175 -142h-158zM6 0l93 525h181l-93 -525h-181zM202 -182l23 134h22q21 0 30 9t14 33l94 531h181l-98 -553q-15 -85 -52.5 -119.5t-114.5 -34.5h-99z" />
    <glyph glyph-name="i.loclTRK" horiz-adv-x="286" 
d="M107 588l25 142h185l-25 -142h-185zM6 0l93 525h181l-93 -525h-181z" />
    <glyph glyph-name="germandbls.calt" horiz-adv-x="658" 
d="M10 0l81 459q21 117 86.5 169t192.5 52h290l-22 -127l-137 -165q67 -13 96.5 -51.5t29.5 -109.5q0 -115 -72 -171t-219 -56h-98l25 142h80q99 0 99 74q0 29 -16.5 40t-59.5 11h-72l20 113l115 158h-61q-42 0 -64 -20t-30 -65l-80 -453h-184z" />
    <glyph glyph-name="zero.pf" horiz-adv-x="618" 
d="M272 -12q-111 0 -169.5 46t-58.5 135q0 27 5 55l43 244q40 224 281 224q111 0 169.5 -46t58.5 -135q0 -27 -5 -55l-43 -244q-40 -224 -281 -224zM287 131q37 0 57.5 21.5t29.5 72.5l41 232q3 17 3 33q0 30 -14 44.5t-46 14.5q-37 0 -57.5 -21.5t-29.5 -72.5l-41 -232
q-3 -16 -3 -33q0 -30 14 -44.5t46 -14.5z" />
    <glyph glyph-name="one.pf" horiz-adv-x="472" 
d="M166 0l82 464h-180l22 128q132 1 206 88h171l-120 -680h-181z" />
    <glyph glyph-name="two.pf" horiz-adv-x="571" 
d="M-20 0l15 85q18 100 74 161t177 111q79 33 114 65t35 72q0 55 -62 55q-74 0 -90 -90l-4 -23h-170l7 40q38 216 274 216q224 0 224 -183q0 -95 -62.5 -164.5t-199.5 -125.5q-60 -25 -86.5 -41t-36.5 -34h323l-25 -144h-507z" />
    <glyph glyph-name="three.pf" horiz-adv-x="589" 
d="M252 -12q-114 0 -171.5 41.5t-57.5 119.5q0 21 4 44l6 34h174l-3 -17q-2 -12 -2 -23q0 -56 67 -56q44 0 67.5 23.5t23.5 59.5q0 60 -82 60h-60l24 134h54q48 0 73.5 22.5t25.5 65.5q0 28 -12.5 40.5t-40.5 12.5q-71 0 -84 -74l-3 -17h-172l6 34q36 200 272 200
q218 0 218 -171q0 -126 -115 -170v-2q76 -33 76 -133q0 -109 -75.5 -168.5t-212.5 -59.5z" />
    <glyph glyph-name="four.pf" horiz-adv-x="601" 
d="M284 0l23 134h-299l26 146l361 400h190l-73 -412h64l-24 -134h-63l-24 -134h-181zM198 268h133l34 193z" />
    <glyph glyph-name="five.pf" horiz-adv-x="574" 
d="M244 -12q-111 0 -167.5 43.5t-56.5 122.5q0 23 4 44h172v-11q0 -56 65 -56q50 0 76 32.5t26 78.5q0 67 -67 67q-52 0 -83 -29h-156l97 400h434l-26 -144h-286l-28 -116q48 28 118 28q92 0 134.5 -45.5t42.5 -138.5q0 -129 -76.5 -202.5t-222.5 -73.5z" />
    <glyph glyph-name="six.pf" horiz-adv-x="614" 
d="M276 -12q-114 0 -172 45.5t-58 133.5q0 29 5 56l42 238q41 231 289 231q110 0 166 -42.5t56 -122.5q0 -24 -4 -45h-171v12q0 55 -61 55q-40 0 -63.5 -23t-32.5 -78l-8 -47q52 39 126 39q83 0 127.5 -43t44.5 -124q0 -136 -74 -210.5t-212 -74.5zM290 131q45 0 67 33
t22 84q0 53 -51 53q-56 0 -92 -59l-3 -16q-3 -18 -3 -34q0 -61 60 -61z" />
    <glyph glyph-name="seven.pf" horiz-adv-x="542" 
d="M47 0q73 339 335 531h-321l26 149h510l-27 -154q-139 -116 -216.5 -239.5t-113.5 -286.5h-193z" />
    <glyph glyph-name="eight.pf" horiz-adv-x="608" 
d="M260 -12q-236 0 -236 180q0 142 136 188v2q-66 34 -66 123q0 100 76 155.5t204 55.5q224 0 224 -173q0 -125 -116 -167v-2q77 -36 77 -137q0 -108 -80.5 -166.5t-218.5 -58.5zM329 410q40 0 64 26.5t24 62.5q0 54 -60 54q-42 0 -65 -24t-23 -60q0 -59 60 -59zM278 127
q49 0 75 23.5t26 62.5q0 63 -71 63q-49 0 -75 -26.5t-26 -64.5q0 -58 71 -58z" />
    <glyph glyph-name="nine.pf" horiz-adv-x="614" 
d="M260 -12q-110 0 -166 42.5t-56 122.5q0 24 4 45h171v-12q0 -55 61 -55q40 0 63.5 23t32.5 78l8 47q-52 -39 -126 -39q-83 0 -127.5 43t-44.5 124q0 136 74 210.5t212 74.5q114 0 172 -45.5t58 -133.5q0 -29 -5 -56l-42 -238q-41 -231 -289 -231zM314 379q56 0 92 59l3 16
q3 18 3 34q0 61 -60 61q-45 0 -67 -33t-22 -84q0 -53 51 -53z" />
    <glyph glyph-name="zero.numr" 
d="M194 274q-70 0 -107 29t-37 82q0 13 3 29l27 153q22 125 169 125q70 0 107 -29t37 -82q0 -13 -3 -29l-27 -153q-22 -125 -169 -125zM202 370q34 0 41 41l25 142q1 6 1 15q0 28 -28 28q-34 0 -41 -41l-25 -142q-1 -6 -1 -15q0 -28 28 -28z" />
    <glyph glyph-name="one.numr" 
d="M57 286l16 94h93l29 163h-105l15 86q46 0 74 11.5t47 39.5h115l-53 -300h91l-16 -94h-306z" />
    <glyph glyph-name="two.numr" 
d="M28 286l10 57q10 57 45.5 95t103.5 64q43 16 61.5 32t18.5 36q0 26 -29 26q-35 0 -42 -42l-2 -11h-114l4 23q22 126 163 126q142 0 142 -113q0 -115 -162 -170q-44 -15 -55 -26h184l-17 -97h-311z" />
    <glyph glyph-name="three.numr" 
d="M194 274q-71 0 -108.5 26t-37.5 71q0 12 2 24l3 17h117l-1 -6q-1 -6 -1 -10q0 -28 31 -28q23 0 34.5 12t11.5 31q0 30 -43 30h-36l15 83h31q27 0 40.5 13t13.5 34q0 27 -27 27q-32 0 -38 -35l-1 -6h-116l3 17q11 60 49 89t112 29q140 0 140 -106q0 -75 -68 -98v-2
q45 -20 45 -81q0 -63 -45 -97t-126 -34z" />
    <glyph glyph-name="four.numr" 
d="M199 286l14 78h-174l18 97l205 219h128l-40 -227h36l-16 -89h-35l-14 -78h-122zM158 453h70l17 97z" />
    <glyph glyph-name="five.numr" 
d="M192 274q-70 0 -105.5 27.5t-35.5 73.5q0 9 2 25h117v-4q0 -26 32 -26q24 0 35 15t11 37q0 33 -31 33q-24 0 -40 -14h-105l57 239h265l-17 -96h-171l-14 -57q29 16 68 16q109 0 109 -111q0 -74 -45 -116t-132 -42z" />
    <glyph glyph-name="six.numr" 
d="M197 274q-71 0 -108 29.5t-37 80.5q0 14 3 30l26 147q23 131 171 131q71 0 107 -27t36 -74q0 -10 -2 -26h-115v6q0 25 -29 25q-41 0 -48 -47l-4 -25q28 17 68 17q105 0 105 -110q0 -74 -44.5 -115.5t-128.5 -41.5zM205 370q45 0 45 59q0 15 -5 21t-19 6q-29 0 -46 -26
l-3 -17q-1 -6 -1 -11q0 -32 29 -32z" />
    <glyph glyph-name="seven.numr" 
d="M73 286q41 193 191 295h-182l17 99h314l-18 -103q-83 -66 -127.5 -133t-64.5 -158h-130z" />
    <glyph glyph-name="eight.numr" 
d="M194 274q-151 0 -151 111q0 85 81 108v2q-40 21 -40 75q0 59 44 90.5t122 31.5q144 0 144 -108q0 -73 -70 -96v-2q46 -23 46 -84q0 -63 -46 -95.5t-130 -32.5zM231 526q20 0 31 13t11 34q0 29 -29 29q-43 0 -43 -45q0 -31 30 -31zM199 364q51 0 51 46q0 32 -35 32
q-49 0 -49 -49q0 -29 33 -29z" />
    <glyph glyph-name="nine.numr" 
d="M191 274q-71 0 -107 27t-36 74q0 10 2 26h115v-6q0 -25 29 -25q41 0 48 47l4 25q-28 -17 -68 -17q-105 0 -105 110q0 74 44.5 115.5t128.5 41.5q71 0 108 -29.5t37 -80.5q0 -14 -3 -30l-26 -147q-23 -131 -171 -131zM217 510q29 0 46 26l3 17q1 6 1 11q0 32 -29 32
q-45 0 -45 -59q0 -15 5 -21t19 -6z" />
    <glyph glyph-name="zero.dnom" 
d="M144 -12q-70 0 -107 29t-37 82q0 13 3 29l27 153q22 125 169 125q70 0 107 -29t37 -82q0 -13 -3 -29l-27 -153q-22 -125 -169 -125zM152 84q34 0 41 41l25 142q1 6 1 15q0 28 -28 28q-34 0 -41 -41l-25 -142q-1 -6 -1 -15q0 -28 28 -28z" />
    <glyph glyph-name="one.dnom" 
d="M6 0l16 94h93l29 163h-105l15 86q46 0 74 11.5t47 39.5h115l-53 -300h91l-16 -94h-306z" />
    <glyph glyph-name="two.dnom" 
d="M-23 0l10 57q10 57 45.5 95t103.5 64q43 16 61.5 32t18.5 36q0 26 -29 26q-35 0 -42 -42l-2 -11h-114l4 23q22 126 163 126q142 0 142 -113q0 -115 -162 -170q-44 -15 -55 -26h184l-17 -97h-311z" />
    <glyph glyph-name="three.dnom" 
d="M144 -12q-71 0 -108.5 26t-37.5 71q0 12 2 24l3 17h117l-1 -6q-1 -6 -1 -10q0 -28 31 -28q23 0 34.5 12t11.5 31q0 30 -43 30h-36l15 83h31q27 0 40.5 13t13.5 34q0 27 -27 27q-32 0 -38 -35l-1 -6h-116l3 17q11 60 49 89t112 29q140 0 140 -106q0 -75 -68 -98v-2
q45 -20 45 -81q0 -63 -45 -97t-126 -34z" />
    <glyph glyph-name="four.dnom" 
d="M148 0l14 78h-174l18 97l205 219h128l-40 -227h36l-16 -89h-35l-14 -78h-122zM107 167h70l17 97z" />
    <glyph glyph-name="five.dnom" 
d="M142 -12q-70 0 -105.5 27.5t-35.5 73.5q0 9 2 25h117v-4q0 -26 32 -26q24 0 35 15t11 37q0 33 -31 33q-24 0 -40 -14h-105l57 239h265l-17 -96h-171l-14 -57q29 16 68 16q109 0 109 -111q0 -74 -45 -116t-132 -42z" />
    <glyph glyph-name="six.dnom" 
d="M147 -12q-71 0 -108 29.5t-37 80.5q0 14 3 30l26 147q23 131 171 131q71 0 107 -27t36 -74q0 -10 -2 -26h-115v6q0 25 -29 25q-41 0 -48 -47l-4 -25q28 17 68 17q105 0 105 -110q0 -74 -44.5 -115.5t-128.5 -41.5zM155 84q45 0 45 59q0 15 -5 21t-19 6q-29 0 -46 -26
l-3 -17q-1 -6 -1 -11q0 -32 29 -32z" />
    <glyph glyph-name="seven.dnom" 
d="M22 0q41 193 191 295h-182l17 99h314l-18 -103q-83 -66 -127.5 -133t-64.5 -158h-130z" />
    <glyph glyph-name="eight.dnom" 
d="M143 -12q-151 0 -151 111q0 85 81 108v2q-40 21 -40 75q0 59 44 90.5t122 31.5q144 0 144 -108q0 -73 -70 -96v-2q46 -23 46 -84q0 -63 -46 -95.5t-130 -32.5zM180 240q20 0 31 13t11 34q0 29 -29 29q-43 0 -43 -45q0 -31 30 -31zM148 78q51 0 51 46q0 32 -35 32
q-49 0 -49 -49q0 -29 33 -29z" />
    <glyph glyph-name="nine.dnom" 
d="M141 -12q-71 0 -107 27t-36 74q0 10 2 26h115v-6q0 -25 29 -25q41 0 48 47l4 25q-28 -17 -68 -17q-105 0 -105 110q0 74 44.5 115.5t128.5 41.5q71 0 108 -29.5t37 -80.5q0 -14 -3 -30l-26 -147q-23 -131 -171 -131zM167 224q29 0 46 26l3 17q1 6 1 11q0 32 -29 32
q-45 0 -45 -59q0 -15 5 -21t19 -6z" />
    <glyph glyph-name="exclamdown.case" horiz-adv-x="322" 
d="M115 517l28 163h184l-28 -163h-184zM20 0l39 202l69 242h132l-19 -242l-31 -202h-190z" />
    <glyph glyph-name="questiondown.case" horiz-adv-x="484" 
d="M217 517l28 163h183l-28 -163h-183zM210 -12q-101 0 -155 40t-54 114q0 70 30 116t100 85q41 22 59.5 42.5t23.5 47.5l2 11h159l-4 -23q-10 -56 -36 -92.5t-81 -69.5q-40 -24 -56 -44.5t-16 -49.5q0 -34 41 -34q58 0 71 79h169q-20 -115 -81 -168.5t-172 -53.5z" />
    <glyph glyph-name="at.case" horiz-adv-x="754" 
d="M393 -23q-165 0 -260 87.5t-95 241.5q0 170 109 283t288 113q147 0 238 -78.5t91 -213.5q0 -103 -53.5 -172.5t-153.5 -69.5q-84 0 -110 52q-44 -52 -112 -52q-51 0 -77.5 24.5t-26.5 70.5q0 21 4 45l12 68q12 67 43 97t85 30q68 0 99 -50l12 38h99l-32 -182
q-2 -12 -2 -23q0 -23 22 -23q24 0 40.5 25.5t23 57.5t6.5 63q0 86 -56 136t-152 50q-125 0 -197 -81.5t-72 -202.5q0 -108 60.5 -167.5t167.5 -59.5q105 0 179 54l38 -110q-95 -51 -218 -51zM380 263q27 0 45 29l16 87q-8 29 -35 29q-30 0 -37 -38l-12 -68q-1 -6 -1 -10
q0 -29 24 -29z" />
    <glyph glyph-name="parenleft.case" horiz-adv-x="341" 
d="M268 -96q-219 48 -219 331q0 128 41.5 242t128 197t203.5 102l-22 -122q-92 -48 -144.5 -188t-52.5 -274q0 -143 83 -186z" />
    <glyph glyph-name="parenright.case" horiz-adv-x="341" 
d="M-54 -96l22 122q92 48 144.5 188t52.5 274q0 143 -83 186l18 102q219 -48 219 -331q0 -128 -41.5 -242t-128 -197t-203.5 -102z" />
    <glyph glyph-name="braceleft.case" horiz-adv-x="341" 
d="M186 -84q-74 0 -109.5 31.5t-35.5 98.5q0 28 6 64l18 102q3 15 3 25q0 25 -13 34.5t-40 9.5l21 118q36 0 52 16.5t23 56.5l19 109q18 102 63 142.5t132 40.5h94l-20 -118h-44q-33 0 -46.5 -15.5t-21.5 -62.5l-17 -95q-11 -63 -37 -94.5t-75 -39.5v-2q67 -17 67 -99
q0 -22 -4 -43l-14 -80q-5 -28 -5 -44q0 -20 10 -28.5t35 -8.5h44l-21 -118h-84z" />
    <glyph glyph-name="braceright.case" horiz-adv-x="341" 
d="M-51 -84l20 118h44q33 0 46.5 15.5t21.5 62.5l17 95q11 63 37 94.5t75 39.5v2q-67 17 -67 99q0 22 4 43l14 80q5 28 5 44q0 20 -10 28.5t-35 8.5h-44l21 118h84q74 0 109.5 -31.5t35.5 -98.5q0 -28 -6 -64l-18 -102q-3 -15 -3 -25q0 -25 13 -34.5t40 -9.5l-21 -118
q-36 0 -52 -16.5t-23 -56.5l-19 -109q-18 -102 -63 -142.5t-132 -40.5h-94z" />
    <glyph glyph-name="bracketleft.case" horiz-adv-x="341" 
d="M3 -84l149 848h267l-20 -118h-108l-107 -612h107l-21 -118h-267z" />
    <glyph glyph-name="bracketright.case" horiz-adv-x="341" 
d="M-51 -84l20 118h108l107 612h-107l21 118h267l-149 -848h-267z" />
    <glyph glyph-name="bar.case" horiz-adv-x="290" 
d="M1 -160l176 1000h140l-176 -1000h-140z" />
    <glyph glyph-name="brokenbar.case" horiz-adv-x="290" 
d="M106 440l70 400h140l-70 -400h-140zM0 -160l70 400h140l-70 -400h-140z" />
    <glyph glyph-name="periodcentered.case" horiz-adv-x="299" 
d="M54 247l33 185h186l-33 -185h-186z" />
    <glyph glyph-name="bullet.case" horiz-adv-x="500" 
d="M101 203l49 274h278l-49 -274h-278z" />
    <glyph glyph-name="hyphen.case" horiz-adv-x="390" 
d="M33 264l27 152h324l-27 -152h-324z" />
    <glyph glyph-name="uni00AD.case" horiz-adv-x="390" 
d="M33 264l27 152h324l-27 -152h-324z" />
    <glyph glyph-name="figuredash.case" horiz-adv-x="594" 
d="M32 272l24 136h534l-24 -136h-534z" />
    <glyph glyph-name="endash.case" horiz-adv-x="500" 
d="M32 272l24 136h440l-24 -136h-440z" />
    <glyph glyph-name="emdash.case" horiz-adv-x="900" 
d="M32 272l24 136h840l-24 -136h-840z" />
    <glyph glyph-name="guillemotleft.case" horiz-adv-x="567" 
d="M128 159l-102 187l158 175h175l-171 -190l93 -172h-153zM382 159l-102 187l158 175h175l-171 -190l93 -172h-153z" />
    <glyph glyph-name="guillemotright.case" horiz-adv-x="567" 
d="M-18 159l171 190l-93 172h153l102 -187l-158 -175h-175zM236 159l171 190l-93 172h153l102 -187l-158 -175h-175z" />
    <glyph glyph-name="guilsinglleft.case" horiz-adv-x="313" 
d="M128 159l-102 187l158 175h175l-171 -190l93 -172h-153z" />
    <glyph glyph-name="guilsinglright.case" horiz-adv-x="313" 
d="M-18 159l171 190l-93 172h153l102 -187l-158 -175h-175z" />
    <glyph glyph-name="caron.alt" horiz-adv-x="205" 
d="M58 501l75 229h163l-125 -229h-113z" />
    <glyph glyph-name="ringacute" horiz-adv-x="500" 
d="M237 835l139 142h194l-175 -142h-158zM316 563q-54 0 -88 32.5t-34 84.5q0 56 39.5 92.5t99.5 36.5q54 0 88 -32.5t34 -84.5q0 -56 -39.5 -92.5t-99.5 -36.5zM320 643q20 0 31.5 14t11.5 37q0 35 -34 35q-20 0 -31.5 -14t-11.5 -37q0 -35 34 -35z" />
    <glyph glyph-name="NULL" horiz-adv-x="0" 
 />
    </font>
</defs>
</svg>
