<?xml version="1.0" standalone="no"?>
<!DOCTYPE svg PUBLIC "-//W3C//DTD SVG 1.1//EN" "http://www.w3.org/Graphics/SVG/1.1/DTD/svg11.dtd" >
<svg xmlns="http://www.w3.org/2000/svg" xmlns:xlink="http://www.w3.org/1999/xlink" version="1.1">
<metadata>
Created by FontForge 20170731 at Fri Feb  5 17:51:17 2016
 By Aleksey,,,
Copyright (c) 2014-2015 by Ryoichi Tsunekawa. All rights reserved.
</metadata>
<defs>
<font id="BioSans-ExtraBold" horiz-adv-x="366" >
  <font-face 
    font-family="Bio Sans ExtraBold"
    font-weight="800"
    font-stretch="normal"
    units-per-em="1000"
    panose-1="2 11 8 4 2 2 2 4 2 4"
    ascent="800"
    descent="-200"
    x-height="525"
    cap-height="680"
    bbox="-205 -263 1127 1128"
    underline-thickness="78"
    underline-position="-256"
    unicode-range="U+000D-FB02"
  />
<missing-glyph horiz-adv-x="676" 
d="M64 0v680h548v-680h-548zM338 432l91 151h-182zM169 179l100 161l-100 161v-322zM507 179v322l-100 -161zM247 97h182l-91 151z" />
    <glyph glyph-name="fi" unicode="fi" horiz-adv-x="655" 
d="M80 0v396h-72v129h72v30q0 89 39 132t119 43h129v-132h-61q-25 0 -35 -11.5t-10 -39.5v-22h102v-129h-102v-396h-181zM420 588v142h185v-142h-185zM422 0v525h181v-525h-181z" />
    <glyph glyph-name="fl" unicode="fl" horiz-adv-x="655" 
d="M80 0v396h-72v129h72v30q0 89 39 132t119 43h129v-132h-61q-25 0 -35 -11.5t-10 -39.5v-22h102v-129h-102v-396h-181zM422 0v730h181v-730h-181z" />
    <glyph glyph-name=".notdef" horiz-adv-x="676" 
d="M64 0v680h548v-680h-548zM338 432l91 151h-182zM169 179l100 161l-100 161v-322zM507 179v322l-100 -161zM247 97h182l-91 151z" />
    <glyph glyph-name=".null" horiz-adv-x="0" 
 />
    <glyph glyph-name="nonmarkingreturn" horiz-adv-x="333" 
 />
    <glyph glyph-name="CR" unicode="&#xd;" horiz-adv-x="226" 
 />
    <glyph glyph-name="space" unicode=" " horiz-adv-x="226" 
 />
    <glyph glyph-name="exclam" unicode="!" horiz-adv-x="322" 
d="M95 236l-25 242l-4 202h190l-4 -202l-25 -242h-132zM69 0v163h184v-163h-184z" />
    <glyph glyph-name="quotedbl" unicode="&#x22;" horiz-adv-x="484" 
d="M59 373l-20 307h168l-19 -307h-129zM297 373l-20 307h168l-19 -307h-129z" />
    <glyph glyph-name="numbersign" unicode="#" horiz-adv-x="594" 
d="M67 0l20 158h-52v118h66l17 138h-51v119h66l18 147h148l-18 -147h80l18 147h148l-18 -147h50v-119h-65l-17 -138h50v-118h-64l-20 -158h-148l20 158h-80l-20 -158h-148zM249 276h80l17 138h-80z" />
    <glyph glyph-name="dollar" unicode="$" horiz-adv-x="594" 
d="M234 -72v75q-97 10 -140.5 61t-43.5 151h167q0 -46 18.5 -65t61.5 -19q79 0 79 59q0 35 -27.5 53.5t-94.5 29.5q-106 18 -152.5 64.5t-46.5 135.5q0 176 179 202v77h133v-77q86 -13 127 -63t41 -141h-166q0 78 -71 78q-68 0 -68 -60q0 -34 27.5 -53t93.5 -29
q107 -17 153.5 -64.5t46.5 -137.5q0 -176 -184 -200v-77h-133z" />
    <glyph glyph-name="percent" unicode="%" horiz-adv-x="796" 
d="M183 308q-156 0 -156 134v116q0 134 156 134t156 -134v-116q0 -134 -156 -134zM133 -12l411 704h119l-411 -704h-119zM183 404q34 0 34 43v107q0 42 -34 42t-34 -42v-107q0 -43 34 -43zM613 -12q-156 0 -156 134v116q0 134 156 134t156 -134v-116q0 -134 -156 -134z
M613 84q34 0 34 43v107q0 42 -34 42t-34 -42v-107q0 -43 34 -43z" />
    <glyph glyph-name="ampersand" unicode="&#x26;" horiz-adv-x="685" 
d="M263 -12q-109 0 -171 52t-62 145q0 119 122 195q-47 66 -47 133q0 84 53 131.5t149 47.5q91 0 139 -42.5t48 -116.5q0 -56 -29.5 -97t-96.5 -78l80 -93q11 39 16 98h162q-18 -129 -75 -219l124 -144h-219l-24 29q-74 -41 -169 -41zM290 450q62 34 62 75q0 20 -13 34
t-36 14q-22 0 -35.5 -13.5t-13.5 -37.5q0 -30 36 -72zM297 119q29 0 54 11l-118 147q-30 -30 -30 -72q0 -40 25 -63t69 -23z" />
    <glyph glyph-name="quotesingle" unicode="'" horiz-adv-x="253" 
d="M59 373l-20 307h175l-20 -307h-135z" />
    <glyph glyph-name="parenleft" unicode="(" horiz-adv-x="341" 
d="M331 -130q-136 25 -211 139.5t-75 296.5t75 296.5t211 139.5v-112q-124 -65 -124 -324t124 -324v-112z" />
    <glyph glyph-name="parenright" unicode=")" horiz-adv-x="341" 
d="M10 -130v112q124 65 124 324t-124 324v112q136 -25 211 -139.5t75 -296.5t-75 -296.5t-211 -139.5z" />
    <glyph glyph-name="asterisk" unicode="*" horiz-adv-x="436" 
d="M150 274l-99 71l84 103l-124 32l38 117l116 -48l-8 131h122l-8 -131l116 48l38 -117l-124 -32l84 -103l-99 -71l-68 111z" />
    <glyph glyph-name="plus" unicode="+" horiz-adv-x="594" 
d="M227 54v187h-177v136h177v187h140v-187h177v-136h-177v-187h-140z" />
    <glyph glyph-name="comma" unicode="," horiz-adv-x="299" 
d="M57 -204v94q67 0 67 75v35h-67v185h185v-189q0 -106 -43 -153t-142 -47z" />
    <glyph glyph-name="hyphen" unicode="-" horiz-adv-x="390" 
d="M33 223v152h324v-152h-324z" />
    <glyph glyph-name="period" unicode="." horiz-adv-x="299" 
d="M57 0v185h185v-185h-185z" />
    <glyph glyph-name="slash" unicode="/" horiz-adv-x="479" 
d="M0 -140l331 870h148l-331 -870h-148z" />
    <glyph glyph-name="zero" unicode="0" horiz-adv-x="594" 
d="M297 -12q-125 0 -189 58.5t-64 171.5v244q0 114 64 172t189 58t189 -58t64 -172v-244q0 -113 -64 -171.5t-189 -58.5zM297 131q38 0 55 22t17 72v230q0 50 -17 72t-55 22t-55 -22t-17 -72v-230q0 -50 17 -72t55 -22z" />
    <glyph glyph-name="one" unicode="1" horiz-adv-x="594" 
d="M78 0v144h160v320h-180v128q75 1 119 21.5t71 66.5h171v-536h160v-144h-501z" />
    <glyph glyph-name="two" unicode="2" horiz-adv-x="594" 
d="M38 0v81q0 96 46.5 157.5t157.5 113.5q71 33 98 60.5t27 66.5q0 33 -18.5 51.5t-55.5 18.5q-73 0 -73 -92v-21h-170v36q0 109 62.5 164.5t183.5 55.5t185 -54.5t64 -155.5q0 -86 -50 -146.5t-161 -109.5q-59 -26 -83.5 -43.5t-29.5 -38.5h324v-144h-507z" />
    <glyph glyph-name="three" unicode="3" horiz-adv-x="594" 
d="M297 -12q-255 0 -255 199v40h174v-18q0 -78 80 -78q76 0 76 70q0 73 -93 73h-60v134h54q45 0 65 17t20 55q0 69 -65 69q-69 0 -69 -76v-15h-172v24q0 210 244 210q119 0 180.5 -49t61.5 -144q0 -107 -86 -145v-2q101 -37 101 -160q0 -204 -256 -204z" />
    <glyph glyph-name="four" unicode="4" horiz-adv-x="594" 
d="M328 0v134h-299v146l290 400h190v-412h64v-134h-64v-134h-181zM184 268h144v209z" />
    <glyph glyph-name="five" unicode="5" horiz-adv-x="594" 
d="M296 -12q-251 0 -251 210h173q4 -67 78 -67q81 0 81 89t-80 89q-51 0 -77 -29h-156l26 400h434v-144h-287l-9 -124q48 36 124 36q100 0 151.5 -57t51.5 -167q0 -120 -63.5 -178t-195.5 -58z" />
    <glyph glyph-name="six" unicode="6" horiz-adv-x="594" 
d="M303 -12q-255 0 -255 229v238q0 237 260 237q242 0 243 -210h-172q-6 67 -71 67q-41 0 -60 -24t-19 -77v-54q50 46 130 46q95 0 145.5 -56t50.5 -162q0 -234 -252 -234zM303 131q71 0 71 87q0 83 -64 83q-56 0 -81 -60v-15q0 -95 74 -95z" />
    <glyph glyph-name="seven" unicode="7" horiz-adv-x="594" 
d="M119 0q15 337 250 531h-329v149h510v-154q-119 -116 -174.5 -239.5t-63.5 -286.5h-193z" />
    <glyph glyph-name="eight" unicode="8" horiz-adv-x="594" 
d="M297 -12q-131 0 -198 51.5t-67 151.5q0 121 102 162v2q-87 38 -87 145q0 93 64.5 142.5t185.5 49.5t185.5 -49.5t64.5 -142.5q0 -107 -87 -145v-2q102 -41 102 -162q0 -100 -67 -151.5t-198 -51.5zM297 410q34 0 53 19.5t19 54.5q0 69 -72 69t-72 -69q0 -35 19 -54.5
t53 -19.5zM297 127q84 0 84 72q0 77 -84 77t-84 -77q0 -72 84 -72z" />
    <glyph glyph-name="nine" unicode="9" horiz-adv-x="594" 
d="M286 -12q-242 0 -243 210h172q6 -67 71 -67q41 0 60 24t19 77v54q-50 -46 -130 -46q-95 0 -145.5 56t-50.5 162q0 234 252 234q255 0 255 -229v-238q0 -237 -260 -237zM284 379q56 0 81 60v15q0 95 -74 95q-71 0 -71 -87q0 -83 64 -83z" />
    <glyph glyph-name="colon" unicode=":" horiz-adv-x="299" 
d="M57 330v185h185v-185h-185zM57 0v185h185v-185h-185z" />
    <glyph glyph-name="semicolon" unicode=";" horiz-adv-x="299" 
d="M57 330v185h185v-185h-185zM57 -204v94q67 0 67 75v35h-67v185h185v-189q0 -106 -43 -153t-142 -47z" />
    <glyph glyph-name="less" unicode="&#x3c;" horiz-adv-x="594" 
d="M544 51l-494 190v132l494 192v-148l-297 -109l297 -109v-148z" />
    <glyph glyph-name="equal" unicode="=" horiz-adv-x="594" 
d="M50 356v136h494v-136h-494zM50 126v136h494v-136h-494z" />
    <glyph glyph-name="greater" unicode="&#x3e;" horiz-adv-x="594" 
d="M50 51v148l297 109l-297 109v148l494 -190v-132z" />
    <glyph glyph-name="question" unicode="?" horiz-adv-x="484" 
d="M141 236v17q0 56 21 95.5t68 70.5q56 38 56 82q0 48 -49 48q-30 0 -43.5 -19t-13.5 -60h-169q0 112 55.5 167t171.5 55q110 0 168.5 -48t58.5 -137q0 -53 -22 -91t-74 -73q-38 -26 -53.5 -48t-15.5 -50v-9h-159zM129 0v163h183v-163h-183z" />
    <glyph glyph-name="at" unicode="@" horiz-adv-x="754" 
d="M407 -68q-175 0 -277.5 97.5t-102.5 261.5q0 165 101 265.5t267 100.5q157 0 252.5 -91t95.5 -235q0 -100 -47 -154t-132 -54q-83 0 -115 53q-38 -53 -106 -53q-116 0 -116 132v70q0 133 116 133q62 0 100 -44l4 32h98v-186q0 -42 27 -42q24 0 37.5 26.5t13.5 75.5
q0 106 -61.5 168t-166.5 62q-111 0 -176 -69.5t-65 -184.5q0 -118 69 -187.5t185 -69.5q99 0 178 50l40 -103q-94 -54 -219 -54zM380 218q26 0 40 30v85q-13 30 -40 30q-30 0 -30 -38v-70q0 -37 30 -37z" />
    <glyph glyph-name="A" unicode="A" horiz-adv-x="625" 
d="M0 0l214 680h197l214 -680h-193l-33 121h-182l-33 -121h-184zM253 263h110l-55 221z" />
    <glyph glyph-name="B" unicode="B" horiz-adv-x="636" 
d="M65 0v680h277q125 0 182 -42.5t57 -135.5q0 -112 -95 -144v-2q62 -17 89.5 -56.5t27.5 -107.5q0 -100 -57.5 -146t-180.5 -46h-300zM249 412h62q49 0 69 15.5t20 52.5q0 35 -17 49t-59 14h-75v-131zM249 137h82q50 0 69 15t19 53q0 41 -22 57t-78 16h-70v-141z" />
    <glyph glyph-name="C" unicode="C" horiz-adv-x="605" 
d="M315 -12q-140 0 -205 67.5t-65 212.5v144q0 145 65 212.5t205 67.5q136 0 200.5 -64.5t66.5 -204.5h-174q-2 67 -21 92.5t-69 25.5q-51 0 -70 -28.5t-19 -104.5v-136q0 -76 19 -104.5t70 -28.5q50 0 69 25.5t21 91.5h174q-2 -139 -66.5 -203.5t-200.5 -64.5z" />
    <glyph glyph-name="D" unicode="D" horiz-adv-x="641" 
d="M65 0v680h264q139 0 203.5 -65t64.5 -205v-140q0 -140 -64.5 -205t-203.5 -65h-264zM249 144h54q63 0 86.5 28t23.5 102v132q0 74 -23.5 102t-86.5 28h-54v-392z" />
    <glyph glyph-name="E" unicode="E" horiz-adv-x="590" 
d="M65 0v680h477v-149h-293v-114h243v-144h-243v-124h303v-149h-487z" />
    <glyph glyph-name="F" unicode="F" horiz-adv-x="558" 
d="M65 0v680h470v-149h-286v-121h236v-149h-236v-261h-184z" />
    <glyph glyph-name="G" unicode="G" horiz-adv-x="636" 
d="M321 -12q-141 0 -208.5 67t-67.5 208v154q0 141 66.5 208t204.5 67q262 0 271 -233h-174q-4 45 -24.5 63.5t-64.5 18.5q-54 0 -74.5 -29t-20.5 -105v-134q0 -75 21 -104.5t75 -29.5q50 0 71 24.5t23 86.5h-94v135h268v-124q0 -141 -66 -207t-206 -66z" />
    <glyph glyph-name="H" unicode="H" horiz-adv-x="678" 
d="M65 0v680h184v-259h180v259h184v-680h-184v269h-180v-269h-184z" />
    <glyph glyph-name="I" unicode="I" horiz-adv-x="314" 
d="M65 0v680h184v-680h-184z" />
    <glyph glyph-name="J" unicode="J" horiz-adv-x="557" 
d="M257 -12q-128 0 -185.5 58t-57.5 186v22h175v-22q0 -49 15 -71t50 -22t49.5 22t14.5 73v446h184v-453q0 -125 -58.5 -182t-186.5 -57z" />
    <glyph glyph-name="K" unicode="K" horiz-adv-x="628" 
d="M65 0v680h184v-261l187 261h205l-209 -280l211 -400h-208l-129 255l-57 -79v-176h-184z" />
    <glyph glyph-name="L" unicode="L" horiz-adv-x="518" 
d="M65 0v680h184v-528h263v-152h-447z" />
    <glyph glyph-name="M" unicode="M" horiz-adv-x="895" 
d="M65 0v680h259l118 -398l118 398h270v-680h-184v483l-147 -483h-119l-148 486v-486h-167z" />
    <glyph glyph-name="N" unicode="N" horiz-adv-x="672" 
d="M65 0v680h185l190 -367v367h167v-680h-167l-208 402v-402h-167z" />
    <glyph glyph-name="O" unicode="O" horiz-adv-x="652" 
d="M326 -12q-147 0 -214 66.5t-67 213.5v144q0 147 67 213.5t214 66.5t214 -66.5t67 -213.5v-144q0 -147 -67 -213.5t-214 -66.5zM326 139q55 0 76 29t21 104v136q0 75 -21 104t-76 29t-76 -29t-21 -104v-136q0 -75 21 -104t76 -29z" />
    <glyph glyph-name="P" unicode="P" horiz-adv-x="617" 
d="M65 0v680h276q135 0 195 -54t60 -175t-60 -175t-195 -54h-92v-222h-184zM249 366h75q48 0 68.5 19.5t20.5 65.5t-20.5 65.5t-68.5 19.5h-75v-170z" />
    <glyph glyph-name="Q" unicode="Q" horiz-adv-x="652" 
d="M527 -93l-92 92q-49 -11 -109 -11q-147 0 -214 66.5t-67 213.5v144q0 147 67 213.5t214 66.5t214 -66.5t67 -213.5v-144q0 -100 -31 -162l75 -75zM326 139q55 0 76 29t21 104v136q0 75 -21 104t-76 29t-76 -29t-21 -104v-136q0 -75 21 -104t76 -29z" />
    <glyph glyph-name="R" unicode="R" horiz-adv-x="633" 
d="M65 0v680h285q130 0 187 -52t57 -170q0 -162 -114 -203l139 -255h-209l-113 237h-48v-237h-184zM249 381h81q44 0 62.5 18t18.5 59q0 42 -18.5 60t-62.5 18h-81v-155z" />
    <glyph glyph-name="S" unicode="S" horiz-adv-x="572" 
d="M282 -12q-134 0 -194.5 53t-60.5 171h180q0 -47 18.5 -67t60.5 -20q74 0 74 59q0 35 -27 54.5t-96 32.5q-110 21 -156 68t-46 139q0 214 255 214q124 0 184 -53t60 -164h-179q0 42 -16.5 61t-51.5 19q-68 0 -68 -58q0 -34 26 -51.5t94 -30.5q112 -21 158.5 -70t46.5 -143
q0 -109 -64.5 -161.5t-197.5 -52.5z" />
    <glyph glyph-name="T" unicode="T" horiz-adv-x="538" 
d="M177 0v528h-171v152h526v-152h-171v-528h-184z" />
    <glyph glyph-name="U" unicode="U" horiz-adv-x="629" 
d="M314 -12q-136 0 -197.5 57.5t-61.5 185.5v449h184v-443q0 -54 18 -76t62 -22t62 22t18 76v443h175v-449q0 -128 -62 -185.5t-198 -57.5z" />
    <glyph glyph-name="V" unicode="V" horiz-adv-x="600" 
d="M203 0l-203 680h192l113 -442l113 442h182l-203 -680h-194z" />
    <glyph glyph-name="W" unicode="W" horiz-adv-x="891" 
d="M160 0l-157 680h189l83 -430l101 430h149l101 -430l83 430h179l-157 -680h-189l-94 402l-94 -402h-194z" />
    <glyph glyph-name="X" unicode="X" horiz-adv-x="592" 
d="M-4 0l186 356l-180 324h211l96 -188l89 188h192l-180 -344l186 -336h-211l-103 200l-94 -200h-192z" />
    <glyph glyph-name="Y" unicode="Y" horiz-adv-x="549" 
d="M183 0v282l-211 398h210l101 -212l101 212h193l-211 -398v-282h-183z" />
    <glyph glyph-name="Z" unicode="Z" horiz-adv-x="564" 
d="M24 0v135l288 396h-271v149h490v-134l-289 -397h298v-149h-516z" />
    <glyph glyph-name="bracketleft" unicode="[" horiz-adv-x="341" 
d="M64 -118v848h267v-118h-107v-612h107v-118h-267z" />
    <glyph glyph-name="backslash" unicode="\" horiz-adv-x="479" 
d="M331 -140l-331 870h148l331 -870h-148z" />
    <glyph glyph-name="bracketright" unicode="]" horiz-adv-x="341" 
d="M10 -118v118h107v612h-107v118h267v-848h-267z" />
    <glyph glyph-name="asciicircum" unicode="^" horiz-adv-x="594" 
d="M25 333l202 347h140l202 -347h-161l-111 197l-112 -197h-160z" />
    <glyph glyph-name="underscore" unicode="_" horiz-adv-x="500" 
d="M0 -144v106h500v-106h-500z" />
    <glyph glyph-name="grave" unicode="`" horiz-adv-x="500" 
d="M210 588l-150 142h186l114 -142h-150z" />
    <glyph glyph-name="a" unicode="a" horiz-adv-x="535" 
d="M185 -12q-77 0 -119.5 42.5t-42.5 120.5q0 170 214 170h72v19q0 36 -11 51.5t-38 15.5q-48 0 -52 -51h-172q6 92 61.5 136.5t168.5 44.5q116 0 170 -48t54 -153v-336h-154l-5 60q-48 -72 -146 -72zM248 118q40 0 61 38v71h-38q-76 0 -76 -57q0 -25 14.5 -38.5t38.5 -13.5
z" />
    <glyph glyph-name="b" unicode="b" horiz-adv-x="573" 
d="M352 -12q-90 0 -142 65l-4 -53h-154v730h181v-234q47 41 119 41q89 0 136.5 -54.5t47.5 -159.5v-121q0 -105 -47.5 -159.5t-136.5 -54.5zM303 125q52 0 52 76v123q0 40 -12.5 58t-39.5 18q-49 0 -70 -59v-157q21 -59 70 -59z" />
    <glyph glyph-name="c" unicode="c" horiz-adv-x="526" 
d="M272 -12q-236 0 -236 223v103q0 223 236 223q231 0 231 -222h-173q-1 47 -13 66t-43 19t-44 -19t-13 -67v-103q0 -48 13 -67t44 -19t43 19t13 66h173q0 -222 -231 -222z" />
    <glyph glyph-name="d" unicode="d" horiz-adv-x="573" 
d="M221 -12q-89 0 -136.5 54.5t-47.5 159.5v121q0 105 47.5 159.5t136.5 54.5q72 0 119 -41v234h181v-730h-154l-4 53q-52 -65 -142 -65zM270 125q49 0 70 59v157q-21 59 -70 59q-52 0 -52 -76v-123q0 -40 12.5 -58t39.5 -18z" />
    <glyph glyph-name="e" unicode="e" horiz-adv-x="551" 
d="M282 -12q-246 0 -246 223v103q0 223 241 223q240 0 240 -223v-98h-300v-16q0 -44 15.5 -63.5t49.5 -19.5q54 0 60 50h173q-9 -179 -233 -179zM217 318h129v7q0 44 -15 63.5t-49 19.5q-35 0 -50 -19.5t-15 -63.5v-7z" />
    <glyph glyph-name="f" unicode="f" horiz-adv-x="370" 
d="M80 0v396h-72v129h72v30q0 89 39 132t119 43h129v-132h-61q-25 0 -35 -11.5t-10 -39.5v-22h102v-129h-102v-396h-181z" />
    <glyph glyph-name="g" unicode="g" horiz-adv-x="573" 
d="M276 -194q-222 0 -231 181h171q4 -52 59 -52q35 0 50 19.5t15 66.5v50q-47 -41 -119 -41q-89 0 -136.5 54.5t-47.5 159.5v79q0 105 47.5 159.5t136.5 54.5q90 0 142 -65l4 53h154v-504q0 -215 -245 -215zM270 167q49 0 70 59v115q-21 59 -70 59q-52 0 -52 -76v-81
q0 -76 52 -76z" />
    <glyph glyph-name="h" unicode="h" horiz-adv-x="566" 
d="M52 0v730h181v-236q47 43 120 43q165 0 165 -187v-350h-181v332q0 56 -41 56q-43 0 -63 -51v-337h-181z" />
    <glyph glyph-name="i" unicode="i" horiz-adv-x="285" 
d="M50 588v142h185v-142h-185zM52 0v525h181v-525h-181z" />
    <glyph glyph-name="j" unicode="j" horiz-adv-x="285" 
d="M50 588v142h185v-142h-185zM-6 -182v134h22q21 0 28.5 8.5t7.5 32.5v532h181v-546q0 -85 -34.5 -123t-110.5 -38h-94z" />
    <glyph glyph-name="k" unicode="k" horiz-adv-x="562" 
d="M52 0v730h181v-386l141 181h202l-177 -216l179 -309h-210l-97 184l-38 -50v-134h-181z" />
    <glyph glyph-name="l" unicode="l" horiz-adv-x="285" 
d="M52 0v730h181v-730h-181z" />
    <glyph glyph-name="m" unicode="m" horiz-adv-x="857" 
d="M52 0v525h154l4 -56q54 68 145 68q99 0 139 -66q55 66 146 66q169 0 169 -181v-356h-181v338q0 50 -43 50q-39 0 -64 -51v-337h-181v338q0 50 -43 50q-40 0 -64 -50v-338h-181z" />
    <glyph glyph-name="n" unicode="n" horiz-adv-x="566" 
d="M52 0v525h154l4 -55q54 67 143 67q165 0 165 -187v-350h-181v332q0 56 -41 56q-43 0 -63 -51v-337h-181z" />
    <glyph glyph-name="o" unicode="o" horiz-adv-x="562" 
d="M281 -12q-245 0 -245 223v103q0 223 245 223t245 -223v-103q0 -223 -245 -223zM281 125q34 0 49 20t15 69v97q0 49 -15 69t-49 20t-49 -20t-15 -69v-97q0 -49 15 -69t49 -20z" />
    <glyph glyph-name="p" unicode="p" horiz-adv-x="573" 
d="M52 -182v707h154l4 -53q52 65 142 65q89 0 136.5 -54.5t47.5 -159.5v-121q0 -105 -47.5 -159.5t-136.5 -54.5q-72 0 -119 41v-211h-181zM303 125q52 0 52 76v123q0 40 -12.5 58t-39.5 18q-49 0 -70 -59v-157q21 -59 70 -59z" />
    <glyph glyph-name="q" unicode="q" horiz-adv-x="573" 
d="M340 -182v211q-47 -41 -119 -41q-89 0 -136.5 54.5t-47.5 159.5v121q0 105 47.5 159.5t136.5 54.5q90 0 142 -65l4 53h154v-707h-181zM270 125q49 0 70 59v157q-21 59 -70 59q-52 0 -52 -76v-123q0 -76 52 -76z" />
    <glyph glyph-name="r" unicode="r" horiz-adv-x="387" 
d="M52 0v525h154l6 -88q15 51 45.5 74.5t80.5 23.5h41v-162h-29q-53 0 -80.5 -19t-36.5 -62v-292h-181z" />
    <glyph glyph-name="s" unicode="s" horiz-adv-x="511" 
d="M255 -12q-120 0 -176 44t-56 138h172q0 -34 14.5 -49t46.5 -15q53 0 53 38q0 23 -22 36t-78 22q-96 16 -137 53t-41 109q0 85 57 129t167 44q221 0 221 -175h-172q0 30 -11.5 43.5t-36.5 13.5q-47 0 -47 -39q0 -23 21 -34.5t77 -20.5q97 -16 138.5 -55t41.5 -113
q0 -169 -232 -169z" />
    <glyph glyph-name="t" unicode="t" horiz-adv-x="375" 
d="M234 0q-84 0 -121 41t-37 134v221h-68v129h72l8 127h169v-127h98v-129h-98v-211q0 -29 9.5 -40t35.5 -11h57v-134h-125z" />
    <glyph glyph-name="u" unicode="u" horiz-adv-x="570" 
d="M215 -12q-167 0 -167 187v350h181v-332q0 -56 43 -56q44 0 65 51v337h181v-525h-154l-4 55q-54 -67 -145 -67z" />
    <glyph glyph-name="v" unicode="v" horiz-adv-x="516" 
d="M156 0l-159 525h190l75 -334l75 334h182l-159 -525h-204z" />
    <glyph glyph-name="w" unicode="w" horiz-adv-x="812" 
d="M139 0l-138 525h187l62 -325l84 325h151l84 -325l62 325h180l-138 -525h-195l-72 278l-72 -278h-195z" />
    <glyph glyph-name="x" unicode="x" horiz-adv-x="517" 
d="M-16 0l158 272l-152 253h208l75 -138l69 138h185l-152 -262l158 -263h-208l-82 149l-74 -149h-185z" />
    <glyph glyph-name="y" unicode="y" horiz-adv-x="511" 
d="M63 -182v134h72q18 0 25.5 5.5t12.5 24.5l3 12l-179 531h192l75 -299l68 299h182l-170 -561q-26 -88 -63.5 -117t-123.5 -29h-94z" />
    <glyph glyph-name="z" unicode="z" horiz-adv-x="476" 
d="M18 0v118l215 274h-194v133h414v-118l-215 -274h220v-133h-440z" />
    <glyph glyph-name="braceleft" unicode="{" horiz-adv-x="341" 
d="M242 -118q-89 0 -128.5 43t-39.5 145v106q0 40 -13.5 55.5t-48.5 15.5v118q35 0 48.5 15.5t13.5 55.5v106q0 102 39.5 145t128.5 43h89v-118h-44q-33 0 -43.5 -16t-10.5 -63v-88q0 -119 -89 -138v-2q89 -19 89 -138v-88q0 -47 10.5 -63t43.5 -16h44v-118h-89z" />
    <glyph glyph-name="bar" unicode="|" horiz-adv-x="290" 
d="M75 -226v1000h140v-1000h-140z" />
    <glyph glyph-name="braceright" unicode="}" horiz-adv-x="341" 
d="M10 -118v118h44q33 0 43.5 16t10.5 63v88q0 119 89 138v2q-89 19 -89 138v88q0 47 -10.5 63t-43.5 16h-44v118h89q89 0 128.5 -43t39.5 -145v-106q0 -40 13.5 -55.5t48.5 -15.5v-118q-35 0 -48.5 -15.5t-13.5 -55.5v-106q0 -102 -39.5 -145t-128.5 -43h-89z" />
    <glyph glyph-name="asciitilde" unicode="~" horiz-adv-x="594" 
d="M395 200q-67 0 -132 51q-39 30 -63 30q-47 0 -49 -67h-117q0 97 43 150t122 53q67 0 132 -51q39 -30 63 -30q47 0 49 67h117q0 -97 -43 -150t-122 -53z" />
    <glyph glyph-name="uni00A0" unicode="&#xa0;" horiz-adv-x="226" 
 />
    <glyph glyph-name="exclamdown" unicode="&#xa1;" horiz-adv-x="322" 
d="M69 362v163h184v-163h-184zM66 -155l4 202l25 242h132l25 -242l4 -202h-190z" />
    <glyph glyph-name="cent" unicode="&#xa2;" horiz-adv-x="594" 
d="M243 -72v76q-179 25 -179 209v98q0 185 179 210v76h127v-76q87 -13 129 -65t42 -146h-174q-1 44 -14.5 61.5t-47.5 17.5q-33 0 -46.5 -17t-13.5 -60v-99q0 -42 13.5 -59.5t47.5 -17.5q33 0 46.5 17.5t14.5 61.5h174q0 -94 -42 -146t-129 -65v-76h-127z" />
    <glyph glyph-name="sterling" unicode="&#xa3;" horiz-adv-x="594" 
d="M64 0v134q37 17 56.5 44.5t21.5 74.5h-99v132h67q-25 61 -25 111q0 95 61.5 145.5t179.5 50.5q117 0 172 -53t55 -166h-167q0 39 -15.5 57.5t-49.5 18.5q-32 0 -46.5 -17.5t-14.5 -55.5q0 -37 16 -91h215v-132h-197q-6 -69 -49 -109h301v-144h-482z" />
    <glyph glyph-name="currency" unicode="&#xa4;" horiz-adv-x="594" 
d="M109 68l-87 87l102 102q-19 40 -19 83t19 83l-102 102l87 87l103 -103q41 18 85 18t85 -18l103 103l87 -87l-102 -102q19 -40 19 -83t-19 -83l102 -102l-87 -87l-103 103q-41 -18 -85 -18t-85 18zM297 275q28 0 46 18t18 47t-18 47t-46 18t-46 -18t-18 -47t18 -47t46 -18
z" />
    <glyph glyph-name="yen" unicode="&#xa5;" horiz-adv-x="594" 
d="M207 0v104h-139v85h139v50h-139v85h128l-198 356h207l97 -205l97 205h197l-198 -356h129v-85h-139v-50h139v-85h-139v-104h-181z" />
    <glyph glyph-name="brokenbar" unicode="&#xa6;" horiz-adv-x="290" 
d="M75 374v400h140v-400h-140zM75 -226v400h140v-400h-140z" />
    <glyph glyph-name="section" unicode="&#xa7;" horiz-adv-x="618" 
d="M306 -196q-128 0 -190.5 48t-62.5 148h173q0 -39 19.5 -56.5t61.5 -17.5q73 0 73 47q0 29 -28 46.5t-101 34.5q-111 26 -159 67.5t-48 110.5q0 92 81 141v2q-64 47 -64 133q0 90 62 137t180 47q119 0 180 -47.5t61 -139.5h-172q0 67 -67 67q-31 0 -48.5 -14.5
t-17.5 -36.5q0 -28 28 -45t98 -33q111 -25 160 -66.5t49 -111.5q0 -92 -81 -140v-2q65 -48 65 -136q0 -183 -252 -183zM367 175q33 22 33 58q0 31 -28.5 49.5t-100.5 34.5l-25 6q-28 -23 -28 -58q0 -32 28.5 -50.5t100.5 -34.5z" />
    <glyph glyph-name="dieresis" unicode="&#xa8;" horiz-adv-x="500" 
d="M62 588v142h155v-142h-155zM283 588v142h155v-142h-155z" />
    <glyph glyph-name="copyright" unicode="&#xa9;" horiz-adv-x="756" 
d="M378 -12q-152 0 -252 100t-100 252t100 252t252 100t252 -100t100 -252t-100 -252t-252 -100zM378 79q112 0 180.5 72t68.5 189t-68.5 189t-180.5 72t-180.5 -72t-68.5 -189t68.5 -189t180.5 -72zM379 153q-76 0 -111 35.5t-35 113.5v76q0 78 35 113.5t111 35.5
t111 -35.5t36 -111.5h-101q-1 33 -11 46.5t-32 13.5q-23 0 -32.5 -14.5t-9.5 -50.5v-70q0 -36 9.5 -50.5t32.5 -14.5q22 0 32 13.5t11 46.5h101q-1 -77 -36 -112t-111 -35z" />
    <glyph glyph-name="ordfeminine" unicode="&#xaa;" horiz-adv-x="416" 
d="M140 304q-59 0 -91.5 30.5t-32.5 85.5q0 119 152 119h71v12q0 44 -42 44q-39 0 -42 -33h-128q10 130 174 130q172 0 172 -144v-232h-115l-3 40q-39 -52 -115 -52zM184 401q34 0 55 27v43h-41q-55 0 -55 -37q0 -33 41 -33zM27 140v105h346v-105h-346z" />
    <glyph glyph-name="guillemotleft" unicode="&#xab;" horiz-adv-x="567" 
d="M140 82l-131 181l131 181h164l-131 -181l131 -181h-164zM394 82l-131 181l131 181h164l-131 -181l131 -181h-164z" />
    <glyph glyph-name="logicalnot" unicode="&#xac;" horiz-adv-x="594" 
d="M404 124v187h-354v136h494v-323h-140z" />
    <glyph glyph-name="uni00AD" unicode="&#xad;" horiz-adv-x="390" 
d="M33 223v152h324v-152h-324z" />
    <glyph glyph-name="registered" unicode="&#xae;" horiz-adv-x="756" 
d="M378 -12q-152 0 -252 100t-100 252t100 252t252 100t252 -100t100 -252t-100 -252t-252 -100zM378 79q112 0 180.5 72t68.5 189t-68.5 189t-180.5 72t-180.5 -72t-68.5 -189t68.5 -189t180.5 -72zM232 163v354h161q73 0 107 -28t34 -90q0 -80 -61 -105l82 -131h-121
l-64 119h-31v-119h-107zM339 361h42q46 0 46 35q0 37 -46 37h-42v-72z" />
    <glyph glyph-name="macron" unicode="&#xaf;" horiz-adv-x="500" 
d="M92 602v114h316v-114h-316z" />
    <glyph glyph-name="degree" unicode="&#xb0;" horiz-adv-x="426" 
d="M213 350q-82 0 -134.5 51.5t-52.5 130.5t52.5 130.5t134.5 51.5t134.5 -51.5t52.5 -130.5t-52.5 -130.5t-134.5 -51.5zM213 462q28 0 45.5 19.5t17.5 50.5t-17.5 50.5t-45.5 19.5t-45.5 -19.5t-17.5 -50.5t17.5 -50.5t45.5 -19.5z" />
    <glyph glyph-name="plusminus" unicode="&#xb1;" horiz-adv-x="594" 
d="M227 180v130h-177v136h177v149h140v-149h177v-136h-177v-130h-140zM50 0v136h494v-136h-494z" />
    <glyph glyph-name="uni00B2" unicode="&#xb2;" 
d="M23 416v53q0 57 28.5 94.5t92.5 66.5q38 17 53 31.5t15 33.5q0 31 -33 31q-35 0 -35 -44v-9h-114v19q0 64 39 97t113 33t113 -32t39 -92q0 -51 -30.5 -87.5t-98.5 -64.5q-51 -21 -57 -33h186v-97h-311z" />
    <glyph glyph-name="uni00B3" unicode="&#xb3;" 
d="M183 404q-156 0 -156 117v21h117v-7q0 -37 38 -37q37 0 37 36q0 37 -48 37h-36v83h31q46 0 46 39q0 35 -32 35q-31 0 -31 -35v-6h-116v11q0 124 151 124q148 0 148 -115q0 -63 -51 -85v-2q60 -21 60 -93q0 -123 -158 -123z" />
    <glyph glyph-name="acute" unicode="&#xb4;" horiz-adv-x="500" 
d="M140 588l114 142h186l-150 -142h-150z" />
    <glyph glyph-name="uni00B5" unicode="&#xb5;" horiz-adv-x="574" 
d="M52 -182v707h181v-331q0 -57 42 -57q44 0 66 52v336h181v-525h-154l-4 55q-51 -65 -131 -67v-170h-181z" />
    <glyph glyph-name="paragraph" unicode="&#xb6;" horiz-adv-x="618" 
d="M200 -183v441q-94 7 -136.5 58t-42.5 153q0 112 52 161.5t168 49.5h307v-863h-134v738h-79v-738h-135z" />
    <glyph glyph-name="periodcentered" unicode="&#xb7;" horiz-adv-x="299" 
d="M57 207v185h185v-185h-185z" />
    <glyph glyph-name="cedilla" unicode="&#xb8;" horiz-adv-x="500" 
d="M222 -214q-70 0 -118 24l24 62q32 -18 65 -18q41 0 41 24q0 12 -12 17t-45 5h-12l46 115h72l-25 -67q114 0 114 -77q0 -40 -33 -62.5t-117 -22.5z" />
    <glyph glyph-name="uni00B9" unicode="&#xb9;" 
d="M52 416v94h92v163h-104v86q46 0 71.5 11.5t40.5 39.5h114v-300h92v-94h-306z" />
    <glyph glyph-name="ordmasculine" unicode="&#xba;" horiz-adv-x="410" 
d="M205 304q-175 0 -175 162v64q0 162 175 162t175 -162v-64q0 -162 -175 -162zM205 406q23 0 32 13t9 44v70q0 31 -9 44t-32 13t-32 -13t-9 -44v-70q0 -31 9 -44t32 -13zM32 140v105h346v-105h-346z" />
    <glyph glyph-name="guillemotright" unicode="&#xbb;" horiz-adv-x="567" 
d="M9 82l131 181l-131 181h164l131 -181l-131 -181h-164zM263 82l131 181l-131 181h164l131 -181l-131 -181h-164z" />
    <glyph glyph-name="onequarter" unicode="&#xbc;" horiz-adv-x="850" 
d="M213 -12l370 704h114l-370 -704h-114zM52 286v94h92v163h-104v86q46 0 71.5 11.5t40.5 39.5h114v-300h92v-94h-306zM678 0v78h-173v97l167 219h128v-227h36v-89h-36v-78h-122zM604 167h74v104z" />
    <glyph glyph-name="onehalf" unicode="&#xbd;" horiz-adv-x="850" 
d="M553 692h114l-370 -704h-114l157 298h-288v94h92v163h-104v86q46 0 71.5 11.5t40.5 39.5h114v-300h92v-59zM689 130q-51 -21 -57 -33h186v-97h-311v53q0 57 28.5 94.5t92.5 66.5q38 17 53 31.5t15 33.5q0 31 -33 31q-35 0 -35 -44v-9h-114v19q0 64 39 97t113 33t113 -32
t39 -92q0 -51 -30.5 -87.5t-98.5 -64.5z" />
    <glyph glyph-name="threequarters" unicode="&#xbe;" horiz-adv-x="850" 
d="M183 274q-156 0 -156 117v21h117v-7q0 -37 38 -37q37 0 37 36q0 37 -48 37h-36v83h31q46 0 46 39q0 35 -32 35q-31 0 -31 -35v-6h-116v11q0 124 151 124q148 0 148 -115q0 -63 -51 -85v-2q60 -21 60 -93q0 -123 -158 -123zM213 -12l370 704h114l-370 -704h-114zM678 0v78
h-173v97l167 219h128v-227h36v-89h-36v-78h-122zM604 167h74v104z" />
    <glyph glyph-name="questiondown" unicode="&#xbf;" horiz-adv-x="484" 
d="M172 362v163h183v-163h-183zM246 -167q-110 0 -168.5 48t-58.5 137q0 53 22 91t74 73q38 26 53.5 48t15.5 50v9h159v-17q0 -56 -21 -95.5t-68 -70.5q-56 -38 -56 -82q0 -48 49 -48q30 0 43.5 19t13.5 60h169q0 -112 -55.5 -167t-171.5 -55z" />
    <glyph glyph-name="Agrave" unicode="&#xc0;" horiz-adv-x="625" 
d="M272 739l-150 142h186l114 -142h-150zM0 0l214 680h197l214 -680h-193l-33 121h-182l-33 -121h-184zM253 263h110l-55 221z" />
    <glyph glyph-name="Aacute" unicode="&#xc1;" horiz-adv-x="625" 
d="M202 739l114 142h186l-150 -142h-150zM0 0l214 680h197l214 -680h-193l-33 121h-182l-33 -121h-184zM253 263h110l-55 221z" />
    <glyph glyph-name="Acircumflex" unicode="&#xc2;" horiz-adv-x="625" 
d="M107 739l128 142h154l128 -142h-150l-55 51l-55 -51h-150zM0 0l214 680h197l214 -680h-193l-33 121h-182l-33 -121h-184zM253 263h110l-55 221z" />
    <glyph glyph-name="Atilde" unicode="&#xc3;" horiz-adv-x="625" 
d="M374 728q-34 0 -81 28q-25 15 -36 15q-26 0 -30 -37h-93q4 153 116 153q34 0 81 -28q25 -15 36 -15q26 0 30 37h93q-4 -153 -116 -153zM0 0l214 680h197l214 -680h-193l-33 121h-182l-33 -121h-184zM253 263h110l-55 221z" />
    <glyph glyph-name="Adieresis" unicode="&#xc4;" horiz-adv-x="625" 
d="M124 739v142h155v-142h-155zM345 739v142h155v-142h-155zM0 0l214 680h197l214 -680h-193l-33 121h-182l-33 -121h-184zM253 263h110l-55 221z" />
    <glyph glyph-name="Aring" unicode="&#xc5;" horiz-adv-x="625" 
d="M312 718q-57 0 -94 35t-37 88t37 88t94 35t94 -35t37 -88t-37 -88t-94 -35zM312 798q38 0 38 43t-38 43t-38 -43t38 -43zM0 0l214 680h197l214 -680h-193l-33 121h-182l-33 -121h-184zM253 263h110l-55 221z" />
    <glyph glyph-name="AE" unicode="&#xc6;" horiz-adv-x="914" 
d="M-28 0l365 680h529v-149h-268v-117h218v-144h-218v-121h278v-149h-462v121h-182l-64 -121h-196zM300 263h114v253z" />
    <glyph glyph-name="Ccedilla" unicode="&#xc7;" horiz-adv-x="605" 
d="M318 139q50 0 69 25.5t21 91.5h174q-2 -130 -58.5 -195t-174.5 -72l-15 -41q114 0 114 -77q0 -40 -33 -62.5t-117 -22.5q-70 0 -118 24l24 62q31 -18 65 -18q41 0 41 24q0 12 -12 17t-45 5h-12l36 89q-120 9 -176 76.5t-56 202.5v144q0 145 65 212.5t205 67.5
q136 0 200.5 -64.5t66.5 -204.5h-174q-2 67 -21 92.5t-69 25.5q-51 0 -70 -28.5t-19 -104.5v-136q0 -76 19 -104.5t70 -28.5z" />
    <glyph glyph-name="Egrave" unicode="&#xc8;" horiz-adv-x="590" 
d="M264 739l-150 142h186l114 -142h-150zM65 0v680h477v-149h-293v-114h243v-144h-243v-124h303v-149h-487z" />
    <glyph glyph-name="Eacute" unicode="&#xc9;" horiz-adv-x="590" 
d="M194 739l114 142h186l-150 -142h-150zM65 0v680h477v-149h-293v-114h243v-144h-243v-124h303v-149h-487z" />
    <glyph glyph-name="Ecircumflex" unicode="&#xca;" horiz-adv-x="590" 
d="M99 739l128 142h154l128 -142h-150l-55 51l-55 -51h-150zM65 0v680h477v-149h-293v-114h243v-144h-243v-124h303v-149h-487z" />
    <glyph glyph-name="Edieresis" unicode="&#xcb;" horiz-adv-x="590" 
d="M116 739v142h155v-142h-155zM337 739v142h155v-142h-155zM65 0v680h477v-149h-293v-114h243v-144h-243v-124h303v-149h-487z" />
    <glyph glyph-name="Igrave" unicode="&#xcc;" horiz-adv-x="314" 
d="M117 739l-150 142h186l114 -142h-150zM65 0v680h184v-680h-184z" />
    <glyph glyph-name="Iacute" unicode="&#xcd;" horiz-adv-x="314" 
d="M47 739l114 142h186l-150 -142h-150zM65 0v680h184v-680h-184z" />
    <glyph glyph-name="Icircumflex" unicode="&#xce;" horiz-adv-x="314" 
d="M-38 739l115 142h160l115 -142h-144l-51 54l-51 -54h-144zM65 0v680h184v-680h-184z" />
    <glyph glyph-name="Idieresis" unicode="&#xcf;" horiz-adv-x="314" 
d="M-21 739v142h150v-142h-150zM184 739v142h150v-142h-150zM65 0v680h184v-680h-184z" />
    <glyph glyph-name="Eth" unicode="&#xd0;" horiz-adv-x="651" 
d="M339 680q139 0 203.5 -65t64.5 -205v-140q0 -140 -64.5 -205t-203.5 -65h-264v273h-56v144h56v263h264zM423 274v132q0 74 -23.5 102t-86.5 28h-54v-119h90v-144h-90v-129h54q63 0 86.5 28t23.5 102z" />
    <glyph glyph-name="Ntilde" unicode="&#xd1;" horiz-adv-x="672" 
d="M398 728q-34 0 -81 28q-25 15 -36 15q-26 0 -30 -37h-93q4 153 116 153q34 0 81 -28q25 -15 36 -15q26 0 30 37h93q-4 -153 -116 -153zM65 0v680h185l190 -367v367h167v-680h-167l-208 402v-402h-167z" />
    <glyph glyph-name="Ograve" unicode="&#xd2;" horiz-adv-x="652" 
d="M286 739l-150 142h186l114 -142h-150zM326 -12q-147 0 -214 66.5t-67 213.5v144q0 147 67 213.5t214 66.5t214 -66.5t67 -213.5v-144q0 -147 -67 -213.5t-214 -66.5zM326 139q55 0 76 29t21 104v136q0 75 -21 104t-76 29t-76 -29t-21 -104v-136q0 -75 21 -104t76 -29z
" />
    <glyph glyph-name="Oacute" unicode="&#xd3;" horiz-adv-x="652" 
d="M216 739l114 142h186l-150 -142h-150zM326 -12q-147 0 -214 66.5t-67 213.5v144q0 147 67 213.5t214 66.5t214 -66.5t67 -213.5v-144q0 -147 -67 -213.5t-214 -66.5zM326 139q55 0 76 29t21 104v136q0 75 -21 104t-76 29t-76 -29t-21 -104v-136q0 -75 21 -104t76 -29z
" />
    <glyph glyph-name="Ocircumflex" unicode="&#xd4;" horiz-adv-x="652" 
d="M121 739l128 142h154l128 -142h-150l-55 51l-55 -51h-150zM326 -12q-147 0 -214 66.5t-67 213.5v144q0 147 67 213.5t214 66.5t214 -66.5t67 -213.5v-144q0 -147 -67 -213.5t-214 -66.5zM326 139q55 0 76 29t21 104v136q0 75 -21 104t-76 29t-76 -29t-21 -104v-136
q0 -75 21 -104t76 -29z" />
    <glyph glyph-name="Otilde" unicode="&#xd5;" horiz-adv-x="652" 
d="M388 728q-34 0 -81 28q-25 15 -36 15q-26 0 -30 -37h-93q4 153 116 153q34 0 81 -28q25 -15 36 -15q26 0 30 37h93q-4 -153 -116 -153zM326 -12q-147 0 -214 66.5t-67 213.5v144q0 147 67 213.5t214 66.5t214 -66.5t67 -213.5v-144q0 -147 -67 -213.5t-214 -66.5z
M326 139q55 0 76 29t21 104v136q0 75 -21 104t-76 29t-76 -29t-21 -104v-136q0 -75 21 -104t76 -29z" />
    <glyph glyph-name="Odieresis" unicode="&#xd6;" horiz-adv-x="652" 
d="M138 739v142h155v-142h-155zM359 739v142h155v-142h-155zM326 -12q-147 0 -214 66.5t-67 213.5v144q0 147 67 213.5t214 66.5t214 -66.5t67 -213.5v-144q0 -147 -67 -213.5t-214 -66.5zM326 139q55 0 76 29t21 104v136q0 75 -21 104t-76 29t-76 -29t-21 -104v-136
q0 -75 21 -104t76 -29z" />
    <glyph glyph-name="multiply" unicode="&#xd7;" horiz-adv-x="594" 
d="M138 53l-95 95l159 161l-159 161l95 95l159 -161l159 161l95 -95l-159 -161l159 -161l-95 -95l-159 161z" />
    <glyph glyph-name="Oslash" unicode="&#xd8;" horiz-adv-x="652" 
d="M607 628l-35 -46q35 -63 35 -170v-144q0 -147 -67 -213.5t-214 -66.5q-108 0 -171 35l-26 -35l-84 64l35 46q-35 63 -35 170v144q0 147 67 213.5t214 66.5q108 0 171 -35l26 35zM229 408v-110l166 222q-22 21 -69 21q-55 0 -76 -29t-21 -104zM423 272v110l-166 -222
q22 -21 69 -21q55 0 76 29t21 104z" />
    <glyph glyph-name="Ugrave" unicode="&#xd9;" horiz-adv-x="629" 
d="M275 739l-150 142h186l114 -142h-150zM314 -12q-136 0 -197.5 57.5t-61.5 185.5v449h184v-443q0 -54 18 -76t62 -22t62 22t18 76v443h175v-449q0 -128 -62 -185.5t-198 -57.5z" />
    <glyph glyph-name="Uacute" unicode="&#xda;" horiz-adv-x="629" 
d="M205 739l114 142h186l-150 -142h-150zM314 -12q-136 0 -197.5 57.5t-61.5 185.5v449h184v-443q0 -54 18 -76t62 -22t62 22t18 76v443h175v-449q0 -128 -62 -185.5t-198 -57.5z" />
    <glyph glyph-name="Ucircumflex" unicode="&#xdb;" horiz-adv-x="629" 
d="M110 739l128 142h154l128 -142h-150l-55 51l-55 -51h-150zM314 -12q-136 0 -197.5 57.5t-61.5 185.5v449h184v-443q0 -54 18 -76t62 -22t62 22t18 76v443h175v-449q0 -128 -62 -185.5t-198 -57.5z" />
    <glyph glyph-name="Udieresis" unicode="&#xdc;" horiz-adv-x="629" 
d="M127 739v142h155v-142h-155zM348 739v142h155v-142h-155zM314 -12q-136 0 -197.5 57.5t-61.5 185.5v449h184v-443q0 -54 18 -76t62 -22t62 22t18 76v443h175v-449q0 -128 -62 -185.5t-198 -57.5z" />
    <glyph glyph-name="Yacute" unicode="&#xdd;" horiz-adv-x="549" 
d="M164 739l114 142h186l-150 -142h-150zM183 0v282l-211 398h210l101 -212l101 212h193l-211 -398v-282h-183z" />
    <glyph glyph-name="Thorn" unicode="&#xde;" horiz-adv-x="617" 
d="M341 595q135 0 195 -54t60 -175t-60 -175t-195 -54h-92v-137h-184v680h184v-85h92zM324 281q48 0 68.5 19.5t20.5 65.5t-20.5 65.5t-68.5 19.5h-75v-170h75z" />
    <glyph glyph-name="germandbls" unicode="&#xdf;" horiz-adv-x="621" 
d="M80 0v396h-72v129h72v19q0 198 228 198q111 0 168.5 -44.5t57.5 -124.5q0 -65 -49 -128q-29 -38 -29 -59q0 -16 10.5 -27t39.5 -26q53 -27 75 -60.5t22 -88.5q0 -184 -228 -184h-75v134h76q49 0 49 40q0 18 -11 30.5t-41 28.5q-46 25 -65.5 54.5t-19.5 75.5q0 59 41 117
q31 44 31 77q0 54 -49 54q-50 0 -50 -67v-544h-181z" />
    <glyph glyph-name="agrave" unicode="&#xe0;" horiz-adv-x="535" 
d="M223 588l-150 142h186l114 -142h-150zM185 -12q-77 0 -119.5 42.5t-42.5 120.5q0 170 214 170h72v19q0 36 -11 51.5t-38 15.5q-48 0 -52 -51h-172q6 92 61.5 136.5t168.5 44.5q116 0 170 -48t54 -153v-336h-154l-5 60q-48 -72 -146 -72zM248 118q40 0 61 38v71h-38
q-76 0 -76 -57q0 -25 14.5 -38.5t38.5 -13.5z" />
    <glyph glyph-name="aacute" unicode="&#xe1;" horiz-adv-x="535" 
d="M153 588l114 142h186l-150 -142h-150zM185 -12q-77 0 -119.5 42.5t-42.5 120.5q0 170 214 170h72v19q0 36 -11 51.5t-38 15.5q-48 0 -52 -51h-172q6 92 61.5 136.5t168.5 44.5q116 0 170 -48t54 -153v-336h-154l-5 60q-48 -72 -146 -72zM248 118q40 0 61 38v71h-38
q-76 0 -76 -57q0 -25 14.5 -38.5t38.5 -13.5z" />
    <glyph glyph-name="acircumflex" unicode="&#xe2;" horiz-adv-x="535" 
d="M58 588l128 142h154l128 -142h-150l-55 51l-55 -51h-150zM185 -12q-77 0 -119.5 42.5t-42.5 120.5q0 170 214 170h72v19q0 36 -11 51.5t-38 15.5q-48 0 -52 -51h-172q6 92 61.5 136.5t168.5 44.5q116 0 170 -48t54 -153v-336h-154l-5 60q-48 -72 -146 -72zM248 118
q40 0 61 38v71h-38q-76 0 -76 -57q0 -25 14.5 -38.5t38.5 -13.5z" />
    <glyph glyph-name="atilde" unicode="&#xe3;" horiz-adv-x="535" 
d="M325 577q-34 0 -81 28q-25 15 -36 15q-26 0 -30 -37h-93q4 153 116 153q34 0 81 -28q25 -15 36 -15q26 0 30 37h93q-4 -153 -116 -153zM185 -12q-77 0 -119.5 42.5t-42.5 120.5q0 170 214 170h72v19q0 36 -11 51.5t-38 15.5q-48 0 -52 -51h-172q6 92 61.5 136.5
t168.5 44.5q116 0 170 -48t54 -153v-336h-154l-5 60q-48 -72 -146 -72zM248 118q40 0 61 38v71h-38q-76 0 -76 -57q0 -25 14.5 -38.5t38.5 -13.5z" />
    <glyph glyph-name="adieresis" unicode="&#xe4;" horiz-adv-x="535" 
d="M75 588v142h155v-142h-155zM296 588v142h155v-142h-155zM185 -12q-77 0 -119.5 42.5t-42.5 120.5q0 170 214 170h72v19q0 36 -11 51.5t-38 15.5q-48 0 -52 -51h-172q6 92 61.5 136.5t168.5 44.5q116 0 170 -48t54 -153v-336h-154l-5 60q-48 -72 -146 -72zM248 118
q40 0 61 38v71h-38q-76 0 -76 -57q0 -25 14.5 -38.5t38.5 -13.5z" />
    <glyph glyph-name="aring" unicode="&#xe5;" horiz-adv-x="535" 
d="M263 567q-57 0 -94 35t-37 88t37 88t94 35t94 -35t37 -88t-37 -88t-94 -35zM263 647q38 0 38 43t-38 43t-38 -43t38 -43zM185 -12q-77 0 -119.5 42.5t-42.5 120.5q0 170 214 170h72v19q0 36 -11 51.5t-38 15.5q-48 0 -52 -51h-172q6 92 61.5 136.5t168.5 44.5
q116 0 170 -48t54 -153v-336h-154l-5 60q-48 -72 -146 -72zM248 118q40 0 61 38v71h-38q-76 0 -76 -57q0 -25 14.5 -38.5t38.5 -13.5z" />
    <glyph glyph-name="ae" unicode="&#xe6;" horiz-adv-x="824" 
d="M201 -12q-87 0 -132.5 42t-45.5 122q0 169 214 169h72v19q0 36 -11 51.5t-38 15.5q-48 0 -52 -51h-172q12 181 213 181q113 0 159 -61q49 61 160 61q110 0 166 -56.5t56 -166.5v-98h-300v-10q0 -48 15.5 -68.5t49.5 -20.5q54 0 60 50h173q-9 -179 -233 -179
q-138 0 -198 69q-53 -69 -156 -69zM490 318h129v1q0 49 -14.5 69t-49.5 20t-50 -20.5t-15 -68.5v-1zM248 118q43 0 64 44q-3 23 -3 49v16h-38q-76 0 -76 -57q0 -25 14.5 -38.5t38.5 -13.5z" />
    <glyph glyph-name="ccedilla" unicode="&#xe7;" horiz-adv-x="526" 
d="M274 125q31 0 43 19t13 66h173q0 -206 -197 -221l-15 -41q114 0 114 -77q0 -40 -33 -62.5t-117 -22.5q-70 0 -118 24l24 62q31 -18 65 -18q41 0 41 24q0 12 -12 17t-45 5h-12l36 90q-198 16 -198 221v103q0 223 236 223q231 0 231 -222h-173q-1 47 -13 66t-43 19t-44 -19
t-13 -67v-103q0 -48 13 -67t44 -19z" />
    <glyph glyph-name="egrave" unicode="&#xe8;" horiz-adv-x="551" 
d="M236 588l-150 142h186l114 -142h-150zM282 -12q-246 0 -246 223v103q0 223 241 223q240 0 240 -223v-98h-300v-16q0 -44 15.5 -63.5t49.5 -19.5q54 0 60 50h173q-9 -179 -233 -179zM217 318h129v7q0 44 -15 63.5t-49 19.5q-35 0 -50 -19.5t-15 -63.5v-7z" />
    <glyph glyph-name="eacute" unicode="&#xe9;" horiz-adv-x="551" 
d="M166 588l114 142h186l-150 -142h-150zM282 -12q-246 0 -246 223v103q0 223 241 223q240 0 240 -223v-98h-300v-16q0 -44 15.5 -63.5t49.5 -19.5q54 0 60 50h173q-9 -179 -233 -179zM217 318h129v7q0 44 -15 63.5t-49 19.5q-35 0 -50 -19.5t-15 -63.5v-7z" />
    <glyph glyph-name="ecircumflex" unicode="&#xea;" horiz-adv-x="551" 
d="M71 588l128 142h154l128 -142h-150l-55 51l-55 -51h-150zM282 -12q-246 0 -246 223v103q0 223 241 223q240 0 240 -223v-98h-300v-16q0 -44 15.5 -63.5t49.5 -19.5q54 0 60 50h173q-9 -179 -233 -179zM217 318h129v7q0 44 -15 63.5t-49 19.5q-35 0 -50 -19.5t-15 -63.5
v-7z" />
    <glyph glyph-name="edieresis" unicode="&#xeb;" horiz-adv-x="551" 
d="M88 588v142h155v-142h-155zM309 588v142h155v-142h-155zM282 -12q-246 0 -246 223v103q0 223 241 223q240 0 240 -223v-98h-300v-16q0 -44 15.5 -63.5t49.5 -19.5q54 0 60 50h173q-9 -179 -233 -179zM217 318h129v7q0 44 -15 63.5t-49 19.5q-35 0 -50 -19.5t-15 -63.5v-7
z" />
    <glyph glyph-name="igrave" unicode="&#xec;" horiz-adv-x="285" 
d="M103 588l-150 142h186l114 -142h-150zM52 0v525h181v-525h-181z" />
    <glyph glyph-name="iacute" unicode="&#xed;" horiz-adv-x="285" 
d="M33 588l114 142h186l-150 -142h-150zM52 0v525h181v-525h-181z" />
    <glyph glyph-name="icircumflex" unicode="&#xee;" horiz-adv-x="285" 
d="M-52 588l115 142h160l115 -142h-144l-51 54l-51 -54h-144zM52 0v525h181v-525h-181z" />
    <glyph glyph-name="idieresis" unicode="&#xef;" horiz-adv-x="285" 
d="M-35 588v142h150v-142h-150zM170 588v142h150v-142h-150zM52 0v525h181v-525h-181z" />
    <glyph glyph-name="eth" unicode="&#xf0;" horiz-adv-x="559" 
d="M279 -12q-245 0 -245 223v69q0 104 46.5 159t127.5 55q71 0 113 -53q-20 53 -61 112l-122 -45l-31 84l92 34q-51 54 -119 104h227q27 -22 51 -45l88 32l31 -84l-56 -21q103 -143 103 -317v-84q0 -223 -245 -223zM279 125q34 0 49 20t15 69v80q-3 27 -20.5 43t-44.5 16
q-63 0 -63 -76v-63q0 -49 15 -69t49 -20z" />
    <glyph glyph-name="ntilde" unicode="&#xf1;" horiz-adv-x="566" 
d="M345 577q-34 0 -81 28q-25 15 -36 15q-26 0 -30 -37h-93q4 153 116 153q34 0 81 -28q25 -15 36 -15q26 0 30 37h93q-4 -153 -116 -153zM52 0v525h154l4 -55q54 67 143 67q165 0 165 -187v-350h-181v332q0 56 -41 56q-43 0 -63 -51v-337h-181z" />
    <glyph glyph-name="ograve" unicode="&#xf2;" horiz-adv-x="562" 
d="M241 588l-150 142h186l114 -142h-150zM281 -12q-245 0 -245 223v103q0 223 245 223t245 -223v-103q0 -223 -245 -223zM281 125q34 0 49 20t15 69v97q0 49 -15 69t-49 20t-49 -20t-15 -69v-97q0 -49 15 -69t49 -20z" />
    <glyph glyph-name="oacute" unicode="&#xf3;" horiz-adv-x="562" 
d="M171 588l114 142h186l-150 -142h-150zM281 -12q-245 0 -245 223v103q0 223 245 223t245 -223v-103q0 -223 -245 -223zM281 125q34 0 49 20t15 69v97q0 49 -15 69t-49 20t-49 -20t-15 -69v-97q0 -49 15 -69t49 -20z" />
    <glyph glyph-name="ocircumflex" unicode="&#xf4;" horiz-adv-x="562" 
d="M76 588l128 142h154l128 -142h-150l-55 51l-55 -51h-150zM281 -12q-245 0 -245 223v103q0 223 245 223t245 -223v-103q0 -223 -245 -223zM281 125q34 0 49 20t15 69v97q0 49 -15 69t-49 20t-49 -20t-15 -69v-97q0 -49 15 -69t49 -20z" />
    <glyph glyph-name="otilde" unicode="&#xf5;" horiz-adv-x="562" 
d="M343 577q-34 0 -81 28q-25 15 -36 15q-26 0 -30 -37h-93q4 153 116 153q34 0 81 -28q25 -15 36 -15q26 0 30 37h93q-4 -153 -116 -153zM281 -12q-245 0 -245 223v103q0 223 245 223t245 -223v-103q0 -223 -245 -223zM281 125q34 0 49 20t15 69v97q0 49 -15 69t-49 20
t-49 -20t-15 -69v-97q0 -49 15 -69t49 -20z" />
    <glyph glyph-name="odieresis" unicode="&#xf6;" horiz-adv-x="562" 
d="M93 588v142h155v-142h-155zM314 588v142h155v-142h-155zM281 -12q-245 0 -245 223v103q0 223 245 223t245 -223v-103q0 -223 -245 -223zM281 125q34 0 49 20t15 69v97q0 49 -15 69t-49 20t-49 -20t-15 -69v-97q0 -49 15 -69t49 -20z" />
    <glyph glyph-name="divide" unicode="&#xf7;" horiz-adv-x="594" 
d="M204 456v141h186v-141h-186zM50 241v136h494v-136h-494zM204 21v141h186v-141h-186z" />
    <glyph glyph-name="oslash" unicode="&#xf8;" horiz-adv-x="562" 
d="M526 474l-28 -33q28 -49 28 -127v-103q0 -223 -245 -223q-94 0 -150 31l-27 -31l-68 63l28 33q-28 49 -28 127v103q0 223 245 223q94 0 150 -31l27 31zM217 311v-52l109 126q-14 15 -45 15q-34 0 -49 -20t-15 -69zM345 214v52l-109 -126q14 -15 45 -15q34 0 49 20t15 69z
" />
    <glyph glyph-name="ugrave" unicode="&#xf9;" horiz-adv-x="570" 
d="M243 588l-150 142h186l114 -142h-150zM215 -12q-167 0 -167 187v350h181v-332q0 -56 43 -56q44 0 65 51v337h181v-525h-154l-4 55q-54 -67 -145 -67z" />
    <glyph glyph-name="uacute" unicode="&#xfa;" horiz-adv-x="570" 
d="M173 588l114 142h186l-150 -142h-150zM215 -12q-167 0 -167 187v350h181v-332q0 -56 43 -56q44 0 65 51v337h181v-525h-154l-4 55q-54 -67 -145 -67z" />
    <glyph glyph-name="ucircumflex" unicode="&#xfb;" horiz-adv-x="570" 
d="M78 588l128 142h154l128 -142h-150l-55 51l-55 -51h-150zM215 -12q-167 0 -167 187v350h181v-332q0 -56 43 -56q44 0 65 51v337h181v-525h-154l-4 55q-54 -67 -145 -67z" />
    <glyph glyph-name="udieresis" unicode="&#xfc;" horiz-adv-x="570" 
d="M95 588v142h155v-142h-155zM316 588v142h155v-142h-155zM215 -12q-167 0 -167 187v350h181v-332q0 -56 43 -56q44 0 65 51v337h181v-525h-154l-4 55q-54 -67 -145 -67z" />
    <glyph glyph-name="yacute" unicode="&#xfd;" horiz-adv-x="511" 
d="M146 588l114 142h186l-150 -142h-150zM63 -182v134h72q18 0 25.5 5.5t12.5 24.5l3 12l-179 531h192l75 -299l68 299h182l-170 -561q-26 -88 -63.5 -117t-123.5 -29h-94z" />
    <glyph glyph-name="thorn" unicode="&#xfe;" horiz-adv-x="573" 
d="M52 -182v912h181v-234q47 41 119 41q89 0 136.5 -54.5t47.5 -159.5v-121q0 -105 -47.5 -159.5t-136.5 -54.5q-72 0 -119 41v-211h-181zM303 125q52 0 52 76v123q0 40 -12.5 58t-39.5 18q-49 0 -70 -59v-157q21 -59 70 -59z" />
    <glyph glyph-name="ydieresis" unicode="&#xff;" horiz-adv-x="511" 
d="M68 588v142h155v-142h-155zM289 588v142h155v-142h-155zM63 -182v134h72q18 0 25.5 5.5t12.5 24.5l3 12l-179 531h192l75 -299l68 299h182l-170 -561q-26 -88 -63.5 -117t-123.5 -29h-94z" />
    <glyph glyph-name="Amacron" unicode="&#x100;" horiz-adv-x="625" 
d="M154 753v114h316v-114h-316zM0 0l214 680h197l214 -680h-193l-33 121h-182l-33 -121h-184zM253 263h110l-55 221z" />
    <glyph glyph-name="amacron" unicode="&#x101;" horiz-adv-x="535" 
d="M105 602v114h316v-114h-316zM185 -12q-77 0 -119.5 42.5t-42.5 120.5q0 170 214 170h72v19q0 36 -11 51.5t-38 15.5q-48 0 -52 -51h-172q6 92 61.5 136.5t168.5 44.5q116 0 170 -48t54 -153v-336h-154l-5 60q-48 -72 -146 -72zM248 118q40 0 61 38v71h-38q-76 0 -76 -57
q0 -25 14.5 -38.5t38.5 -13.5z" />
    <glyph glyph-name="Abreve" unicode="&#x102;" horiz-adv-x="625" 
d="M312 727q-76 0 -123.5 42.5t-50.5 111.5h113q2 -23 18.5 -36.5t42.5 -13.5t42.5 13.5t18.5 36.5h113q-3 -69 -50.5 -111.5t-123.5 -42.5zM0 0l214 680h197l214 -680h-193l-33 121h-182l-33 -121h-184zM253 263h110l-55 221z" />
    <glyph glyph-name="abreve" unicode="&#x103;" horiz-adv-x="535" 
d="M263 576q-76 0 -123.5 42.5t-50.5 111.5h113q2 -23 18.5 -36.5t42.5 -13.5t42.5 13.5t18.5 36.5h113q-3 -69 -50.5 -111.5t-123.5 -42.5zM185 -12q-77 0 -119.5 42.5t-42.5 120.5q0 170 214 170h72v19q0 36 -11 51.5t-38 15.5q-48 0 -52 -51h-172q6 92 61.5 136.5
t168.5 44.5q116 0 170 -48t54 -153v-336h-154l-5 60q-48 -72 -146 -72zM248 118q40 0 61 38v71h-38q-76 0 -76 -57q0 -25 14.5 -38.5t38.5 -13.5z" />
    <glyph glyph-name="Aogonek" unicode="&#x104;" horiz-adv-x="625" 
d="M530 -73q0 -37 43 -37q23 0 49 13v-99q-36 -12 -83 -12q-137 0 -137 95q0 64 70 113h-40l-33 121h-182l-33 -121h-184l214 680h197l214 -680h-44q-51 -34 -51 -73zM253 263h110l-55 221z" />
    <glyph glyph-name="aogonek" unicode="&#x105;" horiz-adv-x="535" 
d="M449 0q-51 -34 -51 -73q0 -37 43 -37q23 0 49 13v-99q-36 -12 -83 -12q-137 0 -137 95q0 64 70 113h-4l-5 60q-48 -72 -146 -72q-77 0 -119.5 42.5t-42.5 120.5q0 170 214 170h72v19q0 36 -11 51.5t-38 15.5q-48 0 -52 -51h-172q6 92 61.5 136.5t168.5 44.5
q116 0 170 -48t54 -153v-336h-41zM309 156v71h-38q-76 0 -76 -57q0 -25 14.5 -38.5t38.5 -13.5q40 0 61 38z" />
    <glyph glyph-name="Cacute" unicode="&#x106;" horiz-adv-x="605" 
d="M203 739l114 142h186l-150 -142h-150zM315 -12q-140 0 -205 67.5t-65 212.5v144q0 145 65 212.5t205 67.5q136 0 200.5 -64.5t66.5 -204.5h-174q-2 67 -21 92.5t-69 25.5q-51 0 -70 -28.5t-19 -104.5v-136q0 -76 19 -104.5t70 -28.5q50 0 69 25.5t21 91.5h174
q-2 -139 -66.5 -203.5t-200.5 -64.5z" />
    <glyph glyph-name="cacute" unicode="&#x107;" horiz-adv-x="526" 
d="M160 588l114 142h186l-150 -142h-150zM272 -12q-236 0 -236 223v103q0 223 236 223q231 0 231 -222h-173q-1 47 -13 66t-43 19t-44 -19t-13 -67v-103q0 -48 13 -67t44 -19t43 19t13 66h173q0 -222 -231 -222z" />
    <glyph glyph-name="Ccircumflex" unicode="&#x108;" horiz-adv-x="605" 
d="M108 739l128 142h154l128 -142h-150l-55 51l-55 -51h-150zM315 -12q-140 0 -205 67.5t-65 212.5v144q0 145 65 212.5t205 67.5q136 0 200.5 -64.5t66.5 -204.5h-174q-2 67 -21 92.5t-69 25.5q-51 0 -70 -28.5t-19 -104.5v-136q0 -76 19 -104.5t70 -28.5q50 0 69 25.5
t21 91.5h174q-2 -139 -66.5 -203.5t-200.5 -64.5z" />
    <glyph glyph-name="ccircumflex" unicode="&#x109;" horiz-adv-x="526" 
d="M65 588l128 142h154l128 -142h-150l-55 51l-55 -51h-150zM272 -12q-236 0 -236 223v103q0 223 236 223q231 0 231 -222h-173q-1 47 -13 66t-43 19t-44 -19t-13 -67v-103q0 -48 13 -67t44 -19t43 19t13 66h173q0 -222 -231 -222z" />
    <glyph glyph-name="Cdotaccent" unicode="&#x10a;" horiz-adv-x="605" 
d="M230 739v142h165v-142h-165zM315 -12q-140 0 -205 67.5t-65 212.5v144q0 145 65 212.5t205 67.5q136 0 200.5 -64.5t66.5 -204.5h-174q-2 67 -21 92.5t-69 25.5q-51 0 -70 -28.5t-19 -104.5v-136q0 -76 19 -104.5t70 -28.5q50 0 69 25.5t21 91.5h174
q-2 -139 -66.5 -203.5t-200.5 -64.5z" />
    <glyph glyph-name="cdotaccent" unicode="&#x10b;" horiz-adv-x="526" 
d="M187 588v142h165v-142h-165zM272 -12q-236 0 -236 223v103q0 223 236 223q231 0 231 -222h-173q-1 47 -13 66t-43 19t-44 -19t-13 -67v-103q0 -48 13 -67t44 -19t43 19t13 66h173q0 -222 -231 -222z" />
    <glyph glyph-name="Ccaron" unicode="&#x10c;" horiz-adv-x="605" 
d="M236 739l-128 142h150l55 -51l55 51h150l-128 -142h-154zM315 -12q-140 0 -205 67.5t-65 212.5v144q0 145 65 212.5t205 67.5q136 0 200.5 -64.5t66.5 -204.5h-174q-2 67 -21 92.5t-69 25.5q-51 0 -70 -28.5t-19 -104.5v-136q0 -76 19 -104.5t70 -28.5q50 0 69 25.5
t21 91.5h174q-2 -139 -66.5 -203.5t-200.5 -64.5z" />
    <glyph glyph-name="ccaron" unicode="&#x10d;" horiz-adv-x="526" 
d="M193 588l-128 142h150l55 -51l55 51h150l-128 -142h-154zM272 -12q-236 0 -236 223v103q0 223 236 223q231 0 231 -222h-173q-1 47 -13 66t-43 19t-44 -19t-13 -67v-103q0 -48 13 -67t44 -19t43 19t13 66h173q0 -222 -231 -222z" />
    <glyph glyph-name="Dcaron" unicode="&#x10e;" horiz-adv-x="641" 
d="M229 739l-128 142h150l55 -51l55 51h150l-128 -142h-154zM65 0v680h264q139 0 203.5 -65t64.5 -205v-140q0 -140 -64.5 -205t-203.5 -65h-264zM249 144h54q63 0 86.5 28t23.5 102v132q0 74 -23.5 102t-86.5 28h-54v-392z" />
    <glyph glyph-name="dcaron" unicode="&#x10f;" horiz-adv-x="655" 
d="M221 -12q-89 0 -136.5 54.5t-47.5 159.5v121q0 105 47.5 159.5t136.5 54.5q72 0 119 -41v234h181v-730h-154l-4 53q-52 -65 -142 -65zM539 501l35 229h160l-85 -229h-110zM270 125q49 0 70 59v157q-21 59 -70 59q-52 0 -52 -76v-123q0 -40 12.5 -58t39.5 -18z" />
    <glyph glyph-name="Dcroat" unicode="&#x110;" horiz-adv-x="651" 
d="M339 680q139 0 203.5 -65t64.5 -205v-140q0 -140 -64.5 -205t-203.5 -65h-264v273h-56v144h56v263h264zM423 274v132q0 74 -23.5 102t-86.5 28h-54v-119h90v-144h-90v-129h54q63 0 86.5 28t23.5 102z" />
    <glyph glyph-name="dcroat" unicode="&#x111;" horiz-adv-x="581" 
d="M579 670v-94h-58v-576h-154l-4 53q-52 -65 -142 -65q-89 0 -136.5 54.5t-47.5 159.5v121q0 105 47.5 159.5t136.5 54.5q72 0 119 -41v80h-119v94h119v60h181v-60h58zM340 184v157q-21 59 -70 59q-52 0 -52 -76v-123q0 -40 12.5 -58t39.5 -18q49 0 70 59z" />
    <glyph glyph-name="Emacron" unicode="&#x112;" horiz-adv-x="590" 
d="M146 753v114h316v-114h-316zM65 0v680h477v-149h-293v-114h243v-144h-243v-124h303v-149h-487z" />
    <glyph glyph-name="emacron" unicode="&#x113;" horiz-adv-x="551" 
d="M118 602v114h316v-114h-316zM282 -12q-246 0 -246 223v103q0 223 241 223q240 0 240 -223v-98h-300v-16q0 -44 15.5 -63.5t49.5 -19.5q54 0 60 50h173q-9 -179 -233 -179zM217 318h129v7q0 44 -15 63.5t-49 19.5q-35 0 -50 -19.5t-15 -63.5v-7z" />
    <glyph glyph-name="Ebreve" unicode="&#x114;" horiz-adv-x="590" 
d="M304 727q-76 0 -123.5 42.5t-50.5 111.5h113q2 -23 18.5 -36.5t42.5 -13.5t42.5 13.5t18.5 36.5h113q-3 -69 -50.5 -111.5t-123.5 -42.5zM65 0v680h477v-149h-293v-114h243v-144h-243v-124h303v-149h-487z" />
    <glyph glyph-name="ebreve" unicode="&#x115;" horiz-adv-x="551" 
d="M276 576q-76 0 -123.5 42.5t-50.5 111.5h113q2 -23 18.5 -36.5t42.5 -13.5t42.5 13.5t18.5 36.5h113q-3 -69 -50.5 -111.5t-123.5 -42.5zM282 -12q-246 0 -246 223v103q0 223 241 223q240 0 240 -223v-98h-300v-16q0 -44 15.5 -63.5t49.5 -19.5q54 0 60 50h173
q-9 -179 -233 -179zM217 318h129v7q0 44 -15 63.5t-49 19.5q-35 0 -50 -19.5t-15 -63.5v-7z" />
    <glyph glyph-name="Edotaccent" unicode="&#x116;" horiz-adv-x="590" 
d="M221 739v142h165v-142h-165zM65 0v680h477v-149h-293v-114h243v-144h-243v-124h303v-149h-487z" />
    <glyph glyph-name="edotaccent" unicode="&#x117;" horiz-adv-x="551" 
d="M193 588v142h165v-142h-165zM282 -12q-246 0 -246 223v103q0 223 241 223q240 0 240 -223v-98h-300v-16q0 -44 15.5 -63.5t49.5 -19.5q54 0 60 50h173q-9 -179 -233 -179zM217 318h129v7q0 44 -15 63.5t-49 19.5q-35 0 -50 -19.5t-15 -63.5v-7z" />
    <glyph glyph-name="Eogonek" unicode="&#x118;" horiz-adv-x="590" 
d="M511 0q-51 -34 -51 -73q0 -37 43 -37q23 0 49 13v-99q-36 -12 -83 -12q-137 0 -137 95q0 64 70 113h-337v680h477v-149h-293v-114h243v-144h-243v-124h303v-149h-41z" />
    <glyph glyph-name="eogonek" unicode="&#x119;" horiz-adv-x="551" 
d="M517 216h-300v-16q0 -44 15.5 -63.5t49.5 -19.5q54 0 60 50h173q-5 -97 -72 -140q-63 -49 -63 -98q0 -39 42 -39q27 0 50 13v-99q-34 -12 -83 -12q-137 0 -137 97q0 52 48 99h-18q-246 0 -246 223v103q0 223 241 223q240 0 240 -223v-98zM217 325v-7h129v7q0 44 -15 63.5
t-49 19.5q-35 0 -50 -19.5t-15 -63.5z" />
    <glyph glyph-name="Ecaron" unicode="&#x11a;" horiz-adv-x="590" 
d="M227 739l-128 142h150l55 -51l55 51h150l-128 -142h-154zM65 0v680h477v-149h-293v-114h243v-144h-243v-124h303v-149h-487z" />
    <glyph glyph-name="ecaron" unicode="&#x11b;" horiz-adv-x="551" 
d="M199 588l-128 142h150l55 -51l55 51h150l-128 -142h-154zM282 -12q-246 0 -246 223v103q0 223 241 223q240 0 240 -223v-98h-300v-16q0 -44 15.5 -63.5t49.5 -19.5q54 0 60 50h173q-9 -179 -233 -179zM217 318h129v7q0 44 -15 63.5t-49 19.5q-35 0 -50 -19.5t-15 -63.5
v-7z" />
    <glyph glyph-name="Gcircumflex" unicode="&#x11c;" horiz-adv-x="636" 
d="M109 739l128 142h154l128 -142h-150l-55 51l-55 -51h-150zM321 -12q-141 0 -208.5 67t-67.5 208v154q0 141 66.5 208t204.5 67q262 0 271 -233h-174q-4 45 -24.5 63.5t-64.5 18.5q-54 0 -74.5 -29t-20.5 -105v-134q0 -75 21 -104.5t75 -29.5q50 0 71 24.5t23 86.5h-94
v135h268v-124q0 -141 -66 -207t-206 -66z" />
    <glyph glyph-name="gcircumflex" unicode="&#x11d;" horiz-adv-x="573" 
d="M77 588l128 142h154l128 -142h-150l-55 51l-55 -51h-150zM276 -194q-222 0 -231 181h171q4 -52 59 -52q35 0 50 19.5t15 66.5v50q-47 -41 -119 -41q-89 0 -136.5 54.5t-47.5 159.5v79q0 105 47.5 159.5t136.5 54.5q90 0 142 -65l4 53h154v-504q0 -215 -245 -215zM270 167
q49 0 70 59v115q-21 59 -70 59q-52 0 -52 -76v-81q0 -76 52 -76z" />
    <glyph glyph-name="Gbreve" unicode="&#x11e;" horiz-adv-x="636" 
d="M314 727q-76 0 -123.5 42.5t-50.5 111.5h113q2 -23 18.5 -36.5t42.5 -13.5t42.5 13.5t18.5 36.5h113q-3 -69 -50.5 -111.5t-123.5 -42.5zM321 -12q-141 0 -208.5 67t-67.5 208v154q0 141 66.5 208t204.5 67q262 0 271 -233h-174q-4 45 -24.5 63.5t-64.5 18.5
q-54 0 -74.5 -29t-20.5 -105v-134q0 -75 21 -104.5t75 -29.5q50 0 71 24.5t23 86.5h-94v135h268v-124q0 -141 -66 -207t-206 -66z" />
    <glyph glyph-name="gbreve" unicode="&#x11f;" horiz-adv-x="573" 
d="M282 576q-76 0 -123.5 42.5t-50.5 111.5h113q2 -23 18.5 -36.5t42.5 -13.5t42.5 13.5t18.5 36.5h113q-3 -69 -50.5 -111.5t-123.5 -42.5zM276 -194q-222 0 -231 181h171q4 -52 59 -52q35 0 50 19.5t15 66.5v50q-47 -41 -119 -41q-89 0 -136.5 54.5t-47.5 159.5v79
q0 105 47.5 159.5t136.5 54.5q90 0 142 -65l4 53h154v-504q0 -215 -245 -215zM270 167q49 0 70 59v115q-21 59 -70 59q-52 0 -52 -76v-81q0 -76 52 -76z" />
    <glyph glyph-name="Gdotaccent" unicode="&#x120;" horiz-adv-x="636" 
d="M231 739v142h165v-142h-165zM321 -12q-141 0 -208.5 67t-67.5 208v154q0 141 66.5 208t204.5 67q262 0 271 -233h-174q-4 45 -24.5 63.5t-64.5 18.5q-54 0 -74.5 -29t-20.5 -105v-134q0 -75 21 -104.5t75 -29.5q50 0 71 24.5t23 86.5h-94v135h268v-124q0 -141 -66 -207
t-206 -66z" />
    <glyph glyph-name="gdotaccent" unicode="&#x121;" horiz-adv-x="573" 
d="M199 588v142h165v-142h-165zM276 -194q-222 0 -231 181h171q4 -52 59 -52q35 0 50 19.5t15 66.5v50q-47 -41 -119 -41q-89 0 -136.5 54.5t-47.5 159.5v79q0 105 47.5 159.5t136.5 54.5q90 0 142 -65l4 53h154v-504q0 -215 -245 -215zM270 167q49 0 70 59v115
q-21 59 -70 59q-52 0 -52 -76v-81q0 -76 52 -76z" />
    <glyph glyph-name="Gcommaaccent" unicode="&#x122;" horiz-adv-x="636" 
d="M321 -12q-141 0 -208.5 67t-67.5 208v154q0 141 66.5 208t204.5 67q262 0 271 -233h-174q-4 45 -24.5 63.5t-64.5 18.5q-54 0 -74.5 -29t-20.5 -105v-134q0 -75 21 -104.5t75 -29.5q50 0 71 24.5t23 86.5h-94v135h268v-124q0 -141 -66 -207t-206 -66zM241 -263v60
q37 0 52.5 10t15.5 33h-68v107h165v-65q0 -86 -33 -115.5t-132 -29.5z" />
    <glyph glyph-name="gcommaaccent" unicode="&#x123;" horiz-adv-x="573" 
d="M364 788v-60q-37 0 -52.5 -10t-15.5 -33h68v-107h-165v65q0 86 33 115.5t132 29.5zM276 -194q-222 0 -231 181h171q4 -52 59 -52q35 0 50 19.5t15 66.5v50q-47 -41 -119 -41q-89 0 -136.5 54.5t-47.5 159.5v79q0 105 47.5 159.5t136.5 54.5q90 0 142 -65l4 53h154v-504
q0 -215 -245 -215zM270 167q49 0 70 59v115q-21 59 -70 59q-52 0 -52 -76v-81q0 -76 52 -76z" />
    <glyph glyph-name="Hcircumflex" unicode="&#x124;" horiz-adv-x="678" 
d="M134 739l128 142h154l128 -142h-150l-55 51l-55 -51h-150zM65 0v680h184v-259h180v259h184v-680h-184v269h-180v-269h-184z" />
    <glyph glyph-name="hcircumflex" unicode="&#x125;" horiz-adv-x="566" 
d="M-62 789l128 142h154l128 -142h-150l-55 51l-55 -51h-150zM52 0v730h181v-236q47 43 120 43q165 0 165 -187v-350h-181v332q0 56 -41 56q-43 0 -63 -51v-337h-181z" />
    <glyph glyph-name="Hbar" unicode="&#x126;" horiz-adv-x="698" 
d="M679 602v-116h-56v-486h-184v269h-180v-269h-184v486h-56v116h56v78h184v-78h180v78h184v-78h56zM439 421v65h-180v-65h180z" />
    <glyph glyph-name="hbar" unicode="&#x127;" horiz-adv-x="574" 
d="M361 537q165 0 165 -187v-350h-181v332q0 56 -41 56q-43 0 -63 -51v-337h-181v576h-58v94h58v60h181v-60h119v-94h-119v-82q47 43 120 43z" />
    <glyph glyph-name="Itilde" unicode="&#x128;" horiz-adv-x="314" 
d="M215 728q-32 0 -75 28q-25 15 -33 15q-22 0 -26 -37h-92q5 153 109 153q32 0 75 -28q25 -15 33 -15q22 0 26 37h92q-5 -153 -109 -153zM65 0v680h184v-680h-184z" />
    <glyph glyph-name="itilde" unicode="&#x129;" horiz-adv-x="285" 
d="M201 577q-32 0 -75 28q-25 15 -33 15q-22 0 -26 -37h-92q5 153 109 153q32 0 75 -28q25 -15 33 -15q22 0 26 37h92q-5 -153 -109 -153zM52 0v525h181v-525h-181z" />
    <glyph glyph-name="Imacron" unicode="&#x12a;" horiz-adv-x="314" 
d="M9 753v114h295v-114h-295zM65 0v680h184v-680h-184z" />
    <glyph glyph-name="imacron" unicode="&#x12b;" horiz-adv-x="285" 
d="M-5 602v114h295v-114h-295zM52 0v525h181v-525h-181z" />
    <glyph glyph-name="Ibreve" unicode="&#x12c;" horiz-adv-x="314" 
d="M157 727q-72 0 -118.5 42.5t-47.5 111.5h111q1 -23 16.5 -36.5t38.5 -13.5t38.5 13.5t16.5 36.5h111q-1 -69 -47.5 -111.5t-118.5 -42.5zM65 0v680h184v-680h-184z" />
    <glyph glyph-name="ibreve" unicode="&#x12d;" horiz-adv-x="285" 
d="M143 576q-72 0 -118.5 42.5t-47.5 111.5h111q1 -23 16.5 -36.5t38.5 -13.5t38.5 13.5t16.5 36.5h111q-1 -69 -47.5 -111.5t-118.5 -42.5zM52 0v525h181v-525h-181z" />
    <glyph glyph-name="Iogonek" unicode="&#x12e;" horiz-adv-x="314" 
d="M210 -110q28 0 51 13v-99q-36 -12 -86 -12q-67 0 -102.5 24.5t-35.5 69.5q0 65 73 114h-45v680h184v-680h-30q-55 -28 -55 -73q0 -37 46 -37z" />
    <glyph glyph-name="iogonek" unicode="&#x12f;" horiz-adv-x="285" 
d="M235 730v-142h-185v142h185zM194 -110q28 0 51 13v-99q-36 -12 -86 -12q-67 0 -102.5 24.5t-35.5 69.5q0 65 73 114h-42v525h181v-525h-30q-55 -28 -55 -73q0 -37 46 -37z" />
    <glyph glyph-name="Idotaccent" unicode="&#x130;" horiz-adv-x="314" 
d="M74 739v142h165v-142h-165zM65 0v680h184v-680h-184z" />
    <glyph glyph-name="dotlessi" unicode="&#x131;" horiz-adv-x="285" 
d="M52 0v525h181v-525h-181z" />
    <glyph glyph-name="IJ" unicode="&#x132;" horiz-adv-x="871" 
d="M65 0v680h184v-680h-184zM571 -12q-128 0 -185.5 58t-57.5 186v22h175v-22q0 -49 15 -71t50 -22t49.5 22t14.5 73v446h184v-453q0 -125 -58.5 -182t-186.5 -57z" />
    <glyph glyph-name="ij" unicode="&#x133;" horiz-adv-x="570" 
d="M50 588v142h185v-142h-185zM335 588v142h185v-142h-185zM52 0v525h181v-525h-181zM279 -182v134h22q21 0 28.5 8.5t7.5 32.5v532h181v-546q0 -85 -34.5 -123t-110.5 -38h-94z" />
    <glyph glyph-name="Jcircumflex" unicode="&#x134;" horiz-adv-x="557" 
d="M215 739l115 142h160l115 -142h-144l-51 54l-51 -54h-144zM257 -12q-128 0 -185.5 58t-57.5 186v22h175v-22q0 -49 15 -71t50 -22t49.5 22t14.5 73v446h184v-453q0 -125 -58.5 -182t-186.5 -57z" />
    <glyph glyph-name="jcircumflex" unicode="&#x135;" horiz-adv-x="285" 
d="M-52 588l115 142h160l115 -142h-144l-51 54l-51 -54h-144zM-6 -182v134h22q21 0 28.5 8.5t7.5 32.5v532h181v-546q0 -85 -34.5 -123t-110.5 -38h-94z" />
    <glyph glyph-name="Kcommaaccent" unicode="&#x136;" horiz-adv-x="628" 
d="M65 0v680h184v-261l187 261h205l-209 -280l211 -400h-208l-129 255l-57 -79v-176h-184zM256 -263v60q37 0 52.5 10t15.5 33h-68v107h165v-65q0 -86 -33 -115.5t-132 -29.5z" />
    <glyph glyph-name="kcommaaccent" unicode="&#x137;" horiz-adv-x="562" 
d="M52 0v730h181v-386l141 181h202l-177 -216l179 -309h-210l-97 184l-38 -50v-134h-181zM217 -263v60q37 0 52.5 10t15.5 33h-68v107h165v-65q0 -86 -33 -115.5t-132 -29.5z" />
    <glyph glyph-name="kgreenlandic" unicode="&#x138;" horiz-adv-x="562" 
d="M52 0v525h181v-181l141 181h202l-177 -216l179 -309h-210l-97 184l-38 -50v-134h-181z" />
    <glyph glyph-name="Lacute" unicode="&#x139;" horiz-adv-x="518" 
d="M47 739l114 142h186l-150 -142h-150zM65 0v680h184v-528h263v-152h-447z" />
    <glyph glyph-name="lacute" unicode="&#x13a;" horiz-adv-x="285" 
d="M33 789l114 142h186l-150 -142h-150zM52 0v730h181v-730h-181z" />
    <glyph glyph-name="Lcommaaccent" unicode="&#x13b;" horiz-adv-x="518" 
d="M65 0v680h184v-528h263v-152h-447zM206 -263v60q37 0 52.5 10t15.5 33h-68v107h165v-65q0 -86 -33 -115.5t-132 -29.5z" />
    <glyph glyph-name="lcommaaccent" unicode="&#x13c;" horiz-adv-x="285" 
d="M52 0v730h181v-730h-181zM61 -263v60q37 0 52.5 10t15.5 33h-68v107h165v-65q0 -86 -33 -115.5t-132 -29.5z" />
    <glyph glyph-name="Lcaron" unicode="&#x13d;" horiz-adv-x="518" 
d="M65 0v680h184v-528h263v-152h-447zM285 451l35 229h160l-85 -229h-110z" />
    <glyph glyph-name="lcaron" unicode="&#x13e;" horiz-adv-x="367" 
d="M52 0v730h181v-730h-181zM251 501l35 229h160l-85 -229h-110z" />
    <glyph glyph-name="Ldot" unicode="&#x13f;" horiz-adv-x="518" 
d="M65 0v680h184v-528h263v-152h-447zM336 316v159h159v-159h-159z" />
    <glyph glyph-name="ldot" unicode="&#x140;" horiz-adv-x="430" 
d="M52 0v730h181v-730h-181zM278 281v159h159v-159h-159z" />
    <glyph glyph-name="Lslash" unicode="&#x141;" horiz-adv-x="528" 
d="M259 152h263v-152h-447v151l-56 -36v164l56 36v365h184v-246l163 105v-164l-163 -105v-118z" />
    <glyph glyph-name="lslash" unicode="&#x142;" horiz-adv-x="321" 
d="M319 550v-148l-68 -44v-358h-181v242l-68 -44v148l68 44v340h181v-224z" />
    <glyph glyph-name="Nacute" unicode="&#x143;" horiz-adv-x="672" 
d="M226 739l114 142h186l-150 -142h-150zM65 0v680h185l190 -367v367h167v-680h-167l-208 402v-402h-167z" />
    <glyph glyph-name="nacute" unicode="&#x144;" horiz-adv-x="566" 
d="M173 588l114 142h186l-150 -142h-150zM52 0v525h154l4 -55q54 67 143 67q165 0 165 -187v-350h-181v332q0 56 -41 56q-43 0 -63 -51v-337h-181z" />
    <glyph glyph-name="Ncommaaccent" unicode="&#x145;" horiz-adv-x="672" 
d="M65 0v680h185l190 -367v367h167v-680h-167l-208 402v-402h-167zM254 -263v60q37 0 52.5 10t15.5 33h-68v107h165v-65q0 -86 -33 -115.5t-132 -29.5z" />
    <glyph glyph-name="ncommaaccent" unicode="&#x146;" horiz-adv-x="566" 
d="M52 0v525h154l4 -55q54 67 143 67q165 0 165 -187v-350h-181v332q0 56 -41 56q-43 0 -63 -51v-337h-181zM203 -263v60q37 0 52.5 10t15.5 33h-68v107h165v-65q0 -86 -33 -115.5t-132 -29.5z" />
    <glyph glyph-name="Ncaron" unicode="&#x147;" horiz-adv-x="672" 
d="M259 739l-128 142h150l55 -51l55 51h150l-128 -142h-154zM65 0v680h185l190 -367v367h167v-680h-167l-208 402v-402h-167z" />
    <glyph glyph-name="ncaron" unicode="&#x148;" horiz-adv-x="566" 
d="M206 588l-128 142h150l55 -51l55 51h150l-128 -142h-154zM52 0v525h154l4 -55q54 67 143 67q165 0 165 -187v-350h-181v332q0 56 -41 56q-43 0 -63 -51v-337h-181z" />
    <glyph glyph-name="napostrophe" unicode="&#x149;" horiz-adv-x="677" 
d="M0 461v77q68 0 68 52v4h-68v136h165v-114q0 -81 -37.5 -118t-127.5 -37zM163 0v525h154l4 -55q54 67 143 67q165 0 165 -187v-350h-181v332q0 56 -41 56q-43 0 -63 -51v-337h-181z" />
    <glyph glyph-name="Eng" unicode="&#x14a;" horiz-adv-x="672" 
d="M368 -182v134h37q20 0 27.5 8.5t7.5 33.5v6l-208 402v-402h-167v680h185l190 -367v367h167v-701q0 -85 -34.5 -123t-110.5 -38h-94z" />
    <glyph glyph-name="eng" unicode="&#x14b;" horiz-adv-x="566" 
d="M353 537q165 0 165 -187v-371q0 -87 -36.5 -124t-122.5 -37h-78v134h21q20 0 27.5 8.5t7.5 33.5v338q0 56 -41 56q-43 0 -63 -51v-337h-181v525h154l4 -55q54 67 143 67z" />
    <glyph glyph-name="Omacron" unicode="&#x14c;" horiz-adv-x="652" 
d="M168 753v114h316v-114h-316zM326 -12q-147 0 -214 66.5t-67 213.5v144q0 147 67 213.5t214 66.5t214 -66.5t67 -213.5v-144q0 -147 -67 -213.5t-214 -66.5zM326 139q55 0 76 29t21 104v136q0 75 -21 104t-76 29t-76 -29t-21 -104v-136q0 -75 21 -104t76 -29z" />
    <glyph glyph-name="omacron" unicode="&#x14d;" horiz-adv-x="562" 
d="M123 602v114h316v-114h-316zM281 -12q-245 0 -245 223v103q0 223 245 223t245 -223v-103q0 -223 -245 -223zM281 125q34 0 49 20t15 69v97q0 49 -15 69t-49 20t-49 -20t-15 -69v-97q0 -49 15 -69t49 -20z" />
    <glyph glyph-name="Obreve" unicode="&#x14e;" horiz-adv-x="652" 
d="M326 727q-76 0 -123.5 42.5t-50.5 111.5h113q2 -23 18.5 -36.5t42.5 -13.5t42.5 13.5t18.5 36.5h113q-3 -69 -50.5 -111.5t-123.5 -42.5zM326 -12q-147 0 -214 66.5t-67 213.5v144q0 147 67 213.5t214 66.5t214 -66.5t67 -213.5v-144q0 -147 -67 -213.5t-214 -66.5z
M326 139q55 0 76 29t21 104v136q0 75 -21 104t-76 29t-76 -29t-21 -104v-136q0 -75 21 -104t76 -29z" />
    <glyph glyph-name="obreve" unicode="&#x14f;" horiz-adv-x="562" 
d="M281 576q-76 0 -123.5 42.5t-50.5 111.5h113q2 -23 18.5 -36.5t42.5 -13.5t42.5 13.5t18.5 36.5h113q-3 -69 -50.5 -111.5t-123.5 -42.5zM281 -12q-245 0 -245 223v103q0 223 245 223t245 -223v-103q0 -223 -245 -223zM281 125q34 0 49 20t15 69v97q0 49 -15 69t-49 20
t-49 -20t-15 -69v-97q0 -49 15 -69t49 -20z" />
    <glyph glyph-name="Ohungarumlaut" unicode="&#x150;" horiz-adv-x="652" 
d="M128 739l89 142h170l-125 -142h-134zM346 739l89 142h170l-125 -142h-134zM326 -12q-147 0 -214 66.5t-67 213.5v144q0 147 67 213.5t214 66.5t214 -66.5t67 -213.5v-144q0 -147 -67 -213.5t-214 -66.5zM326 139q55 0 76 29t21 104v136q0 75 -21 104t-76 29t-76 -29
t-21 -104v-136q0 -75 21 -104t76 -29z" />
    <glyph glyph-name="ohungarumlaut" unicode="&#x151;" horiz-adv-x="562" 
d="M83 588l89 142h170l-125 -142h-134zM301 588l89 142h170l-125 -142h-134zM281 -12q-245 0 -245 223v103q0 223 245 223t245 -223v-103q0 -223 -245 -223zM281 125q34 0 49 20t15 69v97q0 49 -15 69t-49 20t-49 -20t-15 -69v-97q0 -49 15 -69t49 -20z" />
    <glyph glyph-name="OE" unicode="&#x152;" horiz-adv-x="882" 
d="M312 0q-139 0 -203.5 65t-64.5 205v140q0 140 64.5 205t203.5 65h522v-149h-268v-114h218v-144h-218v-124h278v-149h-532zM338 144h44v392h-44q-63 0 -86.5 -28t-23.5 -102v-132q0 -74 23.5 -102t86.5 -28z" />
    <glyph glyph-name="oe" unicode="&#x153;" horiz-adv-x="860" 
d="M264 -12q-228 0 -228 223v103q0 223 228 223q121 0 171 -67q49 67 166 67q110 0 167.5 -56.5t57.5 -166.5v-98h-300v-10q0 -48 15.5 -68.5t49.5 -20.5q54 0 60 50h173q-9 -179 -217 -179q-121 0 -172 67q-51 -67 -171 -67zM526 318h129v1q0 49 -14.5 69t-49.5 20
t-50 -20.5t-15 -68.5v-1zM281 125q34 0 49 20t15 69v97q0 49 -15 69t-49 20t-49 -20t-15 -69v-97q0 -49 15 -69t49 -20z" />
    <glyph glyph-name="Racute" unicode="&#x154;" horiz-adv-x="633" 
d="M194 739l114 142h186l-150 -142h-150zM65 0v680h285q130 0 187 -52t57 -170q0 -162 -114 -203l139 -255h-209l-113 237h-48v-237h-184zM249 381h81q44 0 62.5 18t18.5 59q0 42 -18.5 60t-62.5 18h-81v-155z" />
    <glyph glyph-name="racute" unicode="&#x155;" horiz-adv-x="387" 
d="M99 588l114 142h186l-150 -142h-150zM52 0v525h154l6 -88q15 51 45.5 74.5t80.5 23.5h41v-162h-29q-53 0 -80.5 -19t-36.5 -62v-292h-181z" />
    <glyph glyph-name="Rcommaaccent" unicode="&#x156;" horiz-adv-x="633" 
d="M65 0v680h285q130 0 187 -52t57 -170q0 -162 -114 -203l139 -255h-209l-113 237h-48v-237h-184zM249 381h81q44 0 62.5 18t18.5 59q0 42 -18.5 60t-62.5 18h-81v-155zM246 -263v60q37 0 52.5 10t15.5 33h-68v107h165v-65q0 -86 -33 -115.5t-132 -29.5z" />
    <glyph glyph-name="rcommaaccent" unicode="&#x157;" horiz-adv-x="387" 
d="M52 0v525h154l6 -88q15 51 45.5 74.5t80.5 23.5h41v-162h-29q-53 0 -80.5 -19t-36.5 -62v-292h-181zM61 -263v60q37 0 52.5 10t15.5 33h-68v107h165v-65q0 -86 -33 -115.5t-132 -29.5z" />
    <glyph glyph-name="Rcaron" unicode="&#x158;" horiz-adv-x="633" 
d="M227 739l-128 142h150l55 -51l55 51h150l-128 -142h-154zM65 0v680h285q130 0 187 -52t57 -170q0 -162 -114 -203l139 -255h-209l-113 237h-48v-237h-184zM249 381h81q44 0 62.5 18t18.5 59q0 42 -18.5 60t-62.5 18h-81v-155z" />
    <glyph glyph-name="rcaron" unicode="&#x159;" horiz-adv-x="387" 
d="M132 588l-128 142h150l55 -51l55 51h150l-128 -142h-154zM52 0v525h154l6 -88q15 51 45.5 74.5t80.5 23.5h41v-162h-29q-53 0 -80.5 -19t-36.5 -62v-292h-181z" />
    <glyph glyph-name="Sacute" unicode="&#x15a;" horiz-adv-x="572" 
d="M169 739l114 142h186l-150 -142h-150zM282 -12q-134 0 -194.5 53t-60.5 171h180q0 -47 18.5 -67t60.5 -20q74 0 74 59q0 35 -27 54.5t-96 32.5q-110 21 -156 68t-46 139q0 214 255 214q124 0 184 -53t60 -164h-179q0 42 -16.5 61t-51.5 19q-68 0 -68 -58q0 -34 26 -51.5
t94 -30.5q112 -21 158.5 -70t46.5 -143q0 -109 -64.5 -161.5t-197.5 -52.5z" />
    <glyph glyph-name="sacute" unicode="&#x15b;" horiz-adv-x="511" 
d="M143 588l114 142h186l-150 -142h-150zM255 -12q-120 0 -176 44t-56 138h172q0 -34 14.5 -49t46.5 -15q53 0 53 38q0 23 -22 36t-78 22q-96 16 -137 53t-41 109q0 85 57 129t167 44q221 0 221 -175h-172q0 30 -11.5 43.5t-36.5 13.5q-47 0 -47 -39q0 -23 21 -34.5
t77 -20.5q97 -16 138.5 -55t41.5 -113q0 -169 -232 -169z" />
    <glyph glyph-name="Scircumflex" unicode="&#x15c;" horiz-adv-x="572" 
d="M74 739l128 142h154l128 -142h-150l-55 51l-55 -51h-150zM282 -12q-134 0 -194.5 53t-60.5 171h180q0 -47 18.5 -67t60.5 -20q74 0 74 59q0 35 -27 54.5t-96 32.5q-110 21 -156 68t-46 139q0 214 255 214q124 0 184 -53t60 -164h-179q0 42 -16.5 61t-51.5 19
q-68 0 -68 -58q0 -34 26 -51.5t94 -30.5q112 -21 158.5 -70t46.5 -143q0 -109 -64.5 -161.5t-197.5 -52.5z" />
    <glyph glyph-name="scircumflex" unicode="&#x15d;" horiz-adv-x="511" 
d="M48 588l128 142h154l128 -142h-150l-55 51l-55 -51h-150zM255 -12q-120 0 -176 44t-56 138h172q0 -34 14.5 -49t46.5 -15q53 0 53 38q0 23 -22 36t-78 22q-96 16 -137 53t-41 109q0 85 57 129t167 44q221 0 221 -175h-172q0 30 -11.5 43.5t-36.5 13.5q-47 0 -47 -39
q0 -23 21 -34.5t77 -20.5q97 -16 138.5 -55t41.5 -113q0 -169 -232 -169z" />
    <glyph glyph-name="Scedilla" unicode="&#x15e;" horiz-adv-x="572" 
d="M544 202q0 -200 -225 -213l-15 -41q114 0 114 -77q0 -40 -33 -62.5t-117 -22.5q-70 0 -118 24l24 62q32 -18 65 -18q41 0 41 24q0 12 -12 17t-45 5h-12l36 89q-115 7 -167.5 60t-52.5 163h180q0 -47 18.5 -67t60.5 -20q74 0 74 59q0 35 -27 54.5t-96 32.5
q-110 21 -156 68t-46 139q0 214 255 214q124 0 184 -53t60 -164h-179q0 42 -16.5 61t-51.5 19q-68 0 -68 -58q0 -34 26 -51.5t94 -30.5q112 -21 158.5 -70t46.5 -143z" />
    <glyph glyph-name="scedilla" unicode="&#x15f;" horiz-adv-x="511" 
d="M487 157q0 -158 -199 -168l-15 -41q114 0 114 -77q0 -40 -33 -62.5t-117 -22.5q-70 0 -118 24l24 62q31 -18 65 -18q41 0 41 24q0 12 -12 17t-45 5h-12l36 89q-99 7 -146 51t-47 130h172q0 -34 14.5 -49t46.5 -15q53 0 53 38q0 23 -22 36t-78 22q-96 16 -137 53t-41 109
q0 85 57 129t167 44q221 0 221 -175h-172q0 30 -11.5 43.5t-36.5 13.5q-47 0 -47 -39q0 -23 21 -34.5t77 -20.5q97 -16 138.5 -55t41.5 -113z" />
    <glyph glyph-name="Scaron" unicode="&#x160;" horiz-adv-x="572" 
d="M202 739l-128 142h150l55 -51l55 51h150l-128 -142h-154zM282 -12q-134 0 -194.5 53t-60.5 171h180q0 -47 18.5 -67t60.5 -20q74 0 74 59q0 35 -27 54.5t-96 32.5q-110 21 -156 68t-46 139q0 214 255 214q124 0 184 -53t60 -164h-179q0 42 -16.5 61t-51.5 19
q-68 0 -68 -58q0 -34 26 -51.5t94 -30.5q112 -21 158.5 -70t46.5 -143q0 -109 -64.5 -161.5t-197.5 -52.5z" />
    <glyph glyph-name="scaron" unicode="&#x161;" horiz-adv-x="511" 
d="M176 588l-128 142h150l55 -51l55 51h150l-128 -142h-154zM255 -12q-120 0 -176 44t-56 138h172q0 -34 14.5 -49t46.5 -15q53 0 53 38q0 23 -22 36t-78 22q-96 16 -137 53t-41 109q0 85 57 129t167 44q221 0 221 -175h-172q0 30 -11.5 43.5t-36.5 13.5q-47 0 -47 -39
q0 -23 21 -34.5t77 -20.5q97 -16 138.5 -55t41.5 -113q0 -169 -232 -169z" />
    <glyph glyph-name="uni0162" unicode="&#x162;" horiz-adv-x="538" 
d="M361 0h-51l-27 -52q108 -1 108 -77q0 -40 -33 -62.5t-117 -22.5q-70 0 -118 24l24 62q31 -18 65 -18q41 0 41 24q0 12 -12 17t-45 5h-12l54 100h-61v528h-171v152h526v-152h-171v-528z" />
    <glyph glyph-name="uni0163" unicode="&#x163;" horiz-adv-x="375" 
d="M359 0h-123l-19 -52q114 0 114 -77q0 -40 -33 -62.5t-117 -22.5q-70 0 -118 24l24 62q31 -18 65 -18q41 0 41 24q0 12 -12 17t-45 5h-12l43 108q-48 14 -69.5 54.5t-21.5 112.5v221h-68v129h72l8 127h169v-127h98v-129h-98v-211q0 -29 9.5 -40t35.5 -11h57v-134z" />
    <glyph glyph-name="Tcaron" unicode="&#x164;" horiz-adv-x="538" 
d="M192 739l-128 142h150l55 -51l55 51h150l-128 -142h-154zM177 0v528h-171v152h526v-152h-171v-528h-184z" />
    <glyph glyph-name="tcaron" unicode="&#x165;" horiz-adv-x="375" 
d="M281 556l35 229h160l-85 -229h-110zM234 0q-84 0 -121 41t-37 134v221h-68v129h72l8 127h169v-127h98v-129h-98v-211q0 -29 9.5 -40t35.5 -11h57v-134h-125z" />
    <glyph glyph-name="Tbar" unicode="&#x166;" horiz-adv-x="538" 
d="M532 528h-171v-124h114v-144h-114v-260h-184v260h-114v144h114v124h-171v152h526v-152z" />
    <glyph glyph-name="tbar" unicode="&#x167;" horiz-adv-x="375" 
d="M302 134h57v-134h-125q-84 0 -121 41t-37 134v59h-62v102h62v60h-68v129h72l8 127h169v-127h98v-129h-98v-60h88v-102h-88v-49q0 -29 9.5 -40t35.5 -11z" />
    <glyph glyph-name="Utilde" unicode="&#x168;" horiz-adv-x="629" 
d="M377 728q-34 0 -81 28q-25 15 -36 15q-26 0 -30 -37h-93q4 153 116 153q34 0 81 -28q25 -15 36 -15q26 0 30 37h93q-4 -153 -116 -153zM314 -12q-136 0 -197.5 57.5t-61.5 185.5v449h184v-443q0 -54 18 -76t62 -22t62 22t18 76v443h175v-449q0 -128 -62 -185.5
t-198 -57.5z" />
    <glyph glyph-name="utilde" unicode="&#x169;" horiz-adv-x="570" 
d="M345 577q-34 0 -81 28q-25 15 -36 15q-26 0 -30 -37h-93q4 153 116 153q34 0 81 -28q25 -15 36 -15q26 0 30 37h93q-4 -153 -116 -153zM215 -12q-167 0 -167 187v350h181v-332q0 -56 43 -56q44 0 65 51v337h181v-525h-154l-4 55q-54 -67 -145 -67z" />
    <glyph glyph-name="Umacron" unicode="&#x16a;" horiz-adv-x="629" 
d="M157 753v114h316v-114h-316zM314 -12q-136 0 -197.5 57.5t-61.5 185.5v449h184v-443q0 -54 18 -76t62 -22t62 22t18 76v443h175v-449q0 -128 -62 -185.5t-198 -57.5z" />
    <glyph glyph-name="umacron" unicode="&#x16b;" horiz-adv-x="570" 
d="M125 602v114h316v-114h-316zM215 -12q-167 0 -167 187v350h181v-332q0 -56 43 -56q44 0 65 51v337h181v-525h-154l-4 55q-54 -67 -145 -67z" />
    <glyph glyph-name="Ubreve" unicode="&#x16c;" horiz-adv-x="629" 
d="M315 727q-76 0 -123.5 42.5t-50.5 111.5h113q2 -23 18.5 -36.5t42.5 -13.5t42.5 13.5t18.5 36.5h113q-3 -69 -50.5 -111.5t-123.5 -42.5zM314 -12q-136 0 -197.5 57.5t-61.5 185.5v449h184v-443q0 -54 18 -76t62 -22t62 22t18 76v443h175v-449q0 -128 -62 -185.5
t-198 -57.5z" />
    <glyph glyph-name="ubreve" unicode="&#x16d;" horiz-adv-x="570" 
d="M283 576q-76 0 -123.5 42.5t-50.5 111.5h113q2 -23 18.5 -36.5t42.5 -13.5t42.5 13.5t18.5 36.5h113q-3 -69 -50.5 -111.5t-123.5 -42.5zM215 -12q-167 0 -167 187v350h181v-332q0 -56 43 -56q44 0 65 51v337h181v-525h-154l-4 55q-54 -67 -145 -67z" />
    <glyph glyph-name="Uring" unicode="&#x16e;" horiz-adv-x="629" 
d="M315 718q-57 0 -94 35t-37 88t37 88t94 35t94 -35t37 -88t-37 -88t-94 -35zM315 798q38 0 38 43t-38 43t-38 -43t38 -43zM314 -12q-136 0 -197.5 57.5t-61.5 185.5v449h184v-443q0 -54 18 -76t62 -22t62 22t18 76v443h175v-449q0 -128 -62 -185.5t-198 -57.5z" />
    <glyph glyph-name="uring" unicode="&#x16f;" horiz-adv-x="570" 
d="M283 567q-57 0 -94 35t-37 88t37 88t94 35t94 -35t37 -88t-37 -88t-94 -35zM283 647q38 0 38 43t-38 43t-38 -43t38 -43zM215 -12q-167 0 -167 187v350h181v-332q0 -56 43 -56q44 0 65 51v337h181v-525h-154l-4 55q-54 -67 -145 -67z" />
    <glyph glyph-name="Uhungarumlaut" unicode="&#x170;" horiz-adv-x="629" 
d="M117 739l89 142h170l-125 -142h-134zM335 739l89 142h170l-125 -142h-134zM314 -12q-136 0 -197.5 57.5t-61.5 185.5v449h184v-443q0 -54 18 -76t62 -22t62 22t18 76v443h175v-449q0 -128 -62 -185.5t-198 -57.5z" />
    <glyph glyph-name="uhungarumlaut" unicode="&#x171;" horiz-adv-x="570" 
d="M85 588l89 142h170l-125 -142h-134zM303 588l89 142h170l-125 -142h-134zM215 -12q-167 0 -167 187v350h181v-332q0 -56 43 -56q44 0 65 51v337h181v-525h-154l-4 55q-54 -67 -145 -67z" />
    <glyph glyph-name="Uogonek" unicode="&#x172;" horiz-adv-x="629" 
d="M399 680h175v-449q0 -97 -35.5 -153t-110.5 -77q-70 -28 -70 -74q0 -37 42 -37q27 0 50 13v-99q-35 -12 -83 -12q-137 0 -137 95q0 61 61 101q-124 4 -180 62.5t-56 180.5v449h184v-443q0 -54 18 -76t62 -22t62 22t18 76v443z" />
    <glyph glyph-name="uogonek" unicode="&#x173;" horiz-adv-x="570" 
d="M477 0q-51 -34 -51 -73q0 -37 43 -37q23 0 49 13v-99q-36 -12 -83 -12q-137 0 -137 95q0 64 70 113h-4l-4 55q-54 -67 -145 -67q-167 0 -167 187v350h181v-332q0 -56 43 -56q44 0 65 51v337h181v-525h-41z" />
    <glyph glyph-name="Wcircumflex" unicode="&#x174;" horiz-adv-x="891" 
d="M241 739l128 142h154l128 -142h-150l-55 51l-55 -51h-150zM160 0l-157 680h189l83 -430l101 430h149l101 -430l83 430h179l-157 -680h-189l-94 402l-94 -402h-194z" />
    <glyph glyph-name="wcircumflex" unicode="&#x175;" horiz-adv-x="812" 
d="M201 588l128 142h154l128 -142h-150l-55 51l-55 -51h-150zM139 0l-138 525h187l62 -325l84 325h151l84 -325l62 325h180l-138 -525h-195l-72 278l-72 -278h-195z" />
    <glyph glyph-name="Ycircumflex" unicode="&#x176;" horiz-adv-x="549" 
d="M69 739l128 142h154l128 -142h-150l-55 51l-55 -51h-150zM183 0v282l-211 398h210l101 -212l101 212h193l-211 -398v-282h-183z" />
    <glyph glyph-name="ycircumflex" unicode="&#x177;" horiz-adv-x="511" 
d="M51 588l128 142h154l128 -142h-150l-55 51l-55 -51h-150zM63 -182v134h72q18 0 25.5 5.5t12.5 24.5l3 12l-179 531h192l75 -299l68 299h182l-170 -561q-26 -88 -63.5 -117t-123.5 -29h-94z" />
    <glyph glyph-name="Ydieresis" unicode="&#x178;" horiz-adv-x="549" 
d="M86 739v142h155v-142h-155zM307 739v142h155v-142h-155zM183 0v282l-211 398h210l101 -212l101 212h193l-211 -398v-282h-183z" />
    <glyph glyph-name="Zacute" unicode="&#x179;" horiz-adv-x="564" 
d="M176 739l114 142h186l-150 -142h-150zM24 0v135l288 396h-271v149h490v-134l-289 -397h298v-149h-516z" />
    <glyph glyph-name="zacute" unicode="&#x17a;" horiz-adv-x="476" 
d="M132 588l114 142h186l-150 -142h-150zM18 0v118l215 274h-194v133h414v-118l-215 -274h220v-133h-440z" />
    <glyph glyph-name="Zdotaccent" unicode="&#x17b;" horiz-adv-x="564" 
d="M203 739v142h165v-142h-165zM24 0v135l288 396h-271v149h490v-134l-289 -397h298v-149h-516z" />
    <glyph glyph-name="zdotaccent" unicode="&#x17c;" horiz-adv-x="476" 
d="M159 588v142h165v-142h-165zM18 0v118l215 274h-194v133h414v-118l-215 -274h220v-133h-440z" />
    <glyph glyph-name="Zcaron" unicode="&#x17d;" horiz-adv-x="564" 
d="M209 739l-128 142h150l55 -51l55 51h150l-128 -142h-154zM24 0v135l288 396h-271v149h490v-134l-289 -397h298v-149h-516z" />
    <glyph glyph-name="zcaron" unicode="&#x17e;" horiz-adv-x="476" 
d="M165 588l-128 142h150l55 -51l55 51h150l-128 -142h-154zM18 0v118l215 274h-194v133h414v-118l-215 -274h220v-133h-440z" />
    <glyph glyph-name="florin" unicode="&#x192;" horiz-adv-x="594" 
d="M45 -60l17 133h53q28 0 41 14t17 47l24 202h-101v134h118l6 52q12 97 54 137.5t131 40.5h133l-16 -133h-64q-28 0 -41 -14t-17 -47l-4 -36h111v-134h-128l-27 -218q-12 -97 -54 -137.5t-130 -40.5h-123z" />
    <glyph glyph-name="Aringacute" unicode="&#x1fa;" horiz-adv-x="625" 
d="M202 986l114 142h186l-150 -142h-150zM312 714q-57 0 -94 35t-37 88t37 88t94 35t94 -35t37 -88t-37 -88t-94 -35zM312 794q38 0 38 43t-38 43t-38 -43t38 -43zM0 0l214 680h197l214 -680h-193l-33 121h-182l-33 -121h-184zM253 263h110l-55 221z" />
    <glyph glyph-name="aringacute" unicode="&#x1fb;" horiz-adv-x="535" 
d="M153 835l114 142h186l-150 -142h-150zM263 563q-57 0 -94 35t-37 88t37 88t94 35t94 -35t37 -88t-37 -88t-94 -35zM263 643q38 0 38 43t-38 43t-38 -43t38 -43zM185 -12q-77 0 -119.5 42.5t-42.5 120.5q0 170 214 170h72v19q0 36 -11 51.5t-38 15.5q-48 0 -52 -51h-172
q6 92 61.5 136.5t168.5 44.5q116 0 170 -48t54 -153v-336h-154l-5 60q-48 -72 -146 -72zM248 118q40 0 61 38v71h-38q-76 0 -76 -57q0 -25 14.5 -38.5t38.5 -13.5z" />
    <glyph glyph-name="AEacute" unicode="&#x1fc;" horiz-adv-x="914" 
d="M357 739l114 142h186l-150 -142h-150zM-28 0l365 680h529v-149h-268v-117h218v-144h-218v-121h278v-149h-462v121h-182l-64 -121h-196zM300 263h114v253z" />
    <glyph glyph-name="aeacute" unicode="&#x1fd;" horiz-adv-x="824" 
d="M295 588l114 142h186l-150 -142h-150zM201 -12q-87 0 -132.5 42t-45.5 122q0 169 214 169h72v19q0 36 -11 51.5t-38 15.5q-48 0 -52 -51h-172q12 181 213 181q113 0 159 -61q49 61 160 61q110 0 166 -56.5t56 -166.5v-98h-300v-10q0 -48 15.5 -68.5t49.5 -20.5
q54 0 60 50h173q-9 -179 -233 -179q-138 0 -198 69q-53 -69 -156 -69zM490 318h129v1q0 49 -14.5 69t-49.5 20t-50 -20.5t-15 -68.5v-1zM248 118q43 0 64 44q-3 23 -3 49v16h-38q-76 0 -76 -57q0 -25 14.5 -38.5t38.5 -13.5z" />
    <glyph glyph-name="Oslashacute" unicode="&#x1fe;" horiz-adv-x="652" 
d="M516 881l-150 -142h-150l114 142h186zM607 628l-35 -46q35 -63 35 -170v-144q0 -147 -67 -213.5t-214 -66.5q-108 0 -171 35l-26 -35l-84 64l35 46q-35 63 -35 170v144q0 147 67 213.5t214 66.5q108 0 171 -35l26 35zM229 408v-110l166 222q-22 21 -69 21q-55 0 -76 -29
t-21 -104zM423 272v110l-166 -222q22 -21 69 -21q55 0 76 29t21 104z" />
    <glyph glyph-name="oslashacute" unicode="&#x1ff;" horiz-adv-x="562" 
d="M471 730l-150 -142h-150l114 142h186zM526 474l-28 -33q28 -49 28 -127v-103q0 -223 -245 -223q-94 0 -150 31l-27 -31l-68 63l28 33q-28 49 -28 127v103q0 223 245 223q94 0 150 -31l27 31zM217 311v-52l109 126q-14 15 -45 15q-34 0 -49 -20t-15 -69zM345 214v52
l-109 -126q14 -15 45 -15q34 0 49 20t15 69z" />
    <glyph glyph-name="Scommaaccent" unicode="&#x218;" horiz-adv-x="572" 
d="M282 -12q-134 0 -194.5 53t-60.5 171h180q0 -47 18.5 -67t60.5 -20q74 0 74 59q0 35 -27 54.5t-96 32.5q-110 21 -156 68t-46 139q0 214 255 214q124 0 184 -53t60 -164h-179q0 42 -16.5 61t-51.5 19q-68 0 -68 -58q0 -34 26 -51.5t94 -30.5q112 -21 158.5 -70t46.5 -143
q0 -109 -64.5 -161.5t-197.5 -52.5zM214 -263v60q37 0 52.5 10t15.5 33h-68v107h165v-65q0 -86 -33 -115.5t-132 -29.5z" />
    <glyph glyph-name="scommaaccent" unicode="&#x219;" horiz-adv-x="511" 
d="M255 -12q-120 0 -176 44t-56 138h172q0 -34 14.5 -49t46.5 -15q53 0 53 38q0 23 -22 36t-78 22q-96 16 -137 53t-41 109q0 85 57 129t167 44q221 0 221 -175h-172q0 30 -11.5 43.5t-36.5 13.5q-47 0 -47 -39q0 -23 21 -34.5t77 -20.5q97 -16 138.5 -55t41.5 -113
q0 -169 -232 -169zM183 -263v60q37 0 52.5 10t15.5 33h-68v107h165v-65q0 -86 -33 -115.5t-132 -29.5z" />
    <glyph glyph-name="uni021A" unicode="&#x21a;" horiz-adv-x="538" 
d="M177 0v528h-171v152h526v-152h-171v-528h-184zM187 -263v60q37 0 52.5 10t15.5 33h-68v107h165v-65q0 -86 -33 -115.5t-132 -29.5z" />
    <glyph glyph-name="uni021B" unicode="&#x21b;" horiz-adv-x="375" 
d="M234 0q-84 0 -121 41t-37 134v221h-68v129h72l8 127h169v-127h98v-129h-98v-211q0 -29 9.5 -40t35.5 -11h57v-134h-125zM127 -263v60q37 0 52.5 10t15.5 33h-68v107h165v-65q0 -86 -33 -115.5t-132 -29.5z" />
    <glyph glyph-name="uni0237" unicode="&#x237;" horiz-adv-x="285" 
d="M-6 -182v134h22q21 0 28.5 8.5t7.5 32.5v532h181v-546q0 -85 -34.5 -123t-110.5 -38h-94z" />
    <glyph glyph-name="uni02BC" unicode="&#x2bc;" horiz-adv-x="205" 
d="M20 461v77q68 0 68 52v4h-68v136h165v-114q0 -81 -37.5 -118t-127.5 -37z" />
    <glyph glyph-name="circumflex" unicode="&#x2c6;" horiz-adv-x="500" 
d="M45 588l128 142h154l128 -142h-150l-55 51l-55 -51h-150z" />
    <glyph glyph-name="caron" unicode="&#x2c7;" horiz-adv-x="500" 
d="M173 588l-128 142h150l55 -51l55 51h150l-128 -142h-154z" />
    <glyph glyph-name="uni02C9" unicode="&#x2c9;" horiz-adv-x="500" 
d="M92 602v114h316v-114h-316z" />
    <glyph glyph-name="breve" unicode="&#x2d8;" horiz-adv-x="500" 
d="M250 576q-76 0 -123.5 42.5t-50.5 111.5h113q2 -23 18.5 -36.5t42.5 -13.5t42.5 13.5t18.5 36.5h113q-3 -69 -50.5 -111.5t-123.5 -42.5z" />
    <glyph glyph-name="dotaccent" unicode="&#x2d9;" horiz-adv-x="500" 
d="M167 588v142h165v-142h-165z" />
    <glyph glyph-name="ring" unicode="&#x2da;" horiz-adv-x="500" 
d="M250 567q-57 0 -94 35t-37 88t37 88t94 35t94 -35t37 -88t-37 -88t-94 -35zM250 647q38 0 38 43t-38 43t-38 -43t38 -43z" />
    <glyph glyph-name="ogonek" unicode="&#x2db;" horiz-adv-x="500" 
d="M277 -208q-137 0 -137 95q0 98 165 161l49 -28q-86 -42 -86 -93q0 -37 43 -37q23 0 49 13v-99q-36 -12 -83 -12z" />
    <glyph glyph-name="tilde" unicode="&#x2dc;" horiz-adv-x="500" 
d="M312 577q-34 0 -81 28q-25 15 -36 15q-26 0 -30 -37h-93q4 153 116 153q34 0 81 -28q25 -15 36 -15q26 0 30 37h93q-4 -153 -116 -153z" />
    <glyph glyph-name="hungarumlaut" unicode="&#x2dd;" horiz-adv-x="500" 
d="M52 588l89 142h170l-125 -142h-134zM270 588l89 142h170l-125 -142h-134z" />
    <glyph glyph-name="gravecomb" unicode="&#x300;" horiz-adv-x="0" 
d="M-40 588l-150 142h186l114 -142h-150z" />
    <glyph glyph-name="acutecomb" unicode="&#x301;" horiz-adv-x="0" 
d="M-110 588l114 142h186l-150 -142h-150z" />
    <glyph glyph-name="uni0302" unicode="&#x302;" horiz-adv-x="0" 
d="M-205 588l128 142h154l128 -142h-150l-55 51l-55 -51h-150z" />
    <glyph glyph-name="tildecomb" unicode="&#x303;" horiz-adv-x="0" 
d="M62 577q-34 0 -81 28q-25 15 -36 15q-26 0 -30 -37h-93q4 153 116 153q34 0 81 -28q25 -15 36 -15q26 0 30 37h93q-4 -153 -116 -153z" />
    <glyph glyph-name="uni0304" unicode="&#x304;" horiz-adv-x="0" 
d="M-158 602v114h316v-114h-316z" />
    <glyph glyph-name="uni0306" unicode="&#x306;" horiz-adv-x="0" 
d="M0 576q-76 0 -123.5 42.5t-50.5 111.5h113q2 -23 18.5 -36.5t42.5 -13.5t42.5 13.5t18.5 36.5h113q-3 -69 -50.5 -111.5t-123.5 -42.5z" />
    <glyph glyph-name="uni0307" unicode="&#x307;" horiz-adv-x="0" 
d="M-83 588v142h165v-142h-165z" />
    <glyph glyph-name="uni0308" unicode="&#x308;" horiz-adv-x="0" 
d="M-188 588v142h155v-142h-155zM33 588v142h155v-142h-155z" />
    <glyph glyph-name="uni030A" unicode="&#x30a;" horiz-adv-x="0" 
d="M0 567q-57 0 -94 35t-37 88t37 88t94 35t94 -35t37 -88t-37 -88t-94 -35zM0 647q38 0 38 43t-38 43t-38 -43t38 -43z" />
    <glyph glyph-name="uni030B" unicode="&#x30b;" horiz-adv-x="0" 
d="M-198 588l89 142h170l-125 -142h-134zM20 588l89 142h170l-125 -142h-134z" />
    <glyph glyph-name="uni030C" unicode="&#x30c;" horiz-adv-x="0" 
d="M-77 588l-128 142h150l55 -51l55 51h150l-128 -142h-154z" />
    <glyph glyph-name="uni0312" unicode="&#x312;" horiz-adv-x="0" 
d="M-83 578v76q0 79 34.5 106.5t130.5 27.5v-60q-37 0 -52.5 -10t-15.5 -33h68v-107h-165z" />
    <glyph glyph-name="uni0326" unicode="&#x326;" horiz-adv-x="0" 
d="M-82 -263v60q37 0 52.5 10t15.5 33h-68v107h165v-65q0 -86 -33 -115.5t-132 -29.5z" />
    <glyph glyph-name="uni0327" unicode="&#x327;" horiz-adv-x="0" 
d="M-28 -214q-70 0 -118 24l24 62q31 -18 65 -18q41 0 41 24q0 12 -12 17t-45 5h-12l46 115h72l-25 -67q114 0 114 -77q0 -40 -33 -62.5t-117 -22.5z" />
    <glyph glyph-name="uni0328" unicode="&#x328;" horiz-adv-x="0" 
d="M27 -208q-137 0 -137 95q0 98 165 161l49 -28q-86 -42 -86 -93q0 -37 43 -37q23 0 49 13v-99q-36 -12 -83 -12z" />
    <glyph glyph-name="uni0394" unicode="&#x394;" horiz-adv-x="615" 
d="M0 0l209 680h197l209 -680h-615zM220 148h165l-83 331z" />
    <glyph glyph-name="uni03A9" unicode="&#x3a9;" horiz-adv-x="652" 
d="M50 0v148h70q-75 56 -75 190v74q0 147 67 213.5t214 66.5t214 -66.5t67 -213.5v-74q0 -134 -75 -190h70v-148h-242v135q34 16 48.5 48t14.5 91v134q0 72 -22 102.5t-75 30.5t-75 -30.5t-22 -102.5v-134q0 -59 14.5 -91t48.5 -48v-135h-242z" />
    <glyph glyph-name="uni03BC" unicode="&#x3bc;" horiz-adv-x="574" 
d="M52 -182v707h181v-331q0 -57 42 -57q44 0 66 52v336h181v-525h-154l-4 55q-51 -65 -131 -67v-170h-181z" />
    <glyph glyph-name="pi" unicode="&#x3c0;" horiz-adv-x="613" 
d="M80 0v391h-72v134h589v-134h-72v-215q0 -25 8 -33.5t29 -8.5h35v-134h-109q-78 0 -111 37t-33 125v229h-83v-391h-181z" />
    <glyph glyph-name="Wgrave" unicode="&#x1e80;" horiz-adv-x="891" 
d="M406 739l-150 142h186l114 -142h-150zM160 0l-157 680h189l83 -430l101 430h149l101 -430l83 430h179l-157 -680h-189l-94 402l-94 -402h-194z" />
    <glyph glyph-name="wgrave" unicode="&#x1e81;" horiz-adv-x="812" 
d="M366 588l-150 142h186l114 -142h-150zM139 0l-138 525h187l62 -325l84 325h151l84 -325l62 325h180l-138 -525h-195l-72 278l-72 -278h-195z" />
    <glyph glyph-name="Wacute" unicode="&#x1e82;" horiz-adv-x="891" 
d="M336 739l114 142h186l-150 -142h-150zM160 0l-157 680h189l83 -430l101 430h149l101 -430l83 430h179l-157 -680h-189l-94 402l-94 -402h-194z" />
    <glyph glyph-name="wacute" unicode="&#x1e83;" horiz-adv-x="812" 
d="M296 588l114 142h186l-150 -142h-150zM139 0l-138 525h187l62 -325l84 325h151l84 -325l62 325h180l-138 -525h-195l-72 278l-72 -278h-195z" />
    <glyph glyph-name="Wdieresis" unicode="&#x1e84;" horiz-adv-x="891" 
d="M258 739v142h155v-142h-155zM479 739v142h155v-142h-155zM160 0l-157 680h189l83 -430l101 430h149l101 -430l83 430h179l-157 -680h-189l-94 402l-94 -402h-194z" />
    <glyph glyph-name="wdieresis" unicode="&#x1e85;" horiz-adv-x="812" 
d="M218 588v142h155v-142h-155zM439 588v142h155v-142h-155zM139 0l-138 525h187l62 -325l84 325h151l84 -325l62 325h180l-138 -525h-195l-72 278l-72 -278h-195z" />
    <glyph glyph-name="uni1E9E" unicode="&#x1e9e;" horiz-adv-x="658" 
d="M56 0v451q0 118 59 173.5t186 55.5h285v-127l-111 -164q84 -13 122 -58.5t38 -132.5q0 -107 -60 -152.5t-198 -45.5h-93v142h80q47 0 66.5 13.5t19.5 48.5q0 36 -20 49.5t-65 13.5h-70v113l95 158h-71q-41 0 -60 -20t-19 -65v-453h-184z" />
    <glyph glyph-name="Ygrave" unicode="&#x1ef2;" horiz-adv-x="549" 
d="M234 739l-150 142h186l114 -142h-150zM183 0v282l-211 398h210l101 -212l101 212h193l-211 -398v-282h-183z" />
    <glyph glyph-name="ygrave" unicode="&#x1ef3;" horiz-adv-x="511" 
d="M216 588l-150 142h186l114 -142h-150zM63 -182v134h72q18 0 25.5 5.5t12.5 24.5l3 12l-179 531h192l75 -299l68 299h182l-170 -561q-26 -88 -63.5 -117t-123.5 -29h-94z" />
    <glyph glyph-name="uni2002" unicode="&#x2002;" horiz-adv-x="500" 
 />
    <glyph glyph-name="uni2003" unicode="&#x2003;" horiz-adv-x="900" 
 />
    <glyph glyph-name="uni2007" unicode="&#x2007;" horiz-adv-x="594" 
 />
    <glyph glyph-name="uni2008" unicode="&#x2008;" horiz-adv-x="299" 
 />
    <glyph glyph-name="uni200B" unicode="&#x200b;" horiz-adv-x="0" 
 />
    <glyph glyph-name="figuredash" unicode="&#x2012;" horiz-adv-x="594" 
d="M30 231v136h534v-136h-534z" />
    <glyph glyph-name="endash" unicode="&#x2013;" horiz-adv-x="500" 
d="M30 231v136h440v-136h-440z" />
    <glyph glyph-name="emdash" unicode="&#x2014;" horiz-adv-x="900" 
d="M30 231v136h840v-136h-840z" />
    <glyph glyph-name="quoteleft" unicode="&#x2018;" horiz-adv-x="277" 
d="M48 318v182q0 101 41 146.5t136 45.5v-90q-64 0 -64 -72v-34h64v-178h-177z" />
    <glyph glyph-name="quoteright" unicode="&#x2019;" horiz-adv-x="277" 
d="M52 306v90q64 0 64 72v34h-64v178h177v-182q0 -101 -41 -146.5t-136 -45.5z" />
    <glyph glyph-name="quotesinglbase" unicode="&#x201a;" horiz-adv-x="277" 
d="M52 -196v90q64 0 64 72v34h-64v178h177v-182q0 -101 -41 -146.5t-136 -45.5z" />
    <glyph glyph-name="quotedblleft" unicode="&#x201c;" horiz-adv-x="530" 
d="M48 318v182q0 101 41 146.5t136 45.5v-90q-64 0 -64 -72v-34h64v-178h-177zM301 318v182q0 101 41 146.5t136 45.5v-90q-64 0 -64 -72v-34h64v-178h-177z" />
    <glyph glyph-name="quotedblright" unicode="&#x201d;" horiz-adv-x="530" 
d="M52 306v90q64 0 64 72v34h-64v178h177v-182q0 -101 -41 -146.5t-136 -45.5zM305 306v90q64 0 64 72v34h-64v178h177v-182q0 -101 -41 -146.5t-136 -45.5z" />
    <glyph glyph-name="quotedblbase" unicode="&#x201e;" horiz-adv-x="530" 
d="M52 -196v90q64 0 64 72v34h-64v178h177v-182q0 -101 -41 -146.5t-136 -45.5zM305 -196v90q64 0 64 72v34h-64v178h177v-182q0 -101 -41 -146.5t-136 -45.5z" />
    <glyph glyph-name="dagger" unicode="&#x2020;" horiz-adv-x="618" 
d="M222 -182v506l-189 -10v157l189 -10v219h172v-219l191 10v-157l-191 10v-506h-172z" />
    <glyph glyph-name="daggerdbl" unicode="&#x2021;" horiz-adv-x="618" 
d="M223 -182v199l-190 -10v157l190 -10v190l-190 -10v157l190 -10v199h172v-199l190 10v-157l-190 10v-190l190 10v-157l-190 10v-199h-172z" />
    <glyph glyph-name="bullet" unicode="&#x2022;" horiz-adv-x="500" 
d="M111 162v274h278v-274h-278z" />
    <glyph glyph-name="ellipsis" unicode="&#x2026;" horiz-adv-x="900" 
d="M58 0v183h184v-183h-184zM358 0v183h184v-183h-184zM658 0v183h184v-183h-184z" />
    <glyph glyph-name="perthousand" unicode="&#x2030;" horiz-adv-x="1154" 
d="M183 308q-156 0 -156 134v116q0 134 156 134t156 -134v-116q0 -134 -156 -134zM133 -12l411 704h119l-411 -704h-119zM183 404q34 0 34 43v107q0 42 -34 42t-34 -42v-107q0 -43 34 -43zM613 -12q-156 0 -156 134v116q0 134 156 134t156 -134v-116q0 -134 -156 -134z
M971 -12q-156 0 -156 134v116q0 134 156 134t156 -134v-116q0 -134 -156 -134zM613 84q34 0 34 43v107q0 42 -34 42t-34 -42v-107q0 -43 34 -43zM971 84q34 0 34 43v107q0 42 -34 42t-34 -42v-107q0 -43 34 -43z" />
    <glyph glyph-name="guilsinglleft" unicode="&#x2039;" horiz-adv-x="313" 
d="M140 82l-131 181l131 181h164l-131 -181l131 -181h-164z" />
    <glyph glyph-name="guilsinglright" unicode="&#x203a;" horiz-adv-x="313" 
d="M9 82l131 181l-131 181h164l131 -181l-131 -181h-164z" />
    <glyph glyph-name="fraction" unicode="&#x2044;" horiz-adv-x="118" 
d="M-183 -12l370 704h114l-370 -704h-114z" />
    <glyph glyph-name="uni2070" unicode="&#x2070;" 
d="M183 404q-156 0 -156 134v150q0 134 156 134t156 -134v-150q0 -134 -156 -134zM183 500q34 0 34 43v141q0 42 -34 42t-34 -42v-141q0 -43 34 -43z" />
    <glyph glyph-name="uni2074" unicode="&#x2074;" 
d="M194 416v78h-173v97l167 219h128v-227h36v-89h-36v-78h-122zM120 583h74v104z" />
    <glyph glyph-name="uni2075" unicode="&#x2075;" 
d="M182 404q-153 0 -153 126h117q3 -30 37 -30q38 0 38 41q0 44 -38 44q-23 0 -37 -14h-105l15 239h265v-96h-171l-5 -63q29 22 77 22q58 0 88.5 -33.5t30.5 -96.5q0 -139 -159 -139z" />
    <glyph glyph-name="uni2076" unicode="&#x2076;" 
d="M186 404q-157 0 -157 134v146q0 138 160 138q151 0 151 -127h-115q-3 31 -35 31q-21 0 -30 -11t-9 -36v-31q29 23 74 23q117 0 117 -128q0 -139 -156 -139zM187 500q35 0 35 45q0 41 -31 41q-27 0 -40 -25v-18q0 -43 36 -43z" />
    <glyph glyph-name="uni2077" unicode="&#x2077;" 
d="M68 416q9 192 149 295h-192v99h314v-103q-71 -65 -104 -132.5t-37 -158.5h-130z" />
    <glyph glyph-name="uni2078" unicode="&#x2078;" 
d="M183 404q-163 0 -163 120q0 72 61 96v2q-52 22 -52 85q0 115 154 115t154 -115q0 -65 -53 -85v-2q62 -24 62 -97q0 -119 -163 -119zM183 656q35 0 35 39q0 37 -35 37t-35 -37q0 -39 35 -39zM183 494q41 0 41 38q0 40 -41 40t-41 -40q0 -38 41 -38z" />
    <glyph glyph-name="uni2079" unicode="&#x2079;" 
d="M177 404q-151 0 -151 127h115q3 -31 35 -31q21 0 30 11t9 36v31q-29 -23 -74 -23q-117 0 -117 128q0 139 156 139q157 0 157 -134v-146q0 -138 -160 -138zM175 640q27 0 40 25v18q0 43 -36 43q-35 0 -35 -45q0 -41 31 -41z" />
    <glyph glyph-name="uni2080" unicode="&#x2080;" 
d="M183 -132q-156 0 -156 134v150q0 134 156 134t156 -134v-150q0 -134 -156 -134zM183 -36q34 0 34 43v141q0 42 -34 42t-34 -42v-141q0 -43 34 -43z" />
    <glyph glyph-name="uni2081" unicode="&#x2081;" 
d="M52 -120v94h92v163h-104v86q46 0 71.5 11.5t40.5 39.5h114v-300h92v-94h-306z" />
    <glyph glyph-name="uni2082" unicode="&#x2082;" 
d="M23 -120v53q0 57 28.5 94.5t92.5 66.5q38 17 53 31.5t15 33.5q0 31 -33 31q-35 0 -35 -44v-9h-114v19q0 64 39 97t113 33t113 -32t39 -92q0 -51 -30.5 -87.5t-98.5 -64.5q-51 -21 -57 -33h186v-97h-311z" />
    <glyph glyph-name="uni2083" unicode="&#x2083;" 
d="M183 -132q-156 0 -156 117v21h117v-7q0 -37 38 -37q37 0 37 36q0 37 -48 37h-36v83h31q46 0 46 39q0 35 -32 35q-31 0 -31 -35v-6h-116v11q0 124 151 124q148 0 148 -115q0 -63 -51 -85v-2q60 -21 60 -93q0 -123 -158 -123z" />
    <glyph glyph-name="uni2084" unicode="&#x2084;" 
d="M194 -120v78h-173v97l167 219h128v-227h36v-89h-36v-78h-122zM120 47h74v104z" />
    <glyph glyph-name="uni2085" unicode="&#x2085;" 
d="M182 -132q-153 0 -153 126h117q3 -30 37 -30q38 0 38 41q0 44 -38 44q-23 0 -37 -14h-105l15 239h265v-96h-171l-5 -63q29 22 77 22q58 0 88.5 -33.5t30.5 -96.5q0 -139 -159 -139z" />
    <glyph glyph-name="uni2086" unicode="&#x2086;" 
d="M186 -132q-157 0 -157 134v146q0 138 160 138q151 0 151 -127h-115q-3 31 -35 31q-21 0 -30 -11t-9 -36v-31q29 23 74 23q117 0 117 -128q0 -139 -156 -139zM187 -36q35 0 35 45q0 41 -31 41q-27 0 -40 -25v-18q0 -43 36 -43z" />
    <glyph glyph-name="uni2087" unicode="&#x2087;" 
d="M68 -120q9 192 149 295h-192v99h314v-103q-71 -65 -104 -132.5t-37 -158.5h-130z" />
    <glyph glyph-name="uni2088" unicode="&#x2088;" 
d="M183 -132q-163 0 -163 120q0 72 61 96v2q-52 22 -52 85q0 115 154 115t154 -115q0 -65 -53 -85v-2q62 -24 62 -97q0 -119 -163 -119zM183 120q35 0 35 39q0 37 -35 37t-35 -37q0 -39 35 -39zM183 -42q41 0 41 38q0 40 -41 40t-41 -40q0 -38 41 -38z" />
    <glyph glyph-name="uni2089" unicode="&#x2089;" 
d="M177 -132q-151 0 -151 127h115q3 -31 35 -31q21 0 30 11t9 36v31q-29 -23 -74 -23q-117 0 -117 128q0 139 156 139q157 0 157 -134v-146q0 -138 -160 -138zM175 104q27 0 40 25v18q0 43 -36 43q-35 0 -35 -45q0 -41 31 -41z" />
    <glyph glyph-name="Euro" unicode="&#x20ac;" horiz-adv-x="594" 
d="M322 -12q-248 0 -248 234v12h-37v83h37v46h-37v83h37v12q0 234 248 234q117 0 177.5 -56t62.5 -175h-167q-3 88 -73 88q-71 0 -71 -88v-15h155l-16 -83h-139v-46h131l-14 -83h-117v-15q0 -88 71 -88q70 0 73 88h167q-2 -119 -62.5 -175t-177.5 -56z" />
    <glyph glyph-name="uni20B9" unicode="&#x20b9;" horiz-adv-x="594" 
d="M290 0l-239 227v101h99q55 0 83.5 17.5t37.5 58.5h-231l23 110h204q-21 56 -107 56h-120l23 110h503l-23 -110h-126q21 -25 29 -56h120l-23 -110h-89q-13 -143 -161 -175l246 -229h-249z" />
    <glyph glyph-name="uni2113" unicode="&#x2113;" horiz-adv-x="487" 
d="M265 -12q-106 0 -160.5 57t-54.5 167v316q0 214 207 214q196 0 196 -190q0 -94 -53 -171t-169 -151v-15q0 -84 77 -84q46 0 99 42l59 -112q-85 -73 -201 -73zM231 395q73 67 73 152q0 61 -36 61q-20 0 -28.5 -19.5t-8.5 -67.5v-126z" />
    <glyph glyph-name="uni2116" unicode="&#x2116;" horiz-adv-x="1068" 
d="M65 0v680h185l190 -367v367h167v-680h-167l-208 402v-402h-167zM848 164q-175 0 -175 162v64q0 162 175 162t175 -162v-64q0 -162 -175 -162zM848 266q23 0 32 13t9 44v70q0 31 -9 44t-32 13t-32 -13t-9 -44v-70q0 -31 9 -44t32 -13zM675 0v105h346v-105h-346z" />
    <glyph glyph-name="uni2117" unicode="&#x2117;" horiz-adv-x="756" 
d="M378 -12q-152 0 -252 100t-100 252t100 252t252 100t252 -100t100 -252t-100 -252t-252 -100zM378 79q112 0 180.5 72t68.5 189t-68.5 189t-180.5 72t-180.5 -72t-68.5 -189t68.5 -189t180.5 -72zM248 163v354h158q77 0 111.5 -29.5t34.5 -93.5t-35 -93t-111 -29h-51
v-109h-107zM355 356h41q49 0 49 38q0 39 -49 39h-41v-77z" />
    <glyph glyph-name="uni2120" unicode="&#x2120;" horiz-adv-x="709" 
d="M135 341q-65 0 -94.5 26t-29.5 84h90q0 -41 36 -41q34 0 34 28q0 17 -12.5 26t-43.5 14q-53 9 -76.5 33.5t-23.5 70.5q0 106 122 106q119 0 119 -107h-90q0 38 -31 38q-30 0 -30 -28q0 -16 12.5 -24.5t43.5 -14.5q53 -11 77 -36t24 -72q0 -53 -30.5 -78t-96.5 -25z
M316 349v331h130l53 -181l52 181h134v-331h-92v224l-67 -224h-59l-67 222v-222h-84z" />
    <glyph glyph-name="trademark" unicode="&#x2122;" horiz-adv-x="694" 
d="M83 349v256h-83v75h258v-75h-83v-256h-92zM301 349v331h130l53 -181l52 181h134v-331h-92v224l-67 -224h-59l-67 222v-222h-84z" />
    <glyph glyph-name="uni2126" unicode="&#x2126;" horiz-adv-x="652" 
d="M50 0v148h70q-75 56 -75 190v74q0 147 67 213.5t214 66.5t214 -66.5t67 -213.5v-74q0 -134 -75 -190h70v-148h-242v135q34 16 48.5 48t14.5 91v134q0 72 -22 102.5t-75 30.5t-75 -30.5t-22 -102.5v-134q0 -59 14.5 -91t48.5 -48v-135h-242z" />
    <glyph glyph-name="estimated" unicode="&#x212e;" horiz-adv-x="791" 
d="M403 -12q-154 0 -262.5 103t-108.5 249t108.5 249t262.5 103t262.5 -103t108.5 -249v-9h-601q-5 0 -5 -5v-191q0 -10 9 -21q89 -105 228 -105q69 0 132 31.5t107 85.5h54q-52 -64 -129.5 -101t-165.5 -37zM173 351h461q6 0 6 6v193q0 12 -10 22q-94 99 -225 99
q-135 0 -228 -103q-9 -11 -9 -22v-190q0 -5 5 -5z" />
    <glyph glyph-name="uni2153" unicode="&#x2153;" horiz-adv-x="850" 
d="M553 692h114l-370 -704h-114l157 298h-288v94h92v163h-104v86q46 0 71.5 11.5t40.5 39.5h114v-300h92v-59zM765 204q60 -21 60 -93q0 -123 -158 -123q-156 0 -156 117v21h117v-7q0 -37 38 -37q37 0 37 36q0 37 -48 37h-36v83h31q46 0 46 39q0 35 -32 35q-31 0 -31 -35v-6
h-116v11q0 124 151 124q148 0 148 -115q0 -63 -51 -85v-2z" />
    <glyph glyph-name="uni2154" unicode="&#x2154;" horiz-adv-x="850" 
d="M23 286v53q0 57 28.5 94.5t92.5 66.5q38 17 53 31.5t15 33.5q0 31 -33 31q-35 0 -35 -44v-9h-114v19q0 64 39 97t113 33t113 -32t39 -92q0 -51 -30.5 -87.5t-98.5 -64.5q-51 -21 -57 -33h186v-97h-311zM183 -12l370 704h114l-370 -704h-114zM667 -12q-156 0 -156 117v21
h117v-7q0 -37 38 -37q37 0 37 36q0 37 -48 37h-36v83h31q46 0 46 39q0 35 -32 35q-31 0 -31 -35v-6h-116v11q0 124 151 124q148 0 148 -115q0 -63 -51 -85v-2q60 -21 60 -93q0 -123 -158 -123z" />
    <glyph glyph-name="uni2155" unicode="&#x2155;" horiz-adv-x="850" 
d="M553 692h114l-370 -704h-114l157 298h-288v94h92v163h-104v86q46 0 71.5 11.5t40.5 39.5h114v-300h92v-59zM706 257q58 0 88.5 -33.5t30.5 -96.5q0 -139 -159 -139q-153 0 -153 126h117q3 -30 37 -30q38 0 38 41q0 44 -38 44q-23 0 -37 -14h-105l15 239h265v-96h-171
l-5 -63q29 22 77 22z" />
    <glyph glyph-name="uni2156" unicode="&#x2156;" horiz-adv-x="850" 
d="M23 286v53q0 57 28.5 94.5t92.5 66.5q38 17 53 31.5t15 33.5q0 31 -33 31q-35 0 -35 -44v-9h-114v19q0 64 39 97t113 33t113 -32t39 -92q0 -51 -30.5 -87.5t-98.5 -64.5q-51 -21 -57 -33h186v-97h-311zM183 -12l370 704h114l-370 -704h-114zM666 -12q-153 0 -153 126h117
q3 -30 37 -30q38 0 38 41q0 44 -38 44q-23 0 -37 -14h-105l15 239h265v-96h-171l-5 -63q29 22 77 22q58 0 88.5 -33.5t30.5 -96.5q0 -139 -159 -139z" />
    <glyph glyph-name="uni2157" unicode="&#x2157;" horiz-adv-x="850" 
d="M183 274q-156 0 -156 117v21h117v-7q0 -37 38 -37q37 0 37 36q0 37 -48 37h-36v83h31q46 0 46 39q0 35 -32 35q-31 0 -31 -35v-6h-116v11q0 124 151 124q148 0 148 -115q0 -63 -51 -85v-2q60 -21 60 -93q0 -123 -158 -123zM183 -12l370 704h114l-370 -704h-114zM666 -12
q-153 0 -153 126h117q3 -30 37 -30q38 0 38 41q0 44 -38 44q-23 0 -37 -14h-105l15 239h265v-96h-171l-5 -63q29 22 77 22q58 0 88.5 -33.5t30.5 -96.5q0 -139 -159 -139z" />
    <glyph glyph-name="uni2158" unicode="&#x2158;" horiz-adv-x="850" 
d="M183 -12l370 704h114l-370 -704h-114zM194 286v78h-173v97l167 219h128v-227h36v-89h-36v-78h-122zM120 453h74v104zM666 -12q-153 0 -153 126h117q3 -30 37 -30q38 0 38 41q0 44 -38 44q-23 0 -37 -14h-105l15 239h265v-96h-171l-5 -63q29 22 77 22q58 0 88.5 -33.5
t30.5 -96.5q0 -139 -159 -139z" />
    <glyph glyph-name="uni2159" unicode="&#x2159;" horiz-adv-x="850" 
d="M553 692h114l-370 -704h-114l157 298h-288v94h92v163h-104v86q46 0 71.5 11.5t40.5 39.5h114v-300h92v-59zM709 255q117 0 117 -128q0 -139 -156 -139q-157 0 -157 134v146q0 138 160 138q151 0 151 -127h-115q-3 31 -35 31q-21 0 -30 -11t-9 -36v-31q29 23 74 23z
M671 84q35 0 35 45q0 41 -31 41q-27 0 -40 -25v-18q0 -43 36 -43z" />
    <glyph glyph-name="uni215A" unicode="&#x215a;" horiz-adv-x="850" 
d="M183 -12l370 704h114l-370 -704h-114zM182 274q-153 0 -153 126h117q3 -30 37 -30q38 0 38 41q0 44 -38 44q-23 0 -37 -14h-105l15 239h265v-96h-171l-5 -63q29 22 77 22q58 0 88.5 -33.5t30.5 -96.5q0 -139 -159 -139zM670 -12q-157 0 -157 134v146q0 138 160 138
q151 0 151 -127h-115q-3 31 -35 31q-21 0 -30 -11t-9 -36v-31q29 23 74 23q117 0 117 -128q0 -139 -156 -139zM671 84q35 0 35 45q0 41 -31 41q-27 0 -40 -25v-18q0 -43 36 -43z" />
    <glyph glyph-name="oneeighth" unicode="&#x215b;" horiz-adv-x="850" 
d="M553 692h114l-370 -704h-114l157 298h-288v94h92v163h-104v86q46 0 71.5 11.5t40.5 39.5h114v-300h92v-59zM768 204q62 -24 62 -97q0 -119 -163 -119t-163 120q0 72 61 96v2q-52 22 -52 85q0 115 154 115t154 -115q0 -65 -53 -85v-2zM667 316q-35 0 -35 -37q0 -39 35 -39
t35 39q0 37 -35 37zM667 78q41 0 41 38q0 40 -41 40t-41 -40q0 -38 41 -38z" />
    <glyph glyph-name="threeeighths" unicode="&#x215c;" horiz-adv-x="850" 
d="M183 274q-156 0 -156 117v21h117v-7q0 -37 38 -37q37 0 37 36q0 37 -48 37h-36v83h31q46 0 46 39q0 35 -32 35q-31 0 -31 -35v-6h-116v11q0 124 151 124q148 0 148 -115q0 -63 -51 -85v-2q60 -21 60 -93q0 -123 -158 -123zM183 -12l370 704h114l-370 -704h-114zM667 -12
q-163 0 -163 120q0 72 61 96v2q-52 22 -52 85q0 115 154 115t154 -115q0 -65 -53 -85v-2q62 -24 62 -97q0 -119 -163 -119zM667 240q35 0 35 39q0 37 -35 37t-35 -37q0 -39 35 -39zM667 78q41 0 41 38q0 40 -41 40t-41 -40q0 -38 41 -38z" />
    <glyph glyph-name="fiveeighths" unicode="&#x215d;" horiz-adv-x="850" 
d="M183 -12l370 704h114l-370 -704h-114zM182 274q-153 0 -153 126h117q3 -30 37 -30q38 0 38 41q0 44 -38 44q-23 0 -37 -14h-105l15 239h265v-96h-171l-5 -63q29 22 77 22q58 0 88.5 -33.5t30.5 -96.5q0 -139 -159 -139zM667 -12q-163 0 -163 120q0 72 61 96v2
q-52 22 -52 85q0 115 154 115t154 -115q0 -65 -53 -85v-2q62 -24 62 -97q0 -119 -163 -119zM667 240q35 0 35 39q0 37 -35 37t-35 -37q0 -39 35 -39zM667 78q41 0 41 38q0 40 -41 40t-41 -40q0 -38 41 -38z" />
    <glyph glyph-name="seveneighths" unicode="&#x215e;" horiz-adv-x="850" 
d="M156 -12l370 704h114l-370 -704h-114zM68 286q9 192 149 295h-192v99h314v-103q-71 -65 -104 -132.5t-37 -158.5h-130zM667 -12q-163 0 -163 120q0 72 61 96v2q-52 22 -52 85q0 115 154 115t154 -115q0 -65 -53 -85v-2q62 -24 62 -97q0 -119 -163 -119zM667 240
q35 0 35 39q0 37 -35 37t-35 -37q0 -39 35 -39zM667 78q41 0 41 38q0 40 -41 40t-41 -40q0 -38 41 -38z" />
    <glyph glyph-name="arrowleft" unicode="&#x2190;" horiz-adv-x="800" 
d="M378 16l-324 324l324 324l92 -92l-163 -160h439v-144h-439l163 -160z" />
    <glyph glyph-name="arrowup" unicode="&#x2191;" horiz-adv-x="800" 
d="M324 0v435l-166 -169l-92 92l334 334l334 -334l-92 -92l-166 169v-435h-152z" />
    <glyph glyph-name="arrowright" unicode="&#x2192;" horiz-adv-x="800" 
d="M54 268v144h439l-163 160l92 92l324 -324l-324 -324l-92 92l163 160h-439z" />
    <glyph glyph-name="arrowdown" unicode="&#x2193;" horiz-adv-x="800" 
d="M400 -12l-334 334l92 92l166 -169v435h152v-435l166 169l92 -92z" />
    <glyph glyph-name="arrowboth" unicode="&#x2194;" horiz-adv-x="1000" 
d="M358 36l-304 304l304 304l92 -92l-143 -140h386l-143 140l92 92l304 -304l-304 -304l-92 92l143 140h-386l143 -140z" />
    <glyph glyph-name="arrowupdn" unicode="&#x2195;" horiz-adv-x="800" 
d="M400 -84l-297 297l92 92l129 -132v334l-129 -132l-92 92l297 297l297 -297l-92 -92l-129 132v-334l129 132l92 -92z" />
    <glyph glyph-name="uni2196" unicode="&#x2196;" horiz-adv-x="800" 
d="M595 40l-332 332l2 -228h-133v464h464v-125l-236 2l340 -340z" />
    <glyph glyph-name="uni2197" unicode="&#x2197;" horiz-adv-x="800" 
d="M205 40l-105 105l340 340l-236 -2v125h464v-464h-133l2 228z" />
    <glyph glyph-name="uni2198" unicode="&#x2198;" horiz-adv-x="800" 
d="M204 72v125l236 -2l-340 340l105 105l332 -332l-2 228h133v-464h-464z" />
    <glyph glyph-name="uni2199" unicode="&#x2199;" horiz-adv-x="800" 
d="M132 72v464h133l-2 -228l332 332l105 -105l-340 -340l236 2v-125h-464z" />
    <glyph glyph-name="partialdiff" unicode="&#x2202;" horiz-adv-x="602" 
d="M259 -12q-110 0 -170 61t-60 170q0 115 64.5 186.5t169.5 71.5q71 0 113 -39q-5 84 -34 125.5t-101 41.5q-65 0 -121 -37v142q64 32 157 32q147 0 214 -81t67 -259q0 -199 -77.5 -306.5t-221.5 -107.5zM272 125q83 0 101 162q-23 53 -73 53q-41 0 -65.5 -34.5
t-24.5 -92.5q0 -88 62 -88z" />
    <glyph glyph-name="emptyset" unicode="&#x2205;" horiz-adv-x="797" 
d="M143 -12l-97 96l58 58q-58 86 -58 198q0 151 101 251.5t251 100.5q110 0 199 -57l57 57l97 -97l-57 -57q57 -89 57 -198q0 -151 -101 -251.5t-252 -100.5q-109 0 -198 57zM206 244l292 292q-44 23 -100 23q-92 0 -151.5 -61.5t-59.5 -157.5q0 -52 19 -96zM398 121
q93 0 152.5 61.5t59.5 157.5q0 50 -19 96l-292 -292q44 -23 99 -23z" />
    <glyph glyph-name="uni2206" unicode="&#x2206;" horiz-adv-x="615" 
d="M0 0l209 680h197l209 -680h-615zM220 148h165l-83 331z" />
    <glyph glyph-name="product" unicode="&#x220f;" horiz-adv-x="762" 
d="M69 -183v954h624v-954h-162v807h-299v-807h-163z" />
    <glyph glyph-name="summation" unicode="&#x2211;" horiz-adv-x="646" 
d="M24 -183v149l265 328l-265 328v149h598v-144h-394l270 -333l-270 -333h394v-144h-598z" />
    <glyph glyph-name="minus" unicode="&#x2212;" horiz-adv-x="594" 
d="M50 241v136h494v-136h-494z" />
    <glyph glyph-name="uni2215" unicode="&#x2215;" horiz-adv-x="432" 
d="M-21 -12l321 704h153l-321 -704h-153z" />
    <glyph glyph-name="uni2219" unicode="&#x2219;" horiz-adv-x="299" 
d="M57 217v185h185v-185h-185z" />
    <glyph glyph-name="radical" unicode="&#x221a;" horiz-adv-x="594" 
d="M212 -183l-86 311h-76v136h178l55 -224l189 731h146l-254 -954h-152z" />
    <glyph glyph-name="infinity" unicode="&#x221e;" horiz-adv-x="892" 
d="M246 98q-96 0 -152.5 60t-56.5 162q0 101 57.5 160.5t154.5 59.5q126 0 204 -111q41 58 87 84.5t106 26.5q95 0 152 -60.5t57 -162.5q0 -100 -57.5 -159.5t-154.5 -59.5q-126 0 -204 110q-41 -58 -87 -84t-106 -26zM630 237q35 0 54.5 22.5t19.5 62.5q0 85 -82 85
q-33 0 -58 -17t-52 -59q27 -46 53.5 -70t64.5 -24zM270 231q32 0 57 17t53 59q-27 46 -53.5 70t-64.5 24q-35 0 -54.5 -22.5t-19.5 -63.5q0 -84 82 -84z" />
    <glyph glyph-name="integral" unicode="&#x222b;" horiz-adv-x="336" 
d="M66 -194q-40 0 -70 10v124q22 -8 41 -8q61 0 61 83v567q0 104 41.5 153.5t129.5 49.5q38 0 71 -9v-125q-24 8 -41 8q-32 0 -46.5 -20t-14.5 -63v-567q0 -104 -42 -153.5t-130 -49.5z" />
    <glyph glyph-name="approxequal" unicode="&#x2248;" horiz-adv-x="594" 
d="M395 307q-67 0 -132 51q-39 30 -63 30q-47 0 -49 -67h-117q0 97 43 150t122 53q67 0 132 -51q39 -30 63 -30q47 0 49 67h117q0 -97 -43 -150t-122 -53zM395 72q-67 0 -132 51q-39 30 -63 30q-47 0 -49 -67h-117q0 97 43 150t122 53q67 0 132 -51q39 -30 63 -30
q47 0 49 67h117q0 -97 -43 -150t-122 -53z" />
    <glyph glyph-name="notequal" unicode="&#x2260;" horiz-adv-x="594" 
d="M544 356h-147l-51 -94h198v-136h-272l-63 -116h-148l63 116h-74v136h148l51 94h-199v136h273l62 115h148l-62 -115h73v-136z" />
    <glyph glyph-name="lessequal" unicode="&#x2264;" horiz-adv-x="594" 
d="M544 159l-494 155v129l494 155v-146l-267 -73l267 -74v-146zM50 0v136h494v-136h-494z" />
    <glyph glyph-name="greaterequal" unicode="&#x2265;" horiz-adv-x="594" 
d="M50 159v146l267 74l-267 73v146l494 -155v-129zM50 0v136h494v-136h-494z" />
    <glyph glyph-name="lozenge" unicode="&#x25ca;" horiz-adv-x="594" 
d="M297 -32l-275 372l275 372l275 -372zM297 202l102 138l-102 138l-102 -138z" />
    <glyph glyph-name="uniF8FF" unicode="&#xf8ff;" horiz-adv-x="649" 
d="M263 50q-101 0 -163 61t-62 163q0 101 64.5 163t185.5 62h50v116h157v-116h132v-149h-132v-51q0 -116 -63.5 -182.5t-168.5 -66.5zM266 205q72 0 72 92v53h-49q-89 0 -89 -76q0 -32 17.5 -50.5t48.5 -18.5z" />
    <glyph glyph-name="Iacute_J.loclNLD" horiz-adv-x="871" 
d="M47 739l114 142h186l-150 -142h-150zM614 739l114 142h186l-150 -142h-150zM65 0v680h184v-680h-184zM571 -12q-128 0 -185.5 58t-57.5 186v22h175v-22q0 -49 15 -71t50 -22t49.5 22t14.5 73v446h184v-453q0 -125 -58.5 -182t-186.5 -57z" />
    <glyph glyph-name="iacute_j.loclNLD" horiz-adv-x="570" 
d="M33 588l114 142h186l-150 -142h-150zM318 588l114 142h186l-150 -142h-150zM52 0v525h181v-525h-181zM279 -182v134h22q21 0 28.5 8.5t7.5 32.5v532h181v-546q0 -85 -34.5 -123t-110.5 -38h-94z" />
    <glyph glyph-name="i.loclTRK" horiz-adv-x="285" 
d="M50 588v142h185v-142h-185zM52 0v525h181v-525h-181z" />
    <glyph glyph-name="germandbls.calt" horiz-adv-x="658" 
d="M56 0v451q0 118 59 173.5t186 55.5h285v-127l-111 -164q84 -13 122 -58.5t38 -132.5q0 -107 -60 -152.5t-198 -45.5h-93v142h80q47 0 66.5 13.5t19.5 48.5q0 36 -20 49.5t-65 13.5h-70v113l95 158h-71q-41 0 -60 -20t-19 -65v-453h-184z" />
    <glyph glyph-name="zero.pf" horiz-adv-x="618" 
d="M309 -12q-125 0 -189 58.5t-64 171.5v244q0 114 64 172t189 58t189 -58t64 -172v-244q0 -113 -64 -171.5t-189 -58.5zM309 131q38 0 55 22t17 72v230q0 50 -17 72t-55 22t-55 -22t-17 -72v-230q0 -50 17 -72t55 -22z" />
    <glyph glyph-name="one.pf" horiz-adv-x="472" 
d="M212 0v464h-180v128q75 1 119 21.5t71 66.5h171v-680h-181z" />
    <glyph glyph-name="two.pf" horiz-adv-x="571" 
d="M26 0v81q0 96 46.5 157.5t157.5 113.5q71 33 98 60.5t27 66.5q0 33 -18.5 51.5t-55.5 18.5q-73 0 -73 -92v-21h-170v36q0 109 62.5 164.5t183.5 55.5t185 -54.5t64 -155.5q0 -86 -50 -146.5t-161 -109.5q-59 -26 -83.5 -43.5t-29.5 -38.5h324v-144h-507z" />
    <glyph glyph-name="three.pf" horiz-adv-x="589" 
d="M294 -12q-255 0 -255 199v40h174v-18q0 -78 80 -78q76 0 76 70q0 73 -93 73h-60v134h54q45 0 65 17t20 55q0 69 -65 69q-69 0 -69 -76v-15h-172v24q0 210 244 210q119 0 180.5 -49t61.5 -144q0 -107 -86 -145v-2q101 -37 101 -160q0 -204 -256 -204z" />
    <glyph glyph-name="four.pf" horiz-adv-x="601" 
d="M330 0v134h-299v146l290 400h190v-412h64v-134h-64v-134h-181zM186 268h144v209z" />
    <glyph glyph-name="five.pf" horiz-adv-x="574" 
d="M286 -12q-251 0 -251 210h173q4 -67 78 -67q81 0 81 89t-80 89q-51 0 -77 -29h-156l26 400h434v-144h-287l-9 -124q48 36 124 36q100 0 151.5 -57t51.5 -167q0 -120 -63.5 -178t-195.5 -58z" />
    <glyph glyph-name="six.pf" horiz-adv-x="614" 
d="M313 -12q-255 0 -255 229v238q0 237 260 237q242 0 243 -210h-172q-6 67 -71 67q-41 0 -60 -24t-19 -77v-54q50 46 130 46q95 0 145.5 -56t50.5 -162q0 -234 -252 -234zM313 131q71 0 71 87q0 83 -64 83q-56 0 -81 -60v-15q0 -95 74 -95z" />
    <glyph glyph-name="seven.pf" horiz-adv-x="542" 
d="M93 0q15 337 250 531h-329v149h510v-154q-119 -116 -174.5 -239.5t-63.5 -286.5h-193z" />
    <glyph glyph-name="eight.pf" horiz-adv-x="608" 
d="M304 -12q-131 0 -198 51.5t-67 151.5q0 121 102 162v2q-87 38 -87 145q0 93 64.5 142.5t185.5 49.5t185.5 -49.5t64.5 -142.5q0 -107 -87 -145v-2q102 -41 102 -162q0 -100 -67 -151.5t-198 -51.5zM304 410q34 0 53 19.5t19 54.5q0 69 -72 69t-72 -69q0 -35 19 -54.5
t53 -19.5zM304 127q84 0 84 72q0 77 -84 77t-84 -77q0 -72 84 -72z" />
    <glyph glyph-name="nine.pf" horiz-adv-x="614" 
d="M296 -12q-242 0 -243 210h172q6 -67 71 -67q41 0 60 24t19 77v54q-50 -46 -130 -46q-95 0 -145.5 56t-50.5 162q0 234 252 234q255 0 255 -229v-238q0 -237 -260 -237zM294 379q56 0 81 60v15q0 95 -74 95q-71 0 -71 -87q0 -83 64 -83z" />
    <glyph glyph-name="zero.numr" 
d="M183 274q-156 0 -156 134v150q0 134 156 134t156 -134v-150q0 -134 -156 -134zM183 370q34 0 34 43v141q0 42 -34 42t-34 -42v-141q0 -43 34 -43z" />
    <glyph glyph-name="one.numr" 
d="M52 286v94h92v163h-104v86q46 0 71.5 11.5t40.5 39.5h114v-300h92v-94h-306z" />
    <glyph glyph-name="two.numr" 
d="M23 286v53q0 57 28.5 94.5t92.5 66.5q38 17 53 31.5t15 33.5q0 31 -33 31q-35 0 -35 -44v-9h-114v19q0 64 39 97t113 33t113 -32t39 -92q0 -51 -30.5 -87.5t-98.5 -64.5q-51 -21 -57 -33h186v-97h-311z" />
    <glyph glyph-name="three.numr" 
d="M183 274q-156 0 -156 117v21h117v-7q0 -37 38 -37q37 0 37 36q0 37 -48 37h-36v83h31q46 0 46 39q0 35 -32 35q-31 0 -31 -35v-6h-116v11q0 124 151 124q148 0 148 -115q0 -63 -51 -85v-2q60 -21 60 -93q0 -123 -158 -123z" />
    <glyph glyph-name="four.numr" 
d="M194 286v78h-173v97l167 219h128v-227h36v-89h-36v-78h-122zM120 453h74v104z" />
    <glyph glyph-name="five.numr" 
d="M182 274q-153 0 -153 126h117q3 -30 37 -30q38 0 38 41q0 44 -38 44q-23 0 -37 -14h-105l15 239h265v-96h-171l-5 -63q29 22 77 22q58 0 88.5 -33.5t30.5 -96.5q0 -139 -159 -139z" />
    <glyph glyph-name="six.numr" 
d="M186 274q-157 0 -157 134v146q0 138 160 138q151 0 151 -127h-115q-3 31 -35 31q-21 0 -30 -11t-9 -36v-31q29 23 74 23q117 0 117 -128q0 -139 -156 -139zM187 370q35 0 35 45q0 41 -31 41q-27 0 -40 -25v-18q0 -43 36 -43z" />
    <glyph glyph-name="seven.numr" 
d="M68 286q9 192 149 295h-192v99h314v-103q-71 -65 -104 -132.5t-37 -158.5h-130z" />
    <glyph glyph-name="eight.numr" 
d="M183 274q-163 0 -163 120q0 72 61 96v2q-52 22 -52 85q0 115 154 115t154 -115q0 -65 -53 -85v-2q62 -24 62 -97q0 -119 -163 -119zM183 526q35 0 35 39q0 37 -35 37t-35 -37q0 -39 35 -39zM183 364q41 0 41 38q0 40 -41 40t-41 -40q0 -38 41 -38z" />
    <glyph glyph-name="nine.numr" 
d="M177 274q-151 0 -151 127h115q3 -31 35 -31q21 0 30 11t9 36v31q-29 -23 -74 -23q-117 0 -117 128q0 139 156 139q157 0 157 -134v-146q0 -138 -160 -138zM175 510q27 0 40 25v18q0 43 -36 43q-35 0 -35 -45q0 -41 31 -41z" />
    <glyph glyph-name="zero.dnom" 
d="M183 -12q-156 0 -156 134v150q0 134 156 134t156 -134v-150q0 -134 -156 -134zM183 84q34 0 34 43v141q0 42 -34 42t-34 -42v-141q0 -43 34 -43z" />
    <glyph glyph-name="one.dnom" 
d="M52 0v94h92v163h-104v86q46 0 71.5 11.5t40.5 39.5h114v-300h92v-94h-306z" />
    <glyph glyph-name="two.dnom" 
d="M23 0v53q0 57 28.5 94.5t92.5 66.5q38 17 53 31.5t15 33.5q0 31 -33 31q-35 0 -35 -44v-9h-114v19q0 64 39 97t113 33t113 -32t39 -92q0 -51 -30.5 -87.5t-98.5 -64.5q-51 -21 -57 -33h186v-97h-311z" />
    <glyph glyph-name="three.dnom" 
d="M183 -12q-156 0 -156 117v21h117v-7q0 -37 38 -37q37 0 37 36q0 37 -48 37h-36v83h31q46 0 46 39q0 35 -32 35q-31 0 -31 -35v-6h-116v11q0 124 151 124q148 0 148 -115q0 -63 -51 -85v-2q60 -21 60 -93q0 -123 -158 -123z" />
    <glyph glyph-name="four.dnom" 
d="M194 0v78h-173v97l167 219h128v-227h36v-89h-36v-78h-122zM120 167h74v104z" />
    <glyph glyph-name="five.dnom" 
d="M182 -12q-153 0 -153 126h117q3 -30 37 -30q38 0 38 41q0 44 -38 44q-23 0 -37 -14h-105l15 239h265v-96h-171l-5 -63q29 22 77 22q58 0 88.5 -33.5t30.5 -96.5q0 -139 -159 -139z" />
    <glyph glyph-name="six.dnom" 
d="M186 -12q-157 0 -157 134v146q0 138 160 138q151 0 151 -127h-115q-3 31 -35 31q-21 0 -30 -11t-9 -36v-31q29 23 74 23q117 0 117 -128q0 -139 -156 -139zM187 84q35 0 35 45q0 41 -31 41q-27 0 -40 -25v-18q0 -43 36 -43z" />
    <glyph glyph-name="seven.dnom" 
d="M68 0q9 192 149 295h-192v99h314v-103q-71 -65 -104 -132.5t-37 -158.5h-130z" />
    <glyph glyph-name="eight.dnom" 
d="M183 -12q-163 0 -163 120q0 72 61 96v2q-52 22 -52 85q0 115 154 115t154 -115q0 -65 -53 -85v-2q62 -24 62 -97q0 -119 -163 -119zM183 240q35 0 35 39q0 37 -35 37t-35 -37q0 -39 35 -39zM183 78q41 0 41 38q0 40 -41 40t-41 -40q0 -38 41 -38z" />
    <glyph glyph-name="nine.dnom" 
d="M177 -12q-151 0 -151 127h115q3 -31 35 -31q21 0 30 11t9 36v31q-29 -23 -74 -23q-117 0 -117 128q0 139 156 139q157 0 157 -134v-146q0 -138 -160 -138zM175 224q27 0 40 25v18q0 43 -36 43q-35 0 -35 -45q0 -41 31 -41z" />
    <glyph glyph-name="exclamdown.case" horiz-adv-x="322" 
d="M69 517v163h184v-163h-184zM66 0l4 202l25 242h132l25 -242l4 -202h-190z" />
    <glyph glyph-name="questiondown.case" horiz-adv-x="484" 
d="M172 517v163h183v-163h-183zM246 -12q-110 0 -168.5 48t-58.5 137q0 53 22 91t74 73q38 26 53.5 48t15.5 50v9h159v-17q0 -56 -21 -95.5t-68 -70.5q-56 -38 -56 -82q0 -48 49 -48q30 0 43.5 19t13.5 60h169q0 -112 -55.5 -167t-171.5 -55z" />
    <glyph glyph-name="at.case" horiz-adv-x="754" 
d="M407 -23q-175 0 -277.5 97.5t-102.5 261.5q0 165 101 265.5t267 100.5q157 0 252.5 -91t95.5 -235q0 -100 -47 -154t-132 -54q-83 0 -115 53q-38 -53 -106 -53q-116 0 -116 132v70q0 133 116 133q62 0 100 -44l4 32h98v-186q0 -42 27 -42q24 0 37.5 26.5t13.5 75.5
q0 106 -61.5 168t-166.5 62q-111 0 -176 -69.5t-65 -184.5q0 -118 69 -187.5t185 -69.5q99 0 178 50l40 -103q-94 -54 -219 -54zM380 263q26 0 40 30v85q-13 30 -40 30q-30 0 -30 -38v-70q0 -37 30 -37z" />
    <glyph glyph-name="parenleft.case" horiz-adv-x="341" 
d="M331 -96q-136 25 -211 139.5t-75 296.5t75 296.5t211 139.5v-112q-124 -65 -124 -324t124 -324v-112z" />
    <glyph glyph-name="parenright.case" horiz-adv-x="341" 
d="M10 -96v112q124 65 124 324t-124 324v112q136 -25 211 -139.5t75 -296.5t-75 -296.5t-211 -139.5z" />
    <glyph glyph-name="braceleft.case" horiz-adv-x="341" 
d="M242 -84q-89 0 -128.5 43t-39.5 145v106q0 40 -13.5 55.5t-48.5 15.5v118q35 0 48.5 15.5t13.5 55.5v106q0 102 39.5 145t128.5 43h89v-118h-44q-33 0 -43.5 -16t-10.5 -63v-88q0 -119 -89 -138v-2q89 -19 89 -138v-88q0 -47 10.5 -63t43.5 -16h44v-118h-89z" />
    <glyph glyph-name="braceright.case" horiz-adv-x="341" 
d="M10 -84v118h44q33 0 43.5 16t10.5 63v88q0 119 89 138v2q-89 19 -89 138v88q0 47 -10.5 63t-43.5 16h-44v118h89q89 0 128.5 -43t39.5 -145v-106q0 -40 13.5 -55.5t48.5 -15.5v-118q-35 0 -48.5 -15.5t-13.5 -55.5v-106q0 -102 -39.5 -145t-128.5 -43h-89z" />
    <glyph glyph-name="bracketleft.case" horiz-adv-x="341" 
d="M64 -84v848h267v-118h-107v-612h107v-118h-267z" />
    <glyph glyph-name="bracketright.case" horiz-adv-x="341" 
d="M10 -84v118h107v612h-107v118h267v-848h-267z" />
    <glyph glyph-name="bar.case" horiz-adv-x="290" 
d="M75 -160v1000h140v-1000h-140z" />
    <glyph glyph-name="brokenbar.case" horiz-adv-x="290" 
d="M75 440v400h140v-400h-140zM75 -160v400h140v-400h-140z" />
    <glyph glyph-name="periodcentered.case" horiz-adv-x="299" 
d="M57 247v185h185v-185h-185z" />
    <glyph glyph-name="bullet.case" horiz-adv-x="500" 
d="M111 203v274h278v-274h-278z" />
    <glyph glyph-name="hyphen.case" horiz-adv-x="390" 
d="M33 264v152h324v-152h-324z" />
    <glyph glyph-name="uni00AD.case" horiz-adv-x="390" 
d="M33 264v152h324v-152h-324z" />
    <glyph glyph-name="figuredash.case" horiz-adv-x="594" 
d="M30 272v136h534v-136h-534z" />
    <glyph glyph-name="endash.case" horiz-adv-x="500" 
d="M30 272v136h440v-136h-440z" />
    <glyph glyph-name="emdash.case" horiz-adv-x="900" 
d="M30 272v136h840v-136h-840z" />
    <glyph glyph-name="guillemotleft.case" horiz-adv-x="567" 
d="M140 159l-131 181l131 181h164l-131 -181l131 -181h-164zM394 159l-131 181l131 181h164l-131 -181l131 -181h-164z" />
    <glyph glyph-name="guillemotright.case" horiz-adv-x="567" 
d="M9 159l131 181l-131 181h164l131 -181l-131 -181h-164zM263 159l131 181l-131 181h164l131 -181l-131 -181h-164z" />
    <glyph glyph-name="guilsinglleft.case" horiz-adv-x="313" 
d="M140 159l-131 181l131 181h164l-131 -181l131 -181h-164z" />
    <glyph glyph-name="guilsinglright.case" horiz-adv-x="313" 
d="M9 159l131 181l-131 181h164l131 -181l-131 -181h-164z" />
    <glyph glyph-name="caron.alt" horiz-adv-x="205" 
d="M17 501l35 229h160l-85 -229h-110z" />
    <glyph glyph-name="ringacute" horiz-adv-x="500" 
d="M140 835l114 142h186l-150 -142h-150zM250 563q-57 0 -94 35t-37 88t37 88t94 35t94 -35t37 -88t-37 -88t-94 -35zM250 643q38 0 38 43t-38 43t-38 -43t38 -43z" />
    <glyph glyph-name="NULL" horiz-adv-x="0" 
 />
    </font>
</defs>
</svg>
