<?xml version="1.0" standalone="no"?>
<!DOCTYPE svg PUBLIC "-//W3C//DTD SVG 1.1//EN" "http://www.w3.org/Graphics/SVG/1.1/DTD/svg11.dtd" >
<svg xmlns="http://www.w3.org/2000/svg" xmlns:xlink="http://www.w3.org/1999/xlink" version="1.1">
<metadata>
Created by FontForge 20170731 at Fri Feb  5 17:51:23 2016
 By Aleksey,,,
Copyright (c) 2014-2015 by Ryoichi Tsunekawa. All rights reserved.
</metadata>
<defs>
<font id="BioSans-BoldItalic" horiz-adv-x="366" >
  <font-face 
    font-family="Bio Sans"
    font-weight="700"
    font-style="italic"
    font-stretch="normal"
    units-per-em="1000"
    panose-1="2 11 7 6 2 2 2 11 2 4"
    ascent="800"
    descent="-200"
    x-height="522"
    cap-height="680"
    bbox="-227 -254 1102 1114"
    underline-thickness="72"
    underline-position="-244"
    slope="-10"
    unicode-range="U+000D-FB02"
  />
<missing-glyph horiz-adv-x="680" 
d="M27 0l120 680h534l-120 -680h-534zM366 424l143 173h-227zM142 154l158 190l-89 182zM497 154l70 372l-158 -191zM200 83h227l-84 172z" />
    <glyph glyph-name="fi" unicode="fi" horiz-adv-x="632" 
d="M42 0l72 410h-80l20 112h80l8 45q15 85 58 124t120 39h116l-20 -114h-61q-56 0 -67 -61l-6 -33h113l-20 -112h-113l-72 -410h-148zM475 596l22 126h156l-22 -126h-156zM374 0l92 522h148l-92 -522h-148z" />
    <glyph glyph-name="fl" unicode="fl" horiz-adv-x="632" 
d="M42 0l72 410h-80l20 112h80l8 45q15 85 58 124t120 39h116l-20 -114h-61q-56 0 -67 -61l-6 -33h113l-20 -112h-113l-72 -410h-148zM374 0l129 730h148l-129 -730h-148z" />
    <glyph glyph-name=".notdef" horiz-adv-x="680" 
d="M27 0l120 680h534l-120 -680h-534zM366 424l143 173h-227zM142 154l158 190l-89 182zM497 154l70 372l-158 -191zM200 83h227l-84 172z" />
    <glyph glyph-name=".null" horiz-adv-x="0" 
 />
    <glyph glyph-name="nonmarkingreturn" horiz-adv-x="333" 
 />
    <glyph glyph-name="CR" unicode="&#xd;" horiz-adv-x="240" 
 />
    <glyph glyph-name="space" unicode=" " horiz-adv-x="240" 
 />
    <glyph glyph-name="exclam" unicode="!" horiz-adv-x="309" 
d="M94 224l26 262l31 194h155l-37 -194l-68 -262h-107zM31 0l27 155h155l-27 -155h-155z" />
    <glyph glyph-name="quotedbl" unicode="&#x22;" horiz-adv-x="458" 
d="M91 398l32 282h143l-65 -282h-110zM308 398l32 282h143l-65 -282h-110z" />
    <glyph glyph-name="numbersign" unicode="#" horiz-adv-x="596" 
d="M35 0l49 164h-63l18 102h76l48 158h-63l18 102h76l46 154h124l-46 -154h101l46 154h124l-46 -154h62l-18 -102h-75l-48 -158h62l-18 -102h-75l-49 -164h-124l49 164h-101l-49 -164h-124zM239 266h101l48 158h-101z" />
    <glyph glyph-name="dollar" unicode="$" horiz-adv-x="596" 
d="M186 -72l13 75q-158 18 -158 156q0 24 4 48h136q-2 -9 -2 -26q0 -56 57 -65l29 166q-98 23 -133.5 58t-35.5 108q0 96 58.5 156.5t163.5 72.5l14 75h112l-14 -76q142 -23 142 -151q0 -23 -4 -46h-135q2 9 2 25q0 46 -42 58l-28 -160q99 -21 136.5 -58t37.5 -113
q0 -99 -59 -157.5t-169 -70.5l-13 -75h-112zM290 422l25 140q-35 -9 -53 -31.5t-18 -52.5q0 -21 10.5 -33.5t35.5 -22.5zM314 117q77 17 77 85q0 23 -11 36t-40 24z" />
    <glyph glyph-name="percent" unicode="%" horiz-adv-x="785" 
d="M201 310q-69 0 -104.5 28t-35.5 80q0 14 3 31l20 113q23 130 165 130q69 0 104.5 -28t35.5 -80q0 -14 -3 -31l-20 -114q-23 -129 -165 -129zM87 -12l531 704h108l-531 -704h-108zM205 398q47 0 56 48l19 108q2 12 2 19q0 31 -37 31q-47 0 -56 -48l-19 -108q-2 -12 -2 -19
q0 -31 37 -31zM563 -12q-69 0 -104.5 28t-35.5 80q0 14 3 31l20 113q23 130 165 130q69 0 104.5 -28t35.5 -80q0 -14 -3 -31l-20 -114q-23 -129 -165 -129zM567 76q47 0 56 48l19 108q2 12 2 19q0 31 -37 31q-47 0 -56 -48l-19 -108q-2 -12 -2 -19q0 -31 37 -31z" />
    <glyph glyph-name="ampersand" unicode="&#x26;" horiz-adv-x="678" 
d="M225 -12q-97 0 -150.5 43.5t-53.5 128.5q0 71 40 125.5t126 100.5q-31 56 -31 110q0 88 61 142t159 54q78 0 120 -35.5t42 -102.5q0 -64 -38.5 -110.5t-126.5 -88.5l77 -112q23 45 40 113h141q-38 -132 -106 -220l94 -136h-184l-23 36q-84 -48 -187 -48zM312 443
q99 47 99 99q0 42 -48 42q-33 0 -54 -21.5t-21 -53.5q0 -29 24 -66zM263 108q50 0 88 22l-104 163q-74 -48 -74 -111q0 -74 90 -74z" />
    <glyph glyph-name="quotesingle" unicode="'" horiz-adv-x="245" 
d="M90 398l33 282h147l-67 -282h-113z" />
    <glyph glyph-name="parenleft" unicode="(" horiz-adv-x="343" 
d="M259 -130q-209 54 -209 328q0 125 40.5 239t125 198.5t197.5 106.5l-21 -117q-68 -33 -117.5 -113t-71 -169t-21.5 -175q0 -81 22.5 -126.5t71.5 -70.5z" />
    <glyph glyph-name="parenright" unicode=")" horiz-adv-x="343" 
d="M-54 -130l21 117q68 33 117.5 113t71 169t21.5 175q0 81 -22.5 126.5t-71.5 70.5l17 101q209 -54 209 -328q0 -125 -40.5 -239t-125 -198.5t-197.5 -106.5z" />
    <glyph glyph-name="asterisk" unicode="*" horiz-adv-x="428" 
d="M154 281l-81 67l103 109l-125 33l37 104l127 -55l16 141h108l-33 -138l123 47l28 -103l-140 -34l76 -121l-93 -50l-54 121z" />
    <glyph glyph-name="plus" unicode="+" horiz-adv-x="596" 
d="M201 54l35 196h-186l21 118h185l35 196h122l-35 -196h185l-21 -118h-184l-35 -196h-122z" />
    <glyph glyph-name="comma" unicode="," horiz-adv-x="293" 
d="M-13 -179l15 80q61 2 73 71l5 28h-57l27 155h155l-28 -159q-16 -93 -58 -133.5t-132 -41.5z" />
    <glyph glyph-name="hyphen" unicode="-" horiz-adv-x="383" 
d="M28 233l23 128h317l-23 -128h-317z" />
    <glyph glyph-name="period" unicode="." horiz-adv-x="293" 
d="M23 0l27 155h155l-27 -155h-155z" />
    <glyph glyph-name="slash" unicode="/" horiz-adv-x="466" 
d="M-71 -140l488 870h132l-488 -870h-132z" />
    <glyph glyph-name="zero" unicode="0" horiz-adv-x="596" 
d="M259 -12q-106 0 -162.5 45t-56.5 133q0 30 5 58l43 244q39 224 277 224q106 0 162.5 -45t56.5 -133q0 -30 -5 -58l-43 -244q-39 -224 -277 -224zM271 113q51 0 79.5 26t38.5 85l41 233q5 28 5 39q0 36 -19.5 53.5t-62.5 17.5q-51 0 -79.5 -26t-38.5 -85l-41 -233
q-5 -28 -5 -39q0 -36 19.5 -53.5t62.5 -17.5z" />
    <glyph glyph-name="one" unicode="1" horiz-adv-x="596" 
d="M48 0l22 127h163l65 368q-60 -16 -186 -18l20 115q130 3 206 88h141l-98 -553h162l-22 -127h-473z" />
    <glyph glyph-name="two" unicode="2" horiz-adv-x="596" 
d="M2 0l13 74q18 101 76.5 162.5t183.5 114.5q85 36 123 72t38 79q0 65 -80 65q-104 0 -122 -105l-3 -17h-140l7 40q37 207 271 207q215 0 215 -176q0 -92 -61.5 -160t-196.5 -127q-73 -31 -106 -53.5t-45 -48.5h342l-22 -127h-493z" />
    <glyph glyph-name="three" unicode="3" horiz-adv-x="596" 
d="M257 -12q-110 0 -167 41.5t-57 116.5q0 17 4 39l6 34h143l-3 -17q-2 -12 -2 -26q0 -63 87 -63q58 0 91 27.5t33 74.5q0 35 -23 50.5t-77 15.5h-66l21 124h61q58 0 89 26t31 72q0 32 -16.5 48t-57.5 16q-100 0 -115 -89l-2 -12h-141l5 28q35 198 267 198q210 0 210 -167
q0 -126 -115 -172v-2q77 -34 77 -135q0 -108 -75 -168t-208 -60z" />
    <glyph glyph-name="four" unicode="4" horiz-adv-x="596" 
d="M305 0l25 139h-318l23 130l379 411h159l-74 -420h70l-22 -121h-69l-25 -139h-148zM186 260h165l40 229z" />
    <glyph glyph-name="five" unicode="5" horiz-adv-x="596" 
d="M255 -12q-105 0 -162 42.5t-57 121.5q0 18 3 38h141v-10q0 -67 86 -67q64 0 98.5 38.5t34.5 95.5q0 82 -82 82q-61 0 -111 -41h-129l94 392h423l-23 -127h-298l-33 -135q55 33 129 33q91 0 135.5 -45t44.5 -140q0 -127 -76.5 -202.5t-217.5 -75.5z" />
    <glyph glyph-name="six" unicode="6" horiz-adv-x="596" 
d="M265 -12q-108 0 -164.5 45t-56.5 133q0 30 5 57l42 239q41 230 285 230q107 0 159.5 -43t52.5 -121q0 -22 -2 -34h-142v7q0 66 -81 66q-105 0 -126 -117l-11 -60q60 49 146 49t130.5 -43.5t44.5 -123.5q0 -134 -73.5 -209t-208.5 -75zM277 113q57 0 88.5 38t31.5 96
q0 67 -73 67q-77 0 -125 -77l-2 -13q-3 -17 -3 -33q0 -78 83 -78z" />
    <glyph glyph-name="seven" unicode="7" horiz-adv-x="596" 
d="M90 0q74 340 347 550h-340l23 130h500l-24 -134q-146 -122 -229 -251t-119 -295h-158z" />
    <glyph glyph-name="eight" unicode="8" horiz-adv-x="596" 
d="M254 -12q-231 0 -231 176q0 143 138 191v2q-66 36 -66 123q0 96 73.5 154t201.5 58q217 0 217 -169q0 -124 -117 -170v-2q77 -38 77 -139q0 -107 -78.5 -165.5t-214.5 -58.5zM320 406q57 0 87.5 28.5t30.5 71.5q0 63 -80 63q-57 0 -88.5 -26t-31.5 -70q0 -67 82 -67z
M265 111q65 0 100 26t35 75q0 37 -22 54t-70 17q-65 0 -101 -28t-36 -76q0 -36 22.5 -52t71.5 -16z" />
    <glyph glyph-name="nine" unicode="9" horiz-adv-x="596" 
d="M247 -12q-107 0 -159.5 43t-52.5 121q0 22 2 34h142v-7q0 -66 81 -66q105 0 126 117l11 60q-60 -49 -146 -49t-130.5 43.5t-44.5 123.5q0 134 73.5 209t208.5 75q108 0 164.5 -45t56.5 -133q0 -30 -5 -57l-42 -239q-41 -230 -285 -230zM299 366q77 0 125 77l2 14
q3 17 3 32q0 78 -83 78q-57 0 -88.5 -38t-31.5 -96q0 -67 73 -67z" />
    <glyph glyph-name="colon" unicode=":" horiz-adv-x="293" 
d="M84 346l27 155h155l-27 -155h-155zM23 0l27 155h155l-27 -155h-155z" />
    <glyph glyph-name="semicolon" unicode=";" horiz-adv-x="293" 
d="M84 346l27 155h155l-27 -155h-155zM-13 -179l15 80q61 2 73 71l5 28h-57l27 155h155l-28 -159q-16 -93 -58 -133.5t-132 -41.5z" />
    <glyph glyph-name="less" unicode="&#x3c;" horiz-adv-x="596" 
d="M508 55l-457 195l20 114l526 196l-24 -134l-341 -124l298 -124z" />
    <glyph glyph-name="equal" unicode="=" horiz-adv-x="596" 
d="M70 364l21 118h492l-21 -118h-492zM30 136l21 118h492l-21 -118h-492z" />
    <glyph glyph-name="greater" unicode="&#x3e;" horiz-adv-x="596" 
d="M16 56l24 134l341 124l-298 124l22 123l457 -195l-20 -114z" />
    <glyph glyph-name="question" unicode="?" horiz-adv-x="467" 
d="M141 224l5 28q10 60 38.5 98.5t85.5 73.5q41 25 57 46.5t16 50.5q0 46 -58 46q-81 0 -96 -88h-139q19 109 79 161t167 52q95 0 145.5 -38.5t50.5 -110.5q0 -67 -30 -113.5t-98 -85.5q-45 -26 -65 -48.5t-26 -54.5l-3 -17h-129zM89 0l27 155h154l-27 -155h-154z" />
    <glyph glyph-name="at" unicode="@" horiz-adv-x="752" 
d="M385 -68q-165 0 -258.5 87t-93.5 239q0 170 111.5 283.5t287.5 113.5q144 0 233 -79t89 -211q0 -103 -53 -174t-151 -71q-81 0 -106 54q-48 -54 -116 -54q-104 0 -104 102q0 22 3 40l12 68q23 129 133 129q70 0 102 -54l13 42h88l-34 -193q-2 -10 -2 -20q0 -26 25 -26
q28 0 47.5 27t27 61t7.5 70q0 93 -57 143.5t-154 50.5q-130 0 -210 -86t-80 -214q0 -110 62.5 -171t174.5 -61q105 0 187 51l31 -96q-90 -51 -215 -51zM366 210q35 0 62 37l16 87q-11 36 -47 36q-40 0 -49 -48l-12 -68q-1 -6 -1 -11q0 -33 31 -33z" />
    <glyph glyph-name="A" unicode="A" horiz-adv-x="615" 
d="M-44 0l348 680h155l108 -680h-156l-18 137h-213l-69 -137h-155zM238 262h140l-27 248z" />
    <glyph glyph-name="B" unicode="B" horiz-adv-x="638" 
d="M29 0l120 680h269q109 0 157 -36t48 -118q0 -131 -122 -169v-2q48 -15 69 -48t21 -89q0 -105 -68.5 -161.5t-195.5 -56.5h-298zM251 409h99q62 0 91.5 21.5t29.5 67.5q0 32 -18 43.5t-68 11.5h-108zM201 127h117q124 0 124 93q0 36 -22 49t-84 13h-107z" />
    <glyph glyph-name="C" unicode="C" horiz-adv-x="615" 
d="M276 -12q-232 0 -232 198q0 36 8 82l27 153q25 140 97.5 205.5t205.5 65.5q229 0 229 -192q0 -27 -5 -65h-143q3 23 3 41q0 46 -22.5 66.5t-71.5 20.5q-64 0 -97 -34.5t-47 -115.5l-26 -147q-6 -34 -6 -60q0 -48 22.5 -68.5t71.5 -20.5q60 0 92 30t46 97h144
q-27 -135 -98.5 -195.5t-197.5 -60.5z" />
    <glyph glyph-name="D" unicode="D" horiz-adv-x="642" 
d="M29 0l120 680h249q116 0 172 -47.5t56 -144.5q0 -35 -8 -81l-26 -147q-25 -138 -97 -199t-209 -61h-257zM202 128h82q75 0 110.5 33t49.5 111l24 137q6 36 6 56q0 46 -26.5 66.5t-87.5 20.5h-84z" />
    <glyph glyph-name="E" unicode="E" horiz-adv-x="587" 
d="M29 0l120 680h466l-23 -129h-316l-25 -141h266l-22 -128h-266l-27 -153h326l-23 -129h-476z" />
    <glyph glyph-name="F" unicode="F" horiz-adv-x="554" 
d="M29 0l120 680h458l-23 -129h-308l-26 -147h258l-23 -129h-257l-49 -275h-150z" />
    <glyph glyph-name="G" unicode="G" horiz-adv-x="635" 
d="M281 -12q-236 0 -236 200q0 41 7 80l28 159q47 265 305 265q114 0 174.5 -48t60.5 -136q0 -20 -3 -39h-143q1 7 1 16q0 78 -98 78q-66 0 -100.5 -34.5t-48.5 -115.5l-26 -147q-6 -35 -6 -57q0 -48 24.5 -70t76.5 -22q64 0 98 32.5t47 106.5h-112l23 129h255l-24 -136
q-23 -131 -95 -196t-208 -65z" />
    <glyph glyph-name="H" unicode="H" horiz-adv-x="684" 
d="M29 0l120 680h150l-47 -269h234l47 269h150l-120 -680h-150l50 281h-234l-50 -281h-150z" />
    <glyph glyph-name="I" unicode="I" horiz-adv-x="300" 
d="M29 0l120 680h150l-120 -680h-150z" />
    <glyph glyph-name="J" unicode="J" horiz-adv-x="553" 
d="M211 -12q-108 0 -158 41.5t-50 133.5q0 31 7 71l2 12h144l-3 -17q-4 -23 -4 -43q0 -35 16.5 -52t56.5 -17q50 0 77 27.5t38 88.5l79 447h150l-81 -459q-22 -124 -86 -178.5t-188 -54.5z" />
    <glyph glyph-name="K" unicode="K" horiz-adv-x="622" 
d="M29 0l120 680h150l-52 -293l279 293h178l-271 -282l151 -398h-163l-107 286l-104 -110l-31 -176h-150z" />
    <glyph glyph-name="L" unicode="L" horiz-adv-x="518" 
d="M29 0l120 680h150l-97 -549h287l-23 -131h-437z" />
    <glyph glyph-name="M" unicode="M" horiz-adv-x="881" 
d="M29 0l120 680h216l66 -444l223 444h226l-120 -680h-150l90 510l-258 -510h-101l-79 516l-91 -516h-142z" />
    <glyph glyph-name="N" unicode="N" horiz-adv-x="682" 
d="M29 0l120 680h154l158 -441l78 441h142l-120 -680h-142l-166 463l-82 -463h-142z" />
    <glyph glyph-name="O" unicode="O" horiz-adv-x="652" 
d="M286 -12q-241 0 -241 201q0 39 7 79l27 153q25 140 100.5 205.5t214.5 65.5q241 0 241 -200q0 -40 -7 -80l-27 -153q-25 -140 -100.5 -205.5t-214.5 -65.5zM299 117q68 0 103.5 35t49.5 115l26 147q6 34 6 56q0 49 -24.5 71t-78.5 22q-68 0 -103.5 -35t-49.5 -115
l-26 -147q-6 -35 -6 -56q0 -49 24.5 -71t78.5 -22z" />
    <glyph glyph-name="P" unicode="P" horiz-adv-x="612" 
d="M29 0l120 680h265q116 0 165 -42t49 -141q0 -127 -72.5 -193t-211.5 -66h-123l-42 -238h-150zM244 366h105q61 0 94 29.5t33 84.5q0 40 -20.5 56t-72.5 16h-107z" />
    <glyph glyph-name="Q" unicode="Q" horiz-adv-x="652" 
d="M394 692q241 0 241 -200q0 -40 -7 -80l-27 -153q-19 -110 -70 -174l68 -83l-109 -89l-76 93q-55 -18 -128 -18q-241 0 -241 201q0 39 7 79l27 153q25 140 100.5 205.5t214.5 65.5zM196 210q0 -49 24.5 -71t78.5 -22q13 0 33 2l-73 90l97 79l76 -92q13 30 20 71l26 147
q6 34 6 56q0 49 -24.5 71t-78.5 22q-68 0 -103.5 -35t-49.5 -115l-26 -147q-6 -35 -6 -56z" />
    <glyph glyph-name="R" unicode="R" horiz-adv-x="633" 
d="M29 0l120 680h274q112 0 158 -40t46 -135q0 -193 -163 -240l101 -265h-162l-91 251h-89l-44 -251h-150zM246 379h111q57 0 87.5 28t30.5 79q0 37 -18.5 51.5t-67.5 14.5h-113z" />
    <glyph glyph-name="S" unicode="S" horiz-adv-x="563" 
d="M243 -12q-230 0 -230 164q0 21 5 53h146q-3 -15 -3 -28q0 -67 90 -67q58 0 89.5 24.5t31.5 71.5q0 28 -26.5 44.5t-89.5 29.5q-97 20 -139.5 58t-42.5 105q0 120 72.5 184.5t202.5 64.5q219 0 219 -162q0 -21 -5 -49h-146q2 9 2 25q0 63 -79 63q-52 0 -82.5 -25
t-30.5 -67q0 -26 26 -42.5t87 -27.5q98 -18 141.5 -57t43.5 -108q0 -127 -72.5 -190.5t-209.5 -63.5z" />
    <glyph glyph-name="T" unicode="T" horiz-adv-x="526" 
d="M142 0l97 549h-182l23 131h514l-23 -131h-182l-97 -549h-150z" />
    <glyph glyph-name="U" unicode="U" horiz-adv-x="631" 
d="M277 -12q-116 0 -172 42t-56 133q0 29 7 70l79 447h150l-79 -448q-4 -21 -4 -41q0 -40 20.5 -57t68.5 -17q59 0 88.5 27.5t40.5 88.5l79 447h145l-81 -459q-21 -122 -87.5 -177.5t-198.5 -55.5z" />
    <glyph glyph-name="V" unicode="V" horiz-adv-x="592" 
d="M172 0l-96 680h155l54 -484l225 484h154l-336 -680h-156z" />
    <glyph glyph-name="W" unicode="W" horiz-adv-x="878" 
d="M126 0l-48 680h152l20 -461l197 461h133l35 -461l182 461h151l-288 -680h-155l-33 439l-188 -439h-158z" />
    <glyph glyph-name="X" unicode="X" horiz-adv-x="579" 
d="M-46 0l258 357l-129 323h165l82 -216l150 216h168l-249 -345l134 -335h-165l-88 232l-158 -232h-168z" />
    <glyph glyph-name="Y" unicode="Y" horiz-adv-x="541" 
d="M149 0l50 286l-151 394h163l89 -246l175 246h166l-292 -398l-50 -282h-150z" />
    <glyph glyph-name="Z" unicode="Z" horiz-adv-x="559" 
d="M598 680l-20 -116l-378 -435h309l-23 -129h-505l21 117l377 434h-283l23 129h479z" />
    <glyph glyph-name="bracketleft" unicode="[" horiz-adv-x="343" 
d="M5 -118l150 848h256l-19 -107h-118l-112 -634h118l-19 -107h-256z" />
    <glyph glyph-name="backslash" unicode="\" horiz-adv-x="466" 
d="M266 -140l-181 870h127l181 -870h-127z" />
    <glyph glyph-name="bracketright" unicode="]" horiz-adv-x="343" 
d="M-52 -118l19 107h118l112 634h-118l19 107h256l-150 -848h-256z" />
    <glyph glyph-name="asciicircum" unicode="^" horiz-adv-x="596" 
d="M36 333l276 347h116l154 -347h-131l-97 218l-171 -218h-147z" />
    <glyph glyph-name="underscore" unicode="_" horiz-adv-x="500" 
d="M-71 -143l18 104h500l-18 -104h-500z" />
    <glyph glyph-name="grave" unicode="`" horiz-adv-x="500" 
d="M278 590l-118 140h153l88 -140h-123z" />
    <glyph glyph-name="a" unicode="a" horiz-adv-x="541" 
d="M159 -12q-148 0 -148 141q0 91 62.5 141.5t172.5 50.5h102l3 19q2 12 2 24q0 25 -12 39.5t-49 14.5q-70 0 -85 -59h-143q22 91 80 133t163 42q100 0 147.5 -37t47.5 -115q0 -25 -4 -48l-59 -334h-126l6 57q-63 -69 -160 -69zM212 104q63 0 108 62l10 57h-70
q-99 0 -99 -72q0 -47 51 -47z" />
    <glyph glyph-name="b" unicode="b" horiz-adv-x="579" 
d="M387 533q78 0 120 -41t42 -118q0 -26 -6 -60l-21 -118q-37 -208 -214 -208q-103 0 -147 83l-17 -71h-126l129 730h148l-43 -244q57 47 135 47zM395 318q4 24 4 37q0 58 -58 58q-70 0 -116 -80l-26 -146q18 -79 85 -79q74 0 91 96z" />
    <glyph glyph-name="c" unicode="c" horiz-adv-x="526" 
d="M235 -12q-204 0 -204 168q0 26 6 61l18 102q38 215 257 215q199 0 199 -164q0 -24 -4 -47h-141q2 18 2 28q0 32 -15 47.5t-49 15.5q-42 0 -67 -25t-35 -79l-18 -102q-4 -22 -4 -38q0 -62 66 -62q78 0 98 91h141q-21 -110 -82.5 -160.5t-167.5 -50.5z" />
    <glyph glyph-name="d" unicode="d" horiz-adv-x="579" 
d="M192 -12q-78 0 -120 41t-42 118q0 25 6 60l21 118q37 209 214 209q89 0 134 -61l45 257h148l-129 -730h-126l6 56q-65 -68 -157 -68zM238 108q70 0 116 80l26 147q-18 79 -85 79q-74 0 -91 -97l-20 -114q-4 -24 -4 -37q0 -58 58 -58z" />
    <glyph glyph-name="e" unicode="e" horiz-adv-x="553" 
d="M245 -12q-213 0 -213 172q0 28 5 57l18 101q38 216 260 216q101 0 154.5 -45t53.5 -129q0 -26 -5 -54l-16 -91h-317l-2 -12q-2 -12 -2 -26q0 -38 16 -55.5t57 -17.5q80 0 94 56h141q-39 -172 -244 -172zM204 319h176q4 21 4 38q0 61 -72 61q-48 0 -73 -23t-35 -76z" />
    <glyph glyph-name="f" unicode="f" horiz-adv-x="356" 
d="M42 0l72 410h-80l20 112h80l8 45q15 85 58 124t120 39h116l-20 -114h-61q-56 0 -67 -61l-6 -33h113l-20 -112h-113l-72 -410h-148z" />
    <glyph glyph-name="g" unicode="g" horiz-adv-x="579" 
d="M208 -194q-205 0 -205 144q0 12 2 28h139v-7q0 -27 16 -38t53 -11q50 0 76 22t35 73l9 50q-57 -47 -135 -47t-120 41t-42 118q0 25 6 60l15 86q37 209 214 209q103 0 147 -83l17 71h126l-91 -516q-18 -102 -81.5 -151t-180.5 -49zM244 140q70 0 116 79l20 116
q-18 79 -85 79q-74 0 -91 -97l-14 -82q-4 -24 -4 -37q0 -58 58 -58z" />
    <glyph glyph-name="h" unicode="h" horiz-adv-x="570" 
d="M18 0l129 730h148l-43 -243q58 47 134 47q70 0 106.5 -35.5t36.5 -102.5q0 -29 -5 -56l-60 -340h-148l59 334q2 10 2 25q0 47 -45 47q-60 0 -106 -69l-60 -337h-148z" />
    <glyph glyph-name="i" unicode="i" horiz-adv-x="276" 
d="M119 596l22 126h156l-22 -126h-156zM18 0l92 522h148l-92 -522h-148z" />
    <glyph glyph-name="j" unicode="j" horiz-adv-x="276" 
d="M119 596l22 126h156l-22 -126h-156zM-81 -182l20 116h29q38 0 46 44l96 544h148l-97 -551q-15 -82 -51.5 -117.5t-110.5 -35.5h-80z" />
    <glyph glyph-name="k" unicode="k" horiz-adv-x="549" 
d="M18 0l129 730h148l-72 -408l203 200h178l-223 -216l131 -306h-162l-85 206l-76 -74l-23 -132h-148z" />
    <glyph glyph-name="l" unicode="l" horiz-adv-x="276" 
d="M18 0l129 730h148l-129 -730h-148z" />
    <glyph glyph-name="m" unicode="m" horiz-adv-x="856" 
d="M18 0l92 522h126l-7 -57q65 69 153 69q101 0 131 -73q66 73 157 73q72 0 109 -36t37 -102q0 -22 -4 -45l-62 -351h-148l60 340q2 12 2 22q0 44 -44 44q-54 0 -103 -72l-59 -334h-148l60 340q2 12 2 21q0 45 -45 45q-56 0 -102 -73l-59 -333h-148z" />
    <glyph glyph-name="n" unicode="n" horiz-adv-x="570" 
d="M18 0l92 522h126l-7 -57q68 69 157 69q70 0 106.5 -35.5t36.5 -102.5q0 -29 -5 -56l-60 -340h-148l59 334q2 10 2 25q0 47 -45 47q-60 0 -107 -70l-59 -336h-148z" />
    <glyph glyph-name="o" unicode="o" horiz-adv-x="564" 
d="M243 -12q-211 0 -211 175q0 26 5 55l17 96q20 113 86 166.5t181 53.5q211 0 211 -175q0 -26 -5 -55l-17 -96q-20 -113 -86 -166.5t-181 -53.5zM253 108q48 0 74 26.5t36 82.5l16 91q4 23 4 38q0 36 -17 52t-55 16q-48 0 -74 -26.5t-36 -82.5l-16 -91q-4 -23 -4 -38
q0 -36 17 -52t55 -16z" />
    <glyph glyph-name="p" unicode="p" horiz-adv-x="579" 
d="M-14 -182l124 704h126l-6 -57q65 68 157 68q78 0 120 -41t42 -118q0 -26 -6 -60l-21 -118q-37 -208 -214 -208q-90 0 -133 61l-41 -231h-148zM284 108q74 0 91 96l20 114q4 24 4 37q0 58 -58 58q-70 0 -116 -80l-26 -146q18 -79 85 -79z" />
    <glyph glyph-name="q" unicode="q" horiz-adv-x="579" 
d="M289 -182l38 217q-57 -47 -135 -47t-120 41t-42 118q0 25 6 60l21 118q37 209 214 209q103 0 147 -83l17 71h126l-124 -704h-148zM238 108q70 0 116 80l26 147q-18 79 -85 79q-74 0 -91 -97l-20 -114q-4 -24 -4 -37q0 -58 58 -58z" />
    <glyph glyph-name="r" unicode="r" horiz-adv-x="377" 
d="M18 0l92 522h126l-11 -92q24 54 59 78t89 24h43l-24 -138h-28q-58 0 -92.5 -24t-54.5 -79l-51 -291h-148z" />
    <glyph glyph-name="s" unicode="s" horiz-adv-x="504" 
d="M211 -12q-201 0 -201 137q0 17 3 35h141q-2 -12 -2 -18q0 -47 68 -47q86 0 86 58q0 22 -21.5 34t-72.5 19q-83 11 -119.5 42.5t-36.5 92.5q0 90 63.5 141.5t174.5 51.5q94 0 141.5 -36.5t47.5 -98.5q0 -15 -3 -31h-141q2 12 2 18q0 41 -57 41q-37 0 -57.5 -15.5
t-20.5 -42.5q0 -40 91 -51q83 -10 121 -42.5t38 -96.5q0 -94 -64 -142.5t-181 -48.5z" />
    <glyph glyph-name="t" unicode="t" horiz-adv-x="361" 
d="M194 0q-130 0 -130 119q0 24 5 54l42 237h-77l20 112h80l30 130h137l-23 -130h108l-20 -112h-107l-41 -232q-3 -16 -3 -29q0 -19 10 -26t35 -7h59l-20 -116h-105z" />
    <glyph glyph-name="u" unicode="u" horiz-adv-x="574" 
d="M187 -12q-72 0 -109 35.5t-37 102.5q0 26 5 56l60 340h148l-59 -334q-3 -18 -3 -27q0 -45 49 -45q63 0 108 71l59 335h148l-92 -522h-126l7 58q-66 -70 -158 -70z" />
    <glyph glyph-name="v" unicode="v" horiz-adv-x="504" 
d="M127 0l-78 522h152l34 -355l159 355h153l-262 -522h-158z" />
    <glyph glyph-name="w" unicode="w" horiz-adv-x="800" 
d="M110 0l-58 522h151l21 -340l156 340h130l36 -340l141 340h153l-242 -522h-150l-36 326l-150 -326h-152z" />
    <glyph glyph-name="x" unicode="x" horiz-adv-x="499" 
d="M-57 0l217 278l-114 244h162l68 -151l108 151h169l-208 -267l119 -255h-162l-74 163l-116 -163h-169z" />
    <glyph glyph-name="y" unicode="y" horiz-adv-x="499" 
d="M-17 -182l20 116h56q24 0 35.5 9t22.5 31l20 39l-88 509h153l40 -326l147 326h153l-286 -572q-40 -81 -78 -106.5t-116 -25.5h-79z" />
    <glyph glyph-name="z" unicode="z" horiz-adv-x="477" 
d="M-22 0l17 102l282 305h-206l20 115h403l-17 -102l-282 -305h232l-20 -115h-429z" />
    <glyph glyph-name="braceleft" unicode="{" horiz-adv-x="343" 
d="M185 -118q-71 0 -105 30.5t-34 94.5q0 29 6 63l20 112q3 16 3 29q0 24 -13 33t-44 9l18 106q37 0 55 16t25 57l21 120q17 100 61.5 139t128.5 39h84l-19 -107h-42q-38 0 -54 -17.5t-24 -65.5l-19 -109q-10 -56 -33.5 -86t-64.5 -40v-2q56 -19 56 -91q0 -21 -4 -41
l-18 -102q-4 -21 -4 -40q0 -23 11 -31.5t40 -8.5h44l-19 -107h-76z" />
    <glyph glyph-name="bar" unicode="|" horiz-adv-x="290" 
d="M0 -226l176 1000h118l-176 -1000h-118z" />
    <glyph glyph-name="braceright" unicode="}" horiz-adv-x="343" 
d="M-52 -118l19 107h42q38 0 54 17.5t24 65.5l19 109q10 56 33.5 86t64.5 40v2q-56 19 -56 91q0 21 4 41l18 102q4 21 4 40q0 23 -11 31.5t-40 8.5h-44l19 107h76q71 0 105 -30.5t34 -94.5q0 -29 -6 -63l-20 -112q-3 -16 -3 -29q0 -24 13 -33t44 -9l-18 -106q-37 0 -55 -16
t-25 -57l-21 -120q-17 -100 -61.5 -139t-128.5 -39h-84z" />
    <glyph glyph-name="asciitilde" unicode="~" horiz-adv-x="596" 
d="M397 207q-67 0 -126 51q-40 33 -66 33q-54 0 -68 -71h-104q35 190 183 190q67 0 126 -51q38 -33 66 -33q54 0 68 71h104q-35 -190 -183 -190z" />
    <glyph glyph-name="uni00A0" unicode="&#xa0;" horiz-adv-x="240" 
 />
    <glyph glyph-name="exclamdown" unicode="&#xa1;" horiz-adv-x="309" 
d="M96 367l27 155h155l-27 -155h-155zM3 -158l37 194l68 262h107l-26 -262l-31 -194h-155z" />
    <glyph glyph-name="cent" unicode="&#xa2;" horiz-adv-x="596" 
d="M196 -72l14 77q-148 23 -148 158q0 26 5 54l17 97q33 188 217 206l13 74h108l-14 -77q142 -23 142 -153q0 -14 -4 -46h-143q2 16 2 26q0 42 -33 53l-48 -271q46 16 59 78h143q-17 -95 -68.5 -144t-140.5 -58l-13 -74h-108zM246 125l48 272q-50 -16 -63 -89l-17 -97
q-3 -18 -3 -31q0 -45 35 -55z" />
    <glyph glyph-name="sterling" unicode="&#xa3;" horiz-adv-x="596" 
d="M24 0l20 113q93 52 106 148h-101l21 117h71q-12 50 -12 79q0 113 70 174t192 61q201 0 201 -159q0 -22 -5 -52h-138q2 12 2 25q0 61 -71 61q-106 0 -106 -127q0 -2 5 -62h228l-21 -117h-204q-12 -87 -68 -134h303l-22 -127h-471z" />
    <glyph glyph-name="currency" unicode="&#xa4;" horiz-adv-x="596" 
d="M115 72l-76 76l107 108q-20 38 -20 84t20 84l-107 108l76 76l106 -108q41 22 90 22t90 -22l106 108l76 -76l-107 -108q20 -38 20 -84t-20 -84l107 -108l-76 -76l-106 108q-41 -22 -90 -22t-90 22zM311 265q33 0 54 21.5t21 53.5t-21 53.5t-54 21.5t-54 -21.5t-21 -53.5
t21 -53.5t54 -21.5z" />
    <glyph glyph-name="yen" unicode="&#xa5;" horiz-adv-x="596" 
d="M178 0l18 103h-154l16 89h154l9 51h-154l16 89h141l-140 348h162l82 -231l164 231h170l-261 -348h138l-16 -89h-154l-9 -51h154l-16 -89h-154l-18 -103h-148z" />
    <glyph glyph-name="brokenbar" unicode="&#xa6;" horiz-adv-x="290" 
d="M106 374l70 400h118l-70 -400h-118zM0 -226l71 400h118l-71 -400h-118z" />
    <glyph glyph-name="section" unicode="&#xa7;" horiz-adv-x="610" 
d="M226 -196q-218 0 -218 152q0 17 3 38h141q-2 -14 -2 -21q0 -59 89 -59q50 0 80.5 17.5t30.5 50.5q0 26 -23 40.5t-96 33.5q-106 27 -147 62.5t-41 100.5q0 109 107 163v2q-41 36 -41 104q0 97 71 150.5t190 53.5q99 0 153.5 -38.5t54.5 -109.5q0 -16 -3 -34h-141
q2 12 2 19q0 54 -76 54q-47 0 -75 -19.5t-28 -49.5q0 -26 24 -40.5t94 -32.5q108 -28 148 -62.5t40 -99.5q0 -106 -108 -162v-2q45 -37 45 -108q0 -98 -73.5 -150.5t-200.5 -52.5zM349 165q66 26 66 80q0 28 -24 43t-97 34q-21 5 -43 12q-28 -12 -44 -34t-16 -46
q0 -29 25 -45t97 -34q6 -1 18 -4.5t18 -5.5z" />
    <glyph glyph-name="dieresis" unicode="&#xa8;" horiz-adv-x="500" 
d="M138 596l22 126h136l-22 -126h-136zM344 596l22 126h136l-22 -126h-136z" />
    <glyph glyph-name="copyright" unicode="&#xa9;" horiz-adv-x="760" 
d="M393 -12q-153 0 -252.5 99.5t-99.5 252.5t99.5 252.5t252.5 99.5t252.5 -99.5t99.5 -252.5t-99.5 -252.5t-252.5 -99.5zM393 75q115 0 185 73t70 192t-70 192t-185 73t-185 -73t-70 -192t70 -192t185 -73zM393 152q-76 0 -110.5 36t-34.5 113v78q0 77 34.5 113t110.5 36
q74 0 109 -34.5t36 -108.5h-94q-1 33 -12 46.5t-36 13.5q-27 0 -37.5 -15.5t-10.5 -53.5v-72q0 -38 10.5 -53.5t37.5 -15.5q25 0 36 13.5t12 46.5h94q-1 -74 -36 -108.5t-109 -34.5z" />
    <glyph glyph-name="ordfeminine" unicode="&#xaa;" horiz-adv-x="414" 
d="M163 307q-54 0 -83 26.5t-29 76.5q0 61 42.5 95.5t118.5 34.5h87l3 17q1 5 1 11q0 37 -43 37q-50 0 -65 -38h-105q33 125 178 125q148 0 148 -111q0 -15 -3 -30l-41 -232h-96l4 36q-47 -48 -117 -48zM203 394q50 0 77 38l7 40h-65q-62 0 -62 -45q0 -33 43 -33zM14 150
l16 89h328l-16 -89h-328z" />
    <glyph glyph-name="guillemotleft" unicode="&#xab;" horiz-adv-x="557" 
d="M121 82l-104 184l160 176h160l-174 -191l96 -169h-138zM367 82l-104 184l160 176h160l-174 -191l96 -169h-138z" />
    <glyph glyph-name="logicalnot" unicode="&#xac;" horiz-adv-x="596" 
d="M398 124l34 196h-370l21 118h492l-55 -314h-122z" />
    <glyph glyph-name="uni00AD" unicode="&#xad;" horiz-adv-x="383" 
d="M28 233l23 128h317l-23 -128h-317z" />
    <glyph glyph-name="registered" unicode="&#xae;" horiz-adv-x="760" 
d="M393 -12q-153 0 -252.5 99.5t-99.5 252.5t99.5 252.5t252.5 99.5t252.5 -99.5t99.5 -252.5t-99.5 -252.5t-252.5 -99.5zM393 75q115 0 185 73t70 192t-70 192t-185 73t-185 -73t-70 -192t70 -192t185 -73zM248 162v356h160q72 0 105 -28t33 -89q0 -81 -62 -105l82 -134
h-112l-68 123h-38v-123h-100zM348 360h48q28 0 39 8.5t11 29.5q0 22 -11 31t-39 9h-48v-78z" />
    <glyph glyph-name="macron" unicode="&#xaf;" horiz-adv-x="500" 
d="M163 609l18 99h296l-18 -99h-296z" />
    <glyph glyph-name="degree" unicode="&#xb0;" horiz-adv-x="410" 
d="M236 364q-72 0 -116 43t-44 114q0 83 56.5 138t139.5 55q72 0 116 -43t44 -114q0 -83 -56.5 -138t-139.5 -55zM242 464q34 0 58 26t24 63q0 28 -15.5 44.5t-42.5 16.5q-34 0 -58 -26t-24 -63q0 -28 15.5 -44.5t42.5 -16.5z" />
    <glyph glyph-name="plusminus" unicode="&#xb1;" horiz-adv-x="596" 
d="M220 161l26 150h-185l21 118h185l29 165h122l-29 -165h185l-21 -118h-185l-26 -150h-122zM6 0l21 118h492l-21 -118h-492z" />
    <glyph glyph-name="uni00B2" unicode="&#xb2;" 
d="M57 416l9 52q10 58 46 97t107 68q84 34 84 74q0 27 -35 27q-50 0 -58 -51l-1 -6h-99l4 23q21 122 162 122q133 0 133 -109q0 -55 -37 -94.5t-118 -71.5q-62 -26 -73 -42h193l-16 -89h-301z" />
    <glyph glyph-name="uni00B3" unicode="&#xb3;" 
d="M215 404q-68 0 -103 25.5t-35 72.5q0 14 2 25l2 12h100l-1 -6q-1 -5 -1 -9q0 -32 40 -32q29 0 44.5 14t15.5 36q0 17 -11 23.5t-38 6.5h-45l15 83h39q27 0 44 13t17 36q0 30 -33 30q-47 0 -54 -38l-1 -6h-99l3 17q20 115 158 115q134 0 134 -104q0 -75 -68 -99v-2
q45 -20 45 -80q0 -63 -44.5 -98t-125.5 -35z" />
    <glyph glyph-name="acute" unicode="&#xb4;" horiz-adv-x="500" 
d="M207 590l138 140h167l-168 -140h-137z" />
    <glyph glyph-name="uni00B5" unicode="&#xb5;" horiz-adv-x="578" 
d="M-14 -182l124 704h148l-58 -332q-3 -16 -3 -28q0 -46 47 -46q63 0 109 71l59 335h148l-92 -522h-126l7 57q-65 -69 -150 -69q-19 0 -35 3l-30 -173h-148z" />
    <glyph glyph-name="paragraph" unicode="&#xb6;" horiz-adv-x="610" 
d="M129 -183l79 449q-80 6 -116 45.5t-36 120.5q0 121 64.5 184.5t187.5 63.5h295l-152 -863h-119l133 755h-84l-133 -755h-119z" />
    <glyph glyph-name="periodcentered" unicode="&#xb7;" horiz-adv-x="293" 
d="M62 220l27 155h155l-27 -155h-155z" />
    <glyph glyph-name="cedilla" unicode="&#xb8;" horiz-adv-x="500" 
d="M153 -210q-70 0 -120 23l32 55q31 -15 62 -15q50 0 50 29q0 10 -11 14t-42 4h-18l66 115h68l-39 -69q94 -1 94 -70q0 -86 -142 -86z" />
    <glyph glyph-name="uni00B9" unicode="&#xb9;" 
d="M89 416l15 87h91l33 184q-35 -6 -105 -6l14 78q82 1 120 51h99l-55 -307h91l-15 -87h-288z" />
    <glyph glyph-name="ordmasculine" unicode="&#xba;" horiz-adv-x="408" 
d="M222 307q-152 0 -152 123q0 22 4 42l11 62q14 80 57.5 119t127.5 39q152 0 152 -123q0 -22 -4 -42l-11 -62q-14 -80 -57.5 -119t-127.5 -39zM226 396q30 0 46.5 16t23.5 54l12 68q3 15 3 27q0 42 -45 42q-30 0 -46.5 -16t-23.5 -54l-12 -68q-3 -15 -3 -27q0 -42 45 -42z
M20 150l16 89h328l-16 -89h-328z" />
    <glyph glyph-name="guillemotright" unicode="&#xbb;" horiz-adv-x="557" 
d="M-26 80l174 191l-96 169h138l104 -184l-160 -176h-160zM220 80l174 191l-96 169h138l104 -184l-160 -176h-160z" />
    <glyph glyph-name="onequarter" unicode="&#xbc;" horiz-adv-x="846" 
d="M172 -12l491 704h105l-491 -704h-105zM66 286l15 87h91l33 184q-35 -6 -105 -6l14 78q82 1 120 51h99l-55 -307h91l-15 -87h-288zM637 0l14 80h-180l16 89l213 225h112l-41 -232h41l-15 -82h-40l-14 -80h-106zM582 162h84l20 114z" />
    <glyph glyph-name="onehalf" unicode="&#xbd;" horiz-adv-x="846" 
d="M630 692h105l-491 -704h-105l208 298h-281l15 87h91l33 184q-35 -6 -105 -6l14 78q82 1 120 51h99l-55 -307h91l-13 -73zM661 131q-62 -26 -73 -42h193l-16 -89h-301l9 52q10 58 46 97t107 68q84 34 84 74q0 27 -35 27q-49 0 -58 -51l-1 -6h-99l4 23q21 122 162 122
q133 0 133 -109q0 -55 -37 -94.5t-118 -71.5z" />
    <glyph glyph-name="threequarters" unicode="&#xbe;" horiz-adv-x="846" 
d="M192 274q-68 0 -103 25.5t-35 72.5q0 14 2 25l2 12h100l-1 -6q-1 -5 -1 -9q0 -32 40 -32q29 0 44.5 14t15.5 36q0 17 -11 23.5t-38 6.5h-45l15 83h39q27 0 44 13t17 36q0 30 -33 30q-47 0 -54 -38l-1 -6h-99l3 17q20 115 158 115q134 0 134 -104q0 -75 -68 -99v-2
q45 -20 45 -80q0 -63 -44.5 -98t-125.5 -35zM172 -12l491 704h105l-491 -704h-105zM637 0l14 80h-180l16 89l213 225h112l-41 -232h41l-15 -82h-40l-14 -80h-106zM582 162h84l20 114z" />
    <glyph glyph-name="questiondown" unicode="&#xbf;" horiz-adv-x="467" 
d="M197 367l27 155h154l-27 -155h-154zM171 -170q-95 0 -145.5 38.5t-50.5 110.5q0 67 30 113.5t98 85.5q45 26 65 48.5t26 54.5l3 17h129l-5 -28q-10 -60 -38.5 -98.5t-85.5 -73.5q-41 -25 -57 -46.5t-16 -50.5q0 -46 58 -46q81 0 96 88h139q-19 -109 -79 -161t-167 -52z
" />
    <glyph glyph-name="Agrave" unicode="&#xc0;" horiz-adv-x="615" 
d="M363 742l-118 140h153l88 -140h-123zM-44 0l348 680h155l108 -680h-156l-18 137h-213l-69 -137h-155zM238 262h140l-27 248z" />
    <glyph glyph-name="Aacute" unicode="&#xc1;" horiz-adv-x="615" 
d="M292 742l138 140h167l-168 -140h-137zM-44 0l348 680h155l108 -680h-156l-18 137h-213l-69 -137h-155zM238 262h140l-27 248z" />
    <glyph glyph-name="Acircumflex" unicode="&#xc2;" horiz-adv-x="615" 
d="M203 742l147 140h134l97 -140h-123l-49 58l-71 -58h-135zM-44 0l348 680h155l108 -680h-156l-18 137h-213l-69 -137h-155zM238 262h140l-27 248z" />
    <glyph glyph-name="Atilde" unicode="&#xc3;" horiz-adv-x="615" 
d="M463 737q-38 0 -78 27q-23 16 -37 16q-28 0 -39 -39h-84q26 140 122 140q38 0 78 -27q23 -16 37 -16q28 0 39 39h84q-26 -140 -122 -140zM-44 0l348 680h155l108 -680h-156l-18 137h-213l-69 -137h-155zM238 262h140l-27 248z" />
    <glyph glyph-name="Adieresis" unicode="&#xc4;" horiz-adv-x="615" 
d="M223 748l22 126h136l-22 -126h-136zM429 748l22 126h136l-22 -126h-136zM-44 0l348 680h155l108 -680h-156l-18 137h-213l-69 -137h-155zM238 262h140l-27 248z" />
    <glyph glyph-name="Aring" unicode="&#xc5;" horiz-adv-x="615" 
d="M396 723q-51 0 -83 30.5t-32 77.5q0 53 37.5 89t93.5 36q51 0 83 -30.5t32 -77.5q0 -53 -37.5 -89t-93.5 -36zM399 798q19 0 31 14t12 35q0 34 -33 34q-19 0 -31 -14t-12 -35q0 -34 33 -34zM-44 0l348 680h155l108 -680h-156l-18 137h-213l-69 -137h-155zM238 262h140
l-27 248z" />
    <glyph glyph-name="AE" unicode="&#xc6;" horiz-adv-x="902" 
d="M-72 0l499 680h503l-23 -129h-290l-25 -143h240l-23 -128h-240l-26 -151h300l-23 -129h-450l24 137h-200l-101 -137h-165zM281 262h135l48 269z" />
    <glyph glyph-name="Ccedilla" unicode="&#xc7;" horiz-adv-x="615" 
d="M606 435h-143q3 23 3 41q0 46 -22.5 66.5t-71.5 20.5q-64 0 -97 -34.5t-47 -115.5l-26 -147q-6 -34 -6 -60q0 -48 22.5 -68.5t71.5 -20.5q60 0 92 30t46 97h144q-25 -127 -90 -188t-177 -67l-24 -43q94 -1 94 -70q0 -86 -142 -86q-70 0 -120 23l32 55q31 -15 62 -15
q50 0 50 29q0 10 -11 14t-42 4h-18l51 89q-193 16 -193 197q0 36 8 82l27 153q25 140 97.5 205.5t205.5 65.5q229 0 229 -192q0 -27 -5 -65z" />
    <glyph glyph-name="Egrave" unicode="&#xc8;" horiz-adv-x="587" 
d="M363 742l-118 140h153l88 -140h-123zM29 0l120 680h466l-23 -129h-316l-25 -141h266l-22 -128h-266l-27 -153h326l-23 -129h-476z" />
    <glyph glyph-name="Eacute" unicode="&#xc9;" horiz-adv-x="587" 
d="M292 742l138 140h167l-168 -140h-137zM29 0l120 680h466l-23 -129h-316l-25 -141h266l-22 -128h-266l-27 -153h326l-23 -129h-476z" />
    <glyph glyph-name="Ecircumflex" unicode="&#xca;" horiz-adv-x="587" 
d="M203 742l147 140h134l97 -140h-123l-49 58l-71 -58h-135zM29 0l120 680h466l-23 -129h-316l-25 -141h266l-22 -128h-266l-27 -153h326l-23 -129h-476z" />
    <glyph glyph-name="Edieresis" unicode="&#xcb;" horiz-adv-x="587" 
d="M223 748l22 126h136l-22 -126h-136zM429 748l22 126h136l-22 -126h-136zM29 0l120 680h466l-23 -129h-316l-25 -141h266l-22 -128h-266l-27 -153h326l-23 -129h-476z" />
    <glyph glyph-name="Igrave" unicode="&#xcc;" horiz-adv-x="300" 
d="M205 742l-118 140h153l88 -140h-123zM29 0l120 680h150l-120 -680h-150z" />
    <glyph glyph-name="Iacute" unicode="&#xcd;" horiz-adv-x="300" 
d="M134 742l138 140h167l-168 -140h-137zM29 0l120 680h150l-120 -680h-150z" />
    <glyph glyph-name="Icircumflex" unicode="&#xce;" horiz-adv-x="300" 
d="M53 742l137 140h136l87 -140h-117l-45 59l-66 -59h-132zM29 0l120 680h150l-120 -680h-150z" />
    <glyph glyph-name="Idieresis" unicode="&#xcf;" horiz-adv-x="300" 
d="M77 748l22 126h132l-22 -126h-132zM263 748l22 126h132l-22 -126h-132zM29 0l120 680h150l-120 -680h-150z" />
    <glyph glyph-name="Eth" unicode="&#xd0;" horiz-adv-x="652" 
d="M408 680q116 0 172 -47.5t56 -144.5q0 -35 -8 -81l-26 -147q-25 -138 -97 -199t-209 -61h-257l50 282h-63l22 128h63l48 270h249zM478 409q6 36 6 56q0 46 -26.5 66.5t-87.5 20.5h-84l-25 -142h113l-22 -128h-113l-27 -154h82q75 0 110.5 33t49.5 111z" />
    <glyph glyph-name="Ntilde" unicode="&#xd1;" horiz-adv-x="682" 
d="M496 737q-38 0 -78 27q-23 16 -37 16q-28 0 -39 -39h-84q26 140 122 140q38 0 78 -27q23 -16 37 -16q28 0 39 39h84q-26 -140 -122 -140zM29 0l120 680h154l158 -441l78 441h142l-120 -680h-142l-166 463l-82 -463h-142z" />
    <glyph glyph-name="Ograve" unicode="&#xd2;" horiz-adv-x="652" 
d="M381 742l-118 140h153l88 -140h-123zM286 -12q-241 0 -241 201q0 39 7 79l27 153q25 140 100.5 205.5t214.5 65.5q241 0 241 -200q0 -40 -7 -80l-27 -153q-25 -140 -100.5 -205.5t-214.5 -65.5zM299 117q68 0 103.5 35t49.5 115l26 147q6 34 6 56q0 49 -24.5 71t-78.5 22
q-68 0 -103.5 -35t-49.5 -115l-26 -147q-6 -35 -6 -56q0 -49 24.5 -71t78.5 -22z" />
    <glyph glyph-name="Oacute" unicode="&#xd3;" horiz-adv-x="652" 
d="M310 742l138 140h167l-168 -140h-137zM286 -12q-241 0 -241 201q0 39 7 79l27 153q25 140 100.5 205.5t214.5 65.5q241 0 241 -200q0 -40 -7 -80l-27 -153q-25 -140 -100.5 -205.5t-214.5 -65.5zM299 117q68 0 103.5 35t49.5 115l26 147q6 34 6 56q0 49 -24.5 71
t-78.5 22q-68 0 -103.5 -35t-49.5 -115l-26 -147q-6 -35 -6 -56q0 -49 24.5 -71t78.5 -22z" />
    <glyph glyph-name="Ocircumflex" unicode="&#xd4;" horiz-adv-x="652" 
d="M221 742l147 140h134l97 -140h-123l-49 58l-71 -58h-135zM286 -12q-241 0 -241 201q0 39 7 79l27 153q25 140 100.5 205.5t214.5 65.5q241 0 241 -200q0 -40 -7 -80l-27 -153q-25 -140 -100.5 -205.5t-214.5 -65.5zM299 117q68 0 103.5 35t49.5 115l26 147q6 34 6 56
q0 49 -24.5 71t-78.5 22q-68 0 -103.5 -35t-49.5 -115l-26 -147q-6 -35 -6 -56q0 -49 24.5 -71t78.5 -22z" />
    <glyph glyph-name="Otilde" unicode="&#xd5;" horiz-adv-x="652" 
d="M481 737q-38 0 -78 27q-23 16 -37 16q-28 0 -39 -39h-84q26 140 122 140q38 0 78 -27q23 -16 37 -16q28 0 39 39h84q-26 -140 -122 -140zM286 -12q-241 0 -241 201q0 39 7 79l27 153q25 140 100.5 205.5t214.5 65.5q241 0 241 -200q0 -40 -7 -80l-27 -153
q-25 -140 -100.5 -205.5t-214.5 -65.5zM299 117q68 0 103.5 35t49.5 115l26 147q6 34 6 56q0 49 -24.5 71t-78.5 22q-68 0 -103.5 -35t-49.5 -115l-26 -147q-6 -35 -6 -56q0 -49 24.5 -71t78.5 -22z" />
    <glyph glyph-name="Odieresis" unicode="&#xd6;" horiz-adv-x="652" 
d="M241 748l22 126h136l-22 -126h-136zM447 748l22 126h136l-22 -126h-136zM286 -12q-241 0 -241 201q0 39 7 79l27 153q25 140 100.5 205.5t214.5 65.5q241 0 241 -200q0 -40 -7 -80l-27 -153q-25 -140 -100.5 -205.5t-214.5 -65.5zM299 117q68 0 103.5 35t49.5 115l26 147
q6 34 6 56q0 49 -24.5 71t-78.5 22q-68 0 -103.5 -35t-49.5 -115l-26 -147q-6 -35 -6 -56q0 -49 24.5 -71t78.5 -22z" />
    <glyph glyph-name="multiply" unicode="&#xd7;" horiz-adv-x="596" 
d="M103 55l-77 90l197 170l-138 170l95 78l136 -168l194 168l77 -90l-197 -170l138 -170l-95 -78l-136 168z" />
    <glyph glyph-name="Oslash" unicode="&#xd8;" horiz-adv-x="652" 
d="M664 620l-42 -46q13 -35 13 -82q0 -40 -7 -80l-27 -153q-25 -140 -100.5 -205.5t-214.5 -65.5q-103 0 -160 35l-31 -35l-79 72l42 46q-13 35 -13 83q0 39 7 79l27 153q25 140 100.5 205.5t214.5 65.5q103 0 160 -35l31 35zM228 413l-26 -146l251 279q-23 17 -72 17
q-68 0 -103.5 -35t-49.5 -115zM452 267l26 146l-251 -279q23 -17 72 -17q68 0 103.5 35t49.5 115z" />
    <glyph glyph-name="Ugrave" unicode="&#xd9;" horiz-adv-x="631" 
d="M370 742l-118 140h153l88 -140h-123zM277 -12q-116 0 -172 42t-56 133q0 29 7 70l79 447h150l-79 -448q-4 -21 -4 -41q0 -40 20.5 -57t68.5 -17q59 0 88.5 27.5t40.5 88.5l79 447h145l-81 -459q-21 -122 -87.5 -177.5t-198.5 -55.5z" />
    <glyph glyph-name="Uacute" unicode="&#xda;" horiz-adv-x="631" 
d="M299 742l138 140h167l-168 -140h-137zM277 -12q-116 0 -172 42t-56 133q0 29 7 70l79 447h150l-79 -448q-4 -21 -4 -41q0 -40 20.5 -57t68.5 -17q59 0 88.5 27.5t40.5 88.5l79 447h145l-81 -459q-21 -122 -87.5 -177.5t-198.5 -55.5z" />
    <glyph glyph-name="Ucircumflex" unicode="&#xdb;" horiz-adv-x="631" 
d="M210 742l147 140h134l97 -140h-123l-49 58l-71 -58h-135zM277 -12q-116 0 -172 42t-56 133q0 29 7 70l79 447h150l-79 -448q-4 -21 -4 -41q0 -40 20.5 -57t68.5 -17q59 0 88.5 27.5t40.5 88.5l79 447h145l-81 -459q-21 -122 -87.5 -177.5t-198.5 -55.5z" />
    <glyph glyph-name="Udieresis" unicode="&#xdc;" horiz-adv-x="631" 
d="M230 748l22 126h136l-22 -126h-136zM436 748l22 126h136l-22 -126h-136zM277 -12q-116 0 -172 42t-56 133q0 29 7 70l79 447h150l-79 -448q-4 -21 -4 -41q0 -40 20.5 -57t68.5 -17q59 0 88.5 27.5t40.5 88.5l79 447h145l-81 -459q-21 -122 -87.5 -177.5t-198.5 -55.5z
" />
    <glyph glyph-name="Yacute" unicode="&#xdd;" horiz-adv-x="541" 
d="M254 742l138 140h167l-168 -140h-137zM149 0l50 286l-151 394h163l89 -246l175 246h166l-292 -398l-50 -282h-150z" />
    <glyph glyph-name="Thorn" unicode="&#xde;" horiz-adv-x="613" 
d="M29 0l120 680h150l-16 -92h115q116 0 165 -42t49 -141q0 -127 -72.5 -193t-211.5 -66h-123l-26 -146h-150zM227 274h106q61 0 94 30t33 84q0 40 -20.5 56t-72.5 16h-107z" />
    <glyph glyph-name="germandbls" unicode="&#xdf;" horiz-adv-x="604" 
d="M42 0l72 410h-80l20 112h80l6 33q17 95 74.5 141t162.5 46q193 0 193 -144q0 -84 -80 -155q-44 -39 -44 -66q0 -15 9.5 -26t35.5 -26q45 -25 61.5 -51.5t16.5 -72.5q0 -94 -64.5 -147.5t-184.5 -53.5h-69l20 116h64q39 0 61 16t22 43q0 18 -10 30t-39 29q-41 25 -56.5 48
t-15.5 61q0 77 76 156q49 50 49 85q0 44 -52 44q-69 0 -83 -79l-97 -549h-148z" />
    <glyph glyph-name="agrave" unicode="&#xe0;" horiz-adv-x="541" 
d="M293 590l-118 140h153l88 -140h-123zM159 -12q-148 0 -148 141q0 91 62.5 141.5t172.5 50.5h102l3 19q2 12 2 24q0 25 -12 39.5t-49 14.5q-70 0 -85 -59h-143q22 91 80 133t163 42q100 0 147.5 -37t47.5 -115q0 -25 -4 -48l-59 -334h-126l6 57q-63 -69 -160 -69zM212 104
q63 0 108 62l10 57h-70q-99 0 -99 -72q0 -47 51 -47z" />
    <glyph glyph-name="aacute" unicode="&#xe1;" horiz-adv-x="541" 
d="M222 590l138 140h167l-168 -140h-137zM159 -12q-148 0 -148 141q0 91 62.5 141.5t172.5 50.5h102l3 19q2 12 2 24q0 25 -12 39.5t-49 14.5q-70 0 -85 -59h-143q22 91 80 133t163 42q100 0 147.5 -37t47.5 -115q0 -25 -4 -48l-59 -334h-126l6 57q-63 -69 -160 -69z
M212 104q63 0 108 62l10 57h-70q-99 0 -99 -72q0 -47 51 -47z" />
    <glyph glyph-name="acircumflex" unicode="&#xe2;" horiz-adv-x="541" 
d="M133 590l147 140h134l97 -140h-123l-49 58l-71 -58h-135zM159 -12q-148 0 -148 141q0 91 62.5 141.5t172.5 50.5h102l3 19q2 12 2 24q0 25 -12 39.5t-49 14.5q-70 0 -85 -59h-143q22 91 80 133t163 42q100 0 147.5 -37t47.5 -115q0 -25 -4 -48l-59 -334h-126l6 57
q-63 -69 -160 -69zM212 104q63 0 108 62l10 57h-70q-99 0 -99 -72q0 -47 51 -47z" />
    <glyph glyph-name="atilde" unicode="&#xe3;" horiz-adv-x="541" 
d="M393 585q-38 0 -78 27q-23 16 -37 16q-28 0 -39 -39h-84q26 140 122 140q38 0 78 -27q23 -16 37 -16q28 0 39 39h84q-26 -140 -122 -140zM159 -12q-148 0 -148 141q0 91 62.5 141.5t172.5 50.5h102l3 19q2 12 2 24q0 25 -12 39.5t-49 14.5q-70 0 -85 -59h-143
q22 91 80 133t163 42q100 0 147.5 -37t47.5 -115q0 -25 -4 -48l-59 -334h-126l6 57q-63 -69 -160 -69zM212 104q63 0 108 62l10 57h-70q-99 0 -99 -72q0 -47 51 -47z" />
    <glyph glyph-name="adieresis" unicode="&#xe4;" horiz-adv-x="541" 
d="M153 596l22 126h136l-22 -126h-136zM359 596l22 126h136l-22 -126h-136zM159 -12q-148 0 -148 141q0 91 62.5 141.5t172.5 50.5h102l3 19q2 12 2 24q0 25 -12 39.5t-49 14.5q-70 0 -85 -59h-143q22 91 80 133t163 42q100 0 147.5 -37t47.5 -115q0 -25 -4 -48l-59 -334
h-126l6 57q-63 -69 -160 -69zM212 104q63 0 108 62l10 57h-70q-99 0 -99 -72q0 -47 51 -47z" />
    <glyph glyph-name="aring" unicode="&#xe5;" horiz-adv-x="541" 
d="M326 571q-51 0 -83 30.5t-32 77.5q0 53 37.5 89t93.5 36q51 0 83 -30.5t32 -77.5q0 -53 -37.5 -89t-93.5 -36zM329 646q19 0 31 14t12 35q0 34 -33 34q-19 0 -31 -14t-12 -35q0 -34 33 -34zM159 -12q-148 0 -148 141q0 91 62.5 141.5t172.5 50.5h102l3 19q2 12 2 24
q0 25 -12 39.5t-49 14.5q-70 0 -85 -59h-143q22 91 80 133t163 42q100 0 147.5 -37t47.5 -115q0 -25 -4 -48l-59 -334h-126l6 57q-63 -69 -160 -69zM212 104q63 0 108 62l10 57h-70q-99 0 -99 -72q0 -47 51 -47z" />
    <glyph glyph-name="ae" unicode="&#xe6;" horiz-adv-x="845" 
d="M170 -12q-159 0 -159 140q0 91 63 142t172 51h102l3 19q2 12 2 20q0 29 -12 43.5t-48 14.5q-71 0 -86 -59h-143q42 175 229 175q121 0 158 -69q56 69 171 69q95 0 144.5 -43.5t49.5 -125.5q0 -29 -6 -60l-16 -90h-317l-2 -12q-2 -12 -2 -26q0 -37 16 -55t57 -18
q80 0 94 56h141q-39 -172 -244 -172q-141 0 -189 76q-70 -76 -178 -76zM496 319h176q4 21 4 38q0 61 -72 61q-48 0 -73 -23t-35 -76zM213 104q67 0 111 67q0 18 5 46l1 6h-70q-99 0 -99 -72q0 -47 52 -47z" />
    <glyph glyph-name="ccedilla" unicode="&#xe7;" horiz-adv-x="526" 
d="M507 323h-141q2 18 2 28q0 32 -15 47.5t-49 15.5q-42 0 -67 -25t-35 -79l-18 -102q-4 -22 -4 -38q0 -62 66 -62q78 0 98 91h141q-19 -103 -75 -154t-151 -56l-24 -43q94 -1 94 -70q0 -86 -142 -86q-70 0 -120 23l32 55q31 -15 62 -15q50 0 50 29q0 10 -11 14t-42 4h-18
l52 90q-161 18 -161 166q0 26 6 61l18 102q38 215 257 215q199 0 199 -164q0 -24 -4 -47z" />
    <glyph glyph-name="egrave" unicode="&#xe8;" horiz-adv-x="553" 
d="M303 590l-118 140h153l88 -140h-123zM245 -12q-213 0 -213 172q0 28 5 57l18 101q38 216 260 216q101 0 154.5 -45t53.5 -129q0 -26 -5 -54l-16 -91h-317l-2 -12q-2 -12 -2 -26q0 -38 16 -55.5t57 -17.5q80 0 94 56h141q-39 -172 -244 -172zM204 319h176q4 21 4 38
q0 61 -72 61q-48 0 -73 -23t-35 -76z" />
    <glyph glyph-name="eacute" unicode="&#xe9;" horiz-adv-x="553" 
d="M232 590l138 140h167l-168 -140h-137zM245 -12q-213 0 -213 172q0 28 5 57l18 101q38 216 260 216q101 0 154.5 -45t53.5 -129q0 -26 -5 -54l-16 -91h-317l-2 -12q-2 -12 -2 -26q0 -38 16 -55.5t57 -17.5q80 0 94 56h141q-39 -172 -244 -172zM204 319h176q4 21 4 38
q0 61 -72 61q-48 0 -73 -23t-35 -76z" />
    <glyph glyph-name="ecircumflex" unicode="&#xea;" horiz-adv-x="553" 
d="M143 590l147 140h134l97 -140h-123l-49 58l-71 -58h-135zM245 -12q-213 0 -213 172q0 28 5 57l18 101q38 216 260 216q101 0 154.5 -45t53.5 -129q0 -26 -5 -54l-16 -91h-317l-2 -12q-2 -12 -2 -26q0 -38 16 -55.5t57 -17.5q80 0 94 56h141q-39 -172 -244 -172zM204 319
h176q4 21 4 38q0 61 -72 61q-48 0 -73 -23t-35 -76z" />
    <glyph glyph-name="edieresis" unicode="&#xeb;" horiz-adv-x="553" 
d="M163 596l22 126h136l-22 -126h-136zM369 596l22 126h136l-22 -126h-136zM245 -12q-213 0 -213 172q0 28 5 57l18 101q38 216 260 216q101 0 154.5 -45t53.5 -129q0 -26 -5 -54l-16 -91h-317l-2 -12q-2 -12 -2 -26q0 -38 16 -55.5t57 -17.5q80 0 94 56h141
q-39 -172 -244 -172zM204 319h176q4 21 4 38q0 61 -72 61q-48 0 -73 -23t-35 -76z" />
    <glyph glyph-name="igrave" unicode="&#xec;" horiz-adv-x="276" 
d="M166 590l-118 140h153l88 -140h-123zM18 0l92 522h148l-92 -522h-148z" />
    <glyph glyph-name="iacute" unicode="&#xed;" horiz-adv-x="276" 
d="M95 590l138 140h167l-168 -140h-137zM18 0l92 522h148l-92 -522h-148z" />
    <glyph glyph-name="icircumflex" unicode="&#xee;" horiz-adv-x="276" 
d="M14 590l137 140h136l87 -140h-117l-45 59l-66 -59h-132zM18 0l92 522h148l-92 -522h-148z" />
    <glyph glyph-name="idieresis" unicode="&#xef;" horiz-adv-x="276" 
d="M38 596l22 126h132l-22 -126h-132zM224 596l22 126h132l-22 -126h-132zM18 0l92 522h148l-92 -522h-148z" />
    <glyph glyph-name="eth" unicode="&#xf0;" horiz-adv-x="561" 
d="M242 -12q-212 0 -212 174q0 27 5 55l11 62q37 213 207 213q91 0 130 -74q-9 73 -48 143l-137 -49l-29 82l114 41q-41 50 -100 95h179q30 -27 51 -49l96 34l29 -82l-72 -25q64 -107 64 -231q0 -44 -8 -89l-14 -80q-39 -220 -266 -220zM251 108q48 0 74 26t36 83l13 76
q-2 37 -22.5 58t-58.5 21q-82 0 -100 -101l-10 -57q-4 -23 -4 -38q0 -36 17 -52t55 -16z" />
    <glyph glyph-name="ntilde" unicode="&#xf1;" horiz-adv-x="570" 
d="M413 585q-38 0 -78 27q-23 16 -37 16q-28 0 -39 -39h-84q26 140 122 140q38 0 78 -27q23 -16 37 -16q28 0 39 39h84q-26 -140 -122 -140zM18 0l92 522h126l-7 -57q68 69 157 69q70 0 106.5 -35.5t36.5 -102.5q0 -29 -5 -56l-60 -340h-148l59 334q2 10 2 25q0 47 -45 47
q-60 0 -107 -70l-59 -336h-148z" />
    <glyph glyph-name="ograve" unicode="&#xf2;" horiz-adv-x="564" 
d="M310 590l-118 140h153l88 -140h-123zM243 -12q-211 0 -211 175q0 26 5 55l17 96q20 113 86 166.5t181 53.5q211 0 211 -175q0 -26 -5 -55l-17 -96q-20 -113 -86 -166.5t-181 -53.5zM253 108q48 0 74 26.5t36 82.5l16 91q4 23 4 38q0 36 -17 52t-55 16q-48 0 -74 -26.5
t-36 -82.5l-16 -91q-4 -23 -4 -38q0 -36 17 -52t55 -16z" />
    <glyph glyph-name="oacute" unicode="&#xf3;" horiz-adv-x="564" 
d="M239 590l138 140h167l-168 -140h-137zM243 -12q-211 0 -211 175q0 26 5 55l17 96q20 113 86 166.5t181 53.5q211 0 211 -175q0 -26 -5 -55l-17 -96q-20 -113 -86 -166.5t-181 -53.5zM253 108q48 0 74 26.5t36 82.5l16 91q4 23 4 38q0 36 -17 52t-55 16q-48 0 -74 -26.5
t-36 -82.5l-16 -91q-4 -23 -4 -38q0 -36 17 -52t55 -16z" />
    <glyph glyph-name="ocircumflex" unicode="&#xf4;" horiz-adv-x="564" 
d="M150 590l147 140h134l97 -140h-123l-49 58l-71 -58h-135zM243 -12q-211 0 -211 175q0 26 5 55l17 96q20 113 86 166.5t181 53.5q211 0 211 -175q0 -26 -5 -55l-17 -96q-20 -113 -86 -166.5t-181 -53.5zM253 108q48 0 74 26.5t36 82.5l16 91q4 23 4 38q0 36 -17 52t-55 16
q-48 0 -74 -26.5t-36 -82.5l-16 -91q-4 -23 -4 -38q0 -36 17 -52t55 -16z" />
    <glyph glyph-name="otilde" unicode="&#xf5;" horiz-adv-x="564" 
d="M410 585q-38 0 -78 27q-23 16 -37 16q-28 0 -39 -39h-84q26 140 122 140q38 0 78 -27q23 -16 37 -16q28 0 39 39h84q-26 -140 -122 -140zM243 -12q-211 0 -211 175q0 26 5 55l17 96q20 113 86 166.5t181 53.5q211 0 211 -175q0 -26 -5 -55l-17 -96q-20 -113 -86 -166.5
t-181 -53.5zM253 108q48 0 74 26.5t36 82.5l16 91q4 23 4 38q0 36 -17 52t-55 16q-48 0 -74 -26.5t-36 -82.5l-16 -91q-4 -23 -4 -38q0 -36 17 -52t55 -16z" />
    <glyph glyph-name="odieresis" unicode="&#xf6;" horiz-adv-x="564" 
d="M170 596l22 126h136l-22 -126h-136zM376 596l22 126h136l-22 -126h-136zM243 -12q-211 0 -211 175q0 26 5 55l17 96q20 113 86 166.5t181 53.5q211 0 211 -175q0 -26 -5 -55l-17 -96q-20 -113 -86 -166.5t-181 -53.5zM253 108q48 0 74 26.5t36 82.5l16 91q4 23 4 38
q0 36 -17 52t-55 16q-48 0 -74 -26.5t-36 -82.5l-16 -91q-4 -23 -4 -38q0 -36 17 -52t55 -16z" />
    <glyph glyph-name="divide" unicode="&#xf7;" horiz-adv-x="596" 
d="M254 456l23 132h156l-23 -132h-156zM50 250l21 118h492l-21 -118h-492zM179 30l23 132h156l-23 -132h-156z" />
    <glyph glyph-name="oslash" unicode="&#xf8;" horiz-adv-x="564" 
d="M555 466l-35 -35q12 -30 12 -72q0 -26 -5 -55l-17 -96q-20 -113 -86 -166.5t-181 -53.5q-85 0 -137 29l-30 -29l-67 68l35 35q-12 30 -12 72q0 26 5 55l17 96q20 113 86 166.5t181 53.5q85 0 137 -29l30 29zM201 305l-12 -70l169 169q-17 10 -47 10q-48 0 -74 -26.5
t-36 -82.5zM363 217l12 70l-169 -169q17 -10 47 -10q48 0 74 26.5t36 82.5z" />
    <glyph glyph-name="ugrave" unicode="&#xf9;" horiz-adv-x="574" 
d="M313 590l-118 140h153l88 -140h-123zM187 -12q-72 0 -109 35.5t-37 102.5q0 26 5 56l60 340h148l-59 -334q-3 -18 -3 -27q0 -45 49 -45q63 0 108 71l59 335h148l-92 -522h-126l7 58q-66 -70 -158 -70z" />
    <glyph glyph-name="uacute" unicode="&#xfa;" horiz-adv-x="574" 
d="M242 590l138 140h167l-168 -140h-137zM187 -12q-72 0 -109 35.5t-37 102.5q0 26 5 56l60 340h148l-59 -334q-3 -18 -3 -27q0 -45 49 -45q63 0 108 71l59 335h148l-92 -522h-126l7 58q-66 -70 -158 -70z" />
    <glyph glyph-name="ucircumflex" unicode="&#xfb;" horiz-adv-x="574" 
d="M153 590l147 140h134l97 -140h-123l-49 58l-71 -58h-135zM187 -12q-72 0 -109 35.5t-37 102.5q0 26 5 56l60 340h148l-59 -334q-3 -18 -3 -27q0 -45 49 -45q63 0 108 71l59 335h148l-92 -522h-126l7 58q-66 -70 -158 -70z" />
    <glyph glyph-name="udieresis" unicode="&#xfc;" horiz-adv-x="574" 
d="M173 596l22 126h136l-22 -126h-136zM379 596l22 126h136l-22 -126h-136zM187 -12q-72 0 -109 35.5t-37 102.5q0 26 5 56l60 340h148l-59 -334q-3 -18 -3 -27q0 -45 49 -45q63 0 108 71l59 335h148l-92 -522h-126l7 58q-66 -70 -158 -70z" />
    <glyph glyph-name="yacute" unicode="&#xfd;" horiz-adv-x="499" 
d="M206 590l138 140h167l-168 -140h-137zM-17 -182l20 116h56q24 0 35.5 9t22.5 31l20 39l-88 509h153l40 -326l147 326h153l-286 -572q-40 -81 -78 -106.5t-116 -25.5h-79z" />
    <glyph glyph-name="thorn" unicode="&#xfe;" horiz-adv-x="579" 
d="M-14 -182l161 912h148l-43 -244q57 47 135 47t120 -41t42 -118q0 -26 -6 -60l-21 -118q-37 -208 -214 -208q-90 0 -133 61l-41 -231h-148zM284 108q74 0 91 96l20 114q4 24 4 37q0 58 -58 58q-70 0 -116 -80l-26 -146q18 -79 85 -79z" />
    <glyph glyph-name="ydieresis" unicode="&#xff;" horiz-adv-x="499" 
d="M137 596l22 126h136l-22 -126h-136zM343 596l22 126h136l-22 -126h-136zM-17 -182l20 116h56q24 0 35.5 9t22.5 31l20 39l-88 509h153l40 -326l147 326h153l-286 -572q-40 -81 -78 -106.5t-116 -25.5h-79z" />
    <glyph glyph-name="Amacron" unicode="&#x100;" horiz-adv-x="615" 
d="M248 761l18 99h296l-18 -99h-296zM-44 0l348 680h155l108 -680h-156l-18 137h-213l-69 -137h-155zM238 262h140l-27 248z" />
    <glyph glyph-name="amacron" unicode="&#x101;" horiz-adv-x="541" 
d="M178 609l18 99h296l-18 -99h-296zM159 -12q-148 0 -148 141q0 91 62.5 141.5t172.5 50.5h102l3 19q2 12 2 24q0 25 -12 39.5t-49 14.5q-70 0 -85 -59h-143q22 91 80 133t163 42q100 0 147.5 -37t47.5 -115q0 -25 -4 -48l-59 -334h-126l6 57q-63 -69 -160 -69zM212 104
q63 0 108 62l10 57h-70q-99 0 -99 -72q0 -47 51 -47z" />
    <glyph glyph-name="Abreve" unicode="&#x102;" horiz-adv-x="615" 
d="M399 733q-68 0 -106.5 36.5t-38.5 93.5q0 10 1 16h97v-7q0 -47 54 -47q60 0 75 54h98q-13 -68 -61.5 -107t-118.5 -39zM-44 0l348 680h155l108 -680h-156l-18 137h-213l-69 -137h-155zM238 262h140l-27 248z" />
    <glyph glyph-name="abreve" unicode="&#x103;" horiz-adv-x="541" 
d="M329 581q-68 0 -106.5 36.5t-38.5 93.5q0 10 1 16h97v-7q0 -47 54 -47q60 0 75 54h98q-13 -68 -61.5 -107t-118.5 -39zM159 -12q-148 0 -148 141q0 91 62.5 141.5t172.5 50.5h102l3 19q2 12 2 24q0 25 -12 39.5t-49 14.5q-70 0 -85 -59h-143q22 91 80 133t163 42
q100 0 147.5 -37t47.5 -115q0 -25 -4 -48l-59 -334h-126l6 57q-63 -69 -160 -69zM212 104q63 0 108 62l10 57h-70q-99 0 -99 -72q0 -47 51 -47z" />
    <glyph glyph-name="Aogonek" unicode="&#x104;" horiz-adv-x="615" 
d="M460 -88q0 -28 38 -28q24 0 53 12l-16 -89q-31 -13 -72 -13q-58 0 -88.5 21.5t-30.5 62.5q0 66 85 122h-18l-18 137h-213l-69 -137h-155l348 680h155l108 -680h-27q-80 -41 -80 -88zM238 262h140l-27 248z" />
    <glyph glyph-name="aogonek" unicode="&#x105;" horiz-adv-x="541" 
d="M307 534q100 0 147.5 -37t47.5 -115q0 -25 -4 -48l-59 -334h-28q-80 -41 -80 -88q0 -28 38 -28q25 0 53 12l-16 -89q-31 -13 -72 -13q-58 0 -88.5 21.5t-30.5 62.5q0 71 99 131l5 48q-63 -69 -160 -69q-148 0 -148 141q0 91 62.5 141.5t172.5 50.5h102l3 19q2 12 2 24
q0 25 -12 39.5t-49 14.5q-70 0 -85 -59h-143q22 91 80 133t163 42zM212 104q63 0 108 62l10 57h-70q-99 0 -99 -72q0 -47 51 -47z" />
    <glyph glyph-name="Cacute" unicode="&#x106;" horiz-adv-x="615" 
d="M298 742l138 140h167l-168 -140h-137zM276 -12q-232 0 -232 198q0 36 8 82l27 153q25 140 97.5 205.5t205.5 65.5q229 0 229 -192q0 -27 -5 -65h-143q3 23 3 41q0 46 -22.5 66.5t-71.5 20.5q-64 0 -97 -34.5t-47 -115.5l-26 -147q-6 -34 -6 -60q0 -48 22.5 -68.5
t71.5 -20.5q60 0 92 30t46 97h144q-27 -135 -98.5 -195.5t-197.5 -60.5z" />
    <glyph glyph-name="cacute" unicode="&#x107;" horiz-adv-x="526" 
d="M228 590l138 140h167l-168 -140h-137zM235 -12q-204 0 -204 168q0 26 6 61l18 102q38 215 257 215q199 0 199 -164q0 -24 -4 -47h-141q2 18 2 28q0 32 -15 47.5t-49 15.5q-42 0 -67 -25t-35 -79l-18 -102q-4 -22 -4 -38q0 -62 66 -62q78 0 98 91h141
q-21 -110 -82.5 -160.5t-167.5 -50.5z" />
    <glyph glyph-name="Ccircumflex" unicode="&#x108;" horiz-adv-x="615" 
d="M209 742l147 140h134l97 -140h-123l-49 58l-71 -58h-135zM276 -12q-232 0 -232 198q0 36 8 82l27 153q25 140 97.5 205.5t205.5 65.5q229 0 229 -192q0 -27 -5 -65h-143q3 23 3 41q0 46 -22.5 66.5t-71.5 20.5q-64 0 -97 -34.5t-47 -115.5l-26 -147q-6 -34 -6 -60
q0 -48 22.5 -68.5t71.5 -20.5q60 0 92 30t46 97h144q-27 -135 -98.5 -195.5t-197.5 -60.5z" />
    <glyph glyph-name="ccircumflex" unicode="&#x109;" horiz-adv-x="526" 
d="M139 590l147 140h134l97 -140h-123l-49 58l-71 -58h-135zM235 -12q-204 0 -204 168q0 26 6 61l18 102q38 215 257 215q199 0 199 -164q0 -24 -4 -47h-141q2 18 2 28q0 32 -15 47.5t-49 15.5q-42 0 -67 -25t-35 -79l-18 -102q-4 -22 -4 -38q0 -62 66 -62q78 0 98 91h141
q-21 -110 -82.5 -160.5t-167.5 -50.5z" />
    <glyph glyph-name="Cdotaccent" unicode="&#x10a;" horiz-adv-x="615" 
d="M328 748l22 126h144l-22 -126h-144zM276 -12q-232 0 -232 198q0 36 8 82l27 153q25 140 97.5 205.5t205.5 65.5q229 0 229 -192q0 -27 -5 -65h-143q3 23 3 41q0 46 -22.5 66.5t-71.5 20.5q-64 0 -97 -34.5t-47 -115.5l-26 -147q-6 -34 -6 -60q0 -48 22.5 -68.5
t71.5 -20.5q60 0 92 30t46 97h144q-27 -135 -98.5 -195.5t-197.5 -60.5z" />
    <glyph glyph-name="cdotaccent" unicode="&#x10b;" horiz-adv-x="526" 
d="M258 596l22 126h144l-22 -126h-144zM235 -12q-204 0 -204 168q0 26 6 61l18 102q38 215 257 215q199 0 199 -164q0 -24 -4 -47h-141q2 18 2 28q0 32 -15 47.5t-49 15.5q-42 0 -67 -25t-35 -79l-18 -102q-4 -22 -4 -38q0 -62 66 -62q78 0 98 91h141q-21 -110 -82.5 -160.5
t-167.5 -50.5z" />
    <glyph glyph-name="Ccaron" unicode="&#x10c;" horiz-adv-x="615" 
d="M333 742l-97 140h123l49 -58l71 58h135l-147 -140h-134zM276 -12q-232 0 -232 198q0 36 8 82l27 153q25 140 97.5 205.5t205.5 65.5q229 0 229 -192q0 -27 -5 -65h-143q3 23 3 41q0 46 -22.5 66.5t-71.5 20.5q-64 0 -97 -34.5t-47 -115.5l-26 -147q-6 -34 -6 -60
q0 -48 22.5 -68.5t71.5 -20.5q60 0 92 30t46 97h144q-27 -135 -98.5 -195.5t-197.5 -60.5z" />
    <glyph glyph-name="ccaron" unicode="&#x10d;" horiz-adv-x="526" 
d="M263 590l-97 140h123l49 -58l71 58h135l-147 -140h-134zM235 -12q-204 0 -204 168q0 26 6 61l18 102q38 215 257 215q199 0 199 -164q0 -24 -4 -47h-141q2 18 2 28q0 32 -15 47.5t-49 15.5q-42 0 -67 -25t-35 -79l-18 -102q-4 -22 -4 -38q0 -62 66 -62q78 0 98 91h141
q-21 -110 -82.5 -160.5t-167.5 -50.5z" />
    <glyph glyph-name="Dcaron" unicode="&#x10e;" horiz-adv-x="642" 
d="M328 742l-97 140h123l49 -58l71 58h135l-147 -140h-134zM29 0l120 680h249q116 0 172 -47.5t56 -144.5q0 -35 -8 -81l-26 -147q-25 -138 -97 -199t-209 -61h-257zM202 128h82q75 0 110.5 33t49.5 111l24 137q6 36 6 56q0 46 -26.5 66.5t-87.5 20.5h-84z" />
    <glyph glyph-name="dcaron" unicode="&#x10f;" horiz-adv-x="632" 
d="M192 -12q-78 0 -120 41t-42 118q0 25 6 60l21 118q37 209 214 209q89 0 134 -61l45 257h148l-129 -730h-126l6 56q-65 -68 -157 -68zM582 508l77 222h141l-120 -222h-98zM238 108q70 0 116 80l26 147q-18 79 -85 79q-74 0 -91 -97l-20 -114q-4 -24 -4 -37q0 -58 58 -58z
" />
    <glyph glyph-name="Dcroat" unicode="&#x110;" horiz-adv-x="652" 
d="M408 680q116 0 172 -47.5t56 -144.5q0 -35 -8 -81l-26 -147q-25 -138 -97 -199t-209 -61h-257l50 282h-63l22 128h63l48 270h249zM478 409q6 36 6 56q0 46 -26.5 66.5t-87.5 20.5h-84l-25 -142h113l-22 -128h-113l-27 -154h82q75 0 110.5 33t49.5 111z" />
    <glyph glyph-name="dcroat" unicode="&#x111;" horiz-adv-x="587" 
d="M657 674l-17 -97h-69l-102 -577h-126l6 56q-65 -68 -157 -68q-78 0 -120 41t-42 118q0 25 6 60l21 118q37 209 214 209q89 0 134 -61l18 104h-124l17 97h124l10 56h148l-10 -56h69zM354 188l26 147q-18 79 -85 79q-74 0 -91 -97l-20 -114q-4 -24 -4 -37q0 -58 58 -58
q70 0 116 80z" />
    <glyph glyph-name="Emacron" unicode="&#x112;" horiz-adv-x="587" 
d="M248 761l18 99h296l-18 -99h-296zM29 0l120 680h466l-23 -129h-316l-25 -141h266l-22 -128h-266l-27 -153h326l-23 -129h-476z" />
    <glyph glyph-name="emacron" unicode="&#x113;" horiz-adv-x="553" 
d="M188 609l18 99h296l-18 -99h-296zM245 -12q-213 0 -213 172q0 28 5 57l18 101q38 216 260 216q101 0 154.5 -45t53.5 -129q0 -26 -5 -54l-16 -91h-317l-2 -12q-2 -12 -2 -26q0 -38 16 -55.5t57 -17.5q80 0 94 56h141q-39 -172 -244 -172zM204 319h176q4 21 4 38
q0 61 -72 61q-48 0 -73 -23t-35 -76z" />
    <glyph glyph-name="Ebreve" unicode="&#x114;" horiz-adv-x="587" 
d="M399 733q-68 0 -106.5 36.5t-38.5 93.5q0 10 1 16h97v-7q0 -47 54 -47q60 0 75 54h98q-13 -68 -61.5 -107t-118.5 -39zM29 0l120 680h466l-23 -129h-316l-25 -141h266l-22 -128h-266l-27 -153h326l-23 -129h-476z" />
    <glyph glyph-name="ebreve" unicode="&#x115;" horiz-adv-x="553" 
d="M339 581q-68 0 -106.5 36.5t-38.5 93.5q0 10 1 16h97v-7q0 -47 54 -47q60 0 75 54h98q-13 -68 -61.5 -107t-118.5 -39zM245 -12q-213 0 -213 172q0 28 5 57l18 101q38 216 260 216q101 0 154.5 -45t53.5 -129q0 -26 -5 -54l-16 -91h-317l-2 -12q-2 -12 -2 -26
q0 -38 16 -55.5t57 -17.5q80 0 94 56h141q-39 -172 -244 -172zM204 319h176q4 21 4 38q0 61 -72 61q-48 0 -73 -23t-35 -76z" />
    <glyph glyph-name="Edotaccent" unicode="&#x116;" horiz-adv-x="587" 
d="M322 748l22 126h144l-22 -126h-144zM29 0l120 680h466l-23 -129h-316l-25 -141h266l-22 -128h-266l-27 -153h326l-23 -129h-476z" />
    <glyph glyph-name="edotaccent" unicode="&#x117;" horiz-adv-x="553" 
d="M262 596l22 126h144l-22 -126h-144zM245 -12q-213 0 -213 172q0 28 5 57l18 101q38 216 260 216q101 0 154.5 -45t53.5 -129q0 -26 -5 -54l-16 -91h-317l-2 -12q-2 -12 -2 -26q0 -38 16 -55.5t57 -17.5q80 0 94 56h141q-39 -172 -244 -172zM204 319h176q4 21 4 38
q0 61 -72 61q-48 0 -73 -23t-35 -76z" />
    <glyph glyph-name="Eogonek" unicode="&#x118;" horiz-adv-x="587" 
d="M592 551h-316l-25 -141h266l-22 -128h-266l-27 -153h326l-23 -129h-28q-80 -41 -80 -88q0 -28 38 -28q25 0 53 12l-16 -89q-31 -13 -72 -13q-58 0 -88.5 21.5t-30.5 62.5q0 66 85 122h-337l120 680h466z" />
    <glyph glyph-name="eogonek" unicode="&#x119;" horiz-adv-x="553" 
d="M315 534q101 0 154.5 -45t53.5 -129q0 -26 -5 -54l-16 -91h-317l-2 -12q-2 -12 -2 -26q0 -38 16 -55.5t57 -17.5q80 0 94 56h141q-22 -101 -101 -142q-34 -22 -54.5 -50t-20.5 -53q0 -31 38 -31q25 0 53 12l-16 -89q-30 -13 -72 -13q-119 0 -119 87q0 55 58 107h-10
q-213 0 -213 172q0 28 5 57l18 101q38 216 260 216zM380 319q4 21 4 38q0 61 -72 61q-48 0 -73 -23t-35 -76h176z" />
    <glyph glyph-name="Ecaron" unicode="&#x11a;" horiz-adv-x="587" 
d="M327 742l-97 140h123l49 -58l71 58h135l-147 -140h-134zM29 0l120 680h466l-23 -129h-316l-25 -141h266l-22 -128h-266l-27 -153h326l-23 -129h-476z" />
    <glyph glyph-name="ecaron" unicode="&#x11b;" horiz-adv-x="553" 
d="M267 590l-97 140h123l49 -58l71 58h135l-147 -140h-134zM245 -12q-213 0 -213 172q0 28 5 57l18 101q38 216 260 216q101 0 154.5 -45t53.5 -129q0 -26 -5 -54l-16 -91h-317l-2 -12q-2 -12 -2 -26q0 -38 16 -55.5t57 -17.5q80 0 94 56h141q-39 -172 -244 -172zM204 319
h176q4 21 4 38q0 61 -72 61q-48 0 -73 -23t-35 -76z" />
    <glyph glyph-name="Gcircumflex" unicode="&#x11c;" horiz-adv-x="635" 
d="M211 742l147 140h134l97 -140h-123l-49 58l-71 -58h-135zM281 -12q-236 0 -236 200q0 41 7 80l28 159q47 265 305 265q114 0 174.5 -48t60.5 -136q0 -20 -3 -39h-143q1 7 1 16q0 78 -98 78q-66 0 -100.5 -34.5t-48.5 -115.5l-26 -147q-6 -35 -6 -57q0 -48 24.5 -70
t76.5 -22q64 0 98 32.5t47 106.5h-112l23 129h255l-24 -136q-23 -131 -95 -196t-208 -65z" />
    <glyph glyph-name="gcircumflex" unicode="&#x11d;" horiz-adv-x="579" 
d="M151 590l147 140h134l97 -140h-123l-49 58l-71 -58h-135zM208 -194q-205 0 -205 144q0 12 2 28h139v-7q0 -27 16 -38t53 -11q50 0 76 22t35 73l9 50q-57 -47 -135 -47t-120 41t-42 118q0 25 6 60l15 86q37 209 214 209q103 0 147 -83l17 71h126l-91 -516
q-18 -102 -81.5 -151t-180.5 -49zM244 140q70 0 116 79l20 116q-18 79 -85 79q-74 0 -91 -97l-14 -82q-4 -24 -4 -37q0 -58 58 -58z" />
    <glyph glyph-name="Gbreve" unicode="&#x11e;" horiz-adv-x="635" 
d="M407 733q-68 0 -106.5 36.5t-38.5 93.5q0 10 1 16h97v-7q0 -47 54 -47q60 0 75 54h98q-13 -68 -61.5 -107t-118.5 -39zM281 -12q-236 0 -236 200q0 41 7 80l28 159q47 265 305 265q114 0 174.5 -48t60.5 -136q0 -20 -3 -39h-143q1 7 1 16q0 78 -98 78q-66 0 -100.5 -34.5
t-48.5 -115.5l-26 -147q-6 -35 -6 -57q0 -48 24.5 -70t76.5 -22q64 0 98 32.5t47 106.5h-112l23 129h255l-24 -136q-23 -131 -95 -196t-208 -65z" />
    <glyph glyph-name="gbreve" unicode="&#x11f;" horiz-adv-x="579" 
d="M347 581q-68 0 -106.5 36.5t-38.5 93.5q0 10 1 16h97v-7q0 -47 54 -47q60 0 75 54h98q-13 -68 -61.5 -107t-118.5 -39zM208 -194q-205 0 -205 144q0 12 2 28h139v-7q0 -27 16 -38t53 -11q50 0 76 22t35 73l9 50q-57 -47 -135 -47t-120 41t-42 118q0 25 6 60l15 86
q37 209 214 209q103 0 147 -83l17 71h126l-91 -516q-18 -102 -81.5 -151t-180.5 -49zM244 140q70 0 116 79l20 116q-18 79 -85 79q-74 0 -91 -97l-14 -82q-4 -24 -4 -37q0 -58 58 -58z" />
    <glyph glyph-name="Gdotaccent" unicode="&#x120;" horiz-adv-x="635" 
d="M330 748l22 126h144l-22 -126h-144zM281 -12q-236 0 -236 200q0 41 7 80l28 159q47 265 305 265q114 0 174.5 -48t60.5 -136q0 -20 -3 -39h-143q1 7 1 16q0 78 -98 78q-66 0 -100.5 -34.5t-48.5 -115.5l-26 -147q-6 -35 -6 -57q0 -48 24.5 -70t76.5 -22q64 0 98 32.5
t47 106.5h-112l23 129h255l-24 -136q-23 -131 -95 -196t-208 -65z" />
    <glyph glyph-name="gdotaccent" unicode="&#x121;" horiz-adv-x="579" 
d="M270 596l22 126h144l-22 -126h-144zM208 -194q-205 0 -205 144q0 12 2 28h139v-7q0 -27 16 -38t53 -11q50 0 76 22t35 73l9 50q-57 -47 -135 -47t-120 41t-42 118q0 25 6 60l15 86q37 209 214 209q103 0 147 -83l17 71h126l-91 -516q-18 -102 -81.5 -151t-180.5 -49z
M244 140q70 0 116 79l20 116q-18 79 -85 79q-74 0 -91 -97l-14 -82q-4 -24 -4 -37q0 -58 58 -58z" />
    <glyph glyph-name="Gcommaaccent" unicode="&#x122;" horiz-adv-x="635" 
d="M281 -12q-236 0 -236 200q0 41 7 80l28 159q47 265 305 265q114 0 174.5 -48t60.5 -136q0 -20 -3 -39h-143q1 7 1 16q0 78 -98 78q-66 0 -100.5 -34.5t-48.5 -115.5l-26 -147q-6 -35 -6 -57q0 -48 24.5 -70t76.5 -22q64 0 98 32.5t47 106.5h-112l23 129h255l-24 -136
q-23 -131 -95 -196t-208 -65zM160 -254l10 55q58 0 69 42h-59l17 98h143l-12 -68q-13 -76 -45.5 -101.5t-122.5 -25.5z" />
    <glyph glyph-name="gcommaaccent" unicode="&#x123;" horiz-adv-x="579" 
d="M447 776l-10 -55q-59 0 -69 -42h59l-17 -98h-143l12 68q13 76 45.5 101.5t122.5 25.5zM208 -194q-205 0 -205 144q0 12 2 28h139v-7q0 -27 16 -38t53 -11q50 0 76 22t35 73l9 50q-57 -47 -135 -47t-120 41t-42 118q0 25 6 60l15 86q37 209 214 209q103 0 147 -83l17 71
h126l-91 -516q-18 -102 -81.5 -151t-180.5 -49zM244 140q70 0 116 79l20 116q-18 79 -85 79q-74 0 -91 -97l-14 -82q-4 -24 -4 -37q0 -58 58 -58z" />
    <glyph glyph-name="Hcircumflex" unicode="&#x124;" horiz-adv-x="684" 
d="M237 742l147 140h134l97 -140h-123l-49 58l-71 -58h-135zM29 0l120 680h150l-47 -269h234l47 269h150l-120 -680h-150l50 281h-234l-50 -281h-150z" />
    <glyph glyph-name="hcircumflex" unicode="&#x125;" horiz-adv-x="570" 
d="M42 792l147 140h134l97 -140h-123l-49 58l-71 -58h-135zM18 0l129 730h148l-43 -243q58 47 134 47q70 0 106.5 -35.5t36.5 -102.5q0 -29 -5 -56l-60 -340h-148l59 334q2 10 2 25q0 47 -45 47q-60 0 -106 -69l-60 -337h-148z" />
    <glyph glyph-name="Hbar" unicode="&#x126;" horiz-adv-x="704" 
d="M740 591l-18 -104h-63l-86 -487h-150l50 281h-234l-50 -281h-150l86 487h-63l18 104h63l16 89h150l-16 -89h234l16 89h150l-16 -89h63zM496 411l13 76h-234l-13 -76h234z" />
    <glyph glyph-name="hbar" unicode="&#x127;" horiz-adv-x="578" 
d="M394 534q70 0 106.5 -35.5t36.5 -102.5q0 -29 -5 -56l-60 -340h-148l59 334q2 10 2 25q0 47 -45 47q-60 0 -106 -69l-60 -337h-148l102 577h-69l17 97h69l10 56h148l-10 -56h124l-17 -97h-124l-16 -90q58 47 134 47z" />
    <glyph glyph-name="Itilde" unicode="&#x128;" horiz-adv-x="300" 
d="M298 737q-36 0 -69 26q-21 17 -36 17q-27 0 -37 -39h-81q14 73 43 106.5t76 33.5q36 0 69 -26q21 -17 36 -17q27 0 37 39h81q-14 -73 -43 -106.5t-76 -33.5zM29 0l120 680h150l-120 -680h-150z" />
    <glyph glyph-name="itilde" unicode="&#x129;" horiz-adv-x="276" 
d="M259 585q-37 0 -69 26q-21 17 -36 17q-27 0 -37 -39h-81q14 73 43 106.5t76 33.5q37 0 69 -26q21 -17 36 -17q27 0 37 39h81q-14 -73 -43 -106.5t-76 -33.5zM18 0l92 522h148l-92 -522h-148z" />
    <glyph glyph-name="Imacron" unicode="&#x12a;" horiz-adv-x="300" 
d="M101 761l18 99h274l-18 -99h-274zM29 0l120 680h150l-120 -680h-150z" />
    <glyph glyph-name="imacron" unicode="&#x12b;" horiz-adv-x="276" 
d="M62 609l18 99h274l-18 -99h-274zM18 0l92 522h148l-92 -522h-148z" />
    <glyph glyph-name="Ibreve" unicode="&#x12c;" horiz-adv-x="300" 
d="M241 733q-64 0 -101 35t-37 91q0 13 1 20h95v-10q0 -44 49 -44q56 0 69 54h97q-12 -68 -59 -107t-114 -39zM29 0l120 680h150l-120 -680h-150z" />
    <glyph glyph-name="ibreve" unicode="&#x12d;" horiz-adv-x="276" 
d="M202 581q-64 0 -101 35t-37 91q0 13 1 20h95v-10q0 -44 49 -44q56 0 69 54h97q-12 -68 -59 -107t-114 -39zM18 0l92 522h148l-92 -522h-148z" />
    <glyph glyph-name="Iogonek" unicode="&#x12e;" horiz-adv-x="300" 
d="M161 0q-78 -40 -78 -89q0 -27 40 -27q25 0 56 12l-16 -89q-33 -13 -75 -13q-58 0 -89.5 22t-31.5 63q0 66 85 121h-23l120 680h150l-120 -680h-18z" />
    <glyph glyph-name="iogonek" unicode="&#x12f;" horiz-adv-x="276" 
d="M141 722h156l-22 -126h-156zM18 0l92 522h148l-92 -522h-18q-78 -40 -78 -89q0 -27 40 -27q24 0 56 12l-16 -89q-32 -13 -75 -13q-58 0 -89.5 22t-31.5 63q0 66 85 121h-21z" />
    <glyph glyph-name="Idotaccent" unicode="&#x130;" horiz-adv-x="300" 
d="M164 748l22 126h144l-22 -126h-144zM29 0l120 680h150l-120 -680h-150z" />
    <glyph glyph-name="dotlessi" unicode="&#x131;" horiz-adv-x="276" 
d="M18 0l92 522h148l-92 -522h-148z" />
    <glyph glyph-name="IJ" unicode="&#x132;" horiz-adv-x="853" 
d="M29 0l120 680h150l-120 -680h-150zM511 -12q-108 0 -158 41.5t-50 133.5q0 31 7 71l2 12h144l-3 -17q-4 -23 -4 -43q0 -35 16.5 -52t56.5 -17q50 0 77 27.5t38 88.5l79 447h150l-81 -459q-22 -124 -86 -178.5t-188 -54.5z" />
    <glyph glyph-name="ij" unicode="&#x133;" horiz-adv-x="552" 
d="M119 596l22 126h156l-22 -126h-156zM395 596l22 126h156l-22 -126h-156zM18 0l92 522h148l-92 -522h-148zM195 -182l20 116h29q38 0 46 44l96 544h148l-97 -551q-15 -82 -51.5 -117.5t-110.5 -35.5h-80z" />
    <glyph glyph-name="Jcircumflex" unicode="&#x134;" horiz-adv-x="553" 
d="M320 742l137 140h136l87 -140h-117l-45 59l-66 -59h-132zM211 -12q-108 0 -158 41.5t-50 133.5q0 31 7 71l2 12h144l-3 -17q-4 -23 -4 -43q0 -35 16.5 -52t56.5 -17q50 0 77 27.5t38 88.5l79 447h150l-81 -459q-22 -124 -86 -178.5t-188 -54.5z" />
    <glyph glyph-name="jcircumflex" unicode="&#x135;" horiz-adv-x="276" 
d="M14 590l137 140h136l87 -140h-117l-45 59l-66 -59h-132zM-81 -182l20 116h29q38 0 46 44l96 544h148l-97 -551q-15 -82 -51.5 -117.5t-110.5 -35.5h-80z" />
    <glyph glyph-name="Kcommaaccent" unicode="&#x136;" horiz-adv-x="622" 
d="M29 0l120 680h150l-52 -293l279 293h178l-271 -282l151 -398h-163l-107 286l-104 -110l-31 -176h-150zM175 -254l10 55q59 0 69 42h-59l17 98h143l-12 -68q-13 -76 -45.5 -101.5t-122.5 -25.5z" />
    <glyph glyph-name="kcommaaccent" unicode="&#x137;" horiz-adv-x="549" 
d="M18 0l129 730h148l-72 -408l203 200h178l-223 -216l131 -306h-162l-85 206l-76 -74l-23 -132h-148zM132 -254l10 55q58 0 69 42h-59l17 98h143l-12 -68q-13 -76 -45.5 -101.5t-122.5 -25.5z" />
    <glyph glyph-name="kgreenlandic" unicode="&#x138;" horiz-adv-x="549" 
d="M18 0l92 522h148l-35 -200l203 200h178l-223 -216l131 -306h-162l-85 206l-76 -74l-23 -132h-148z" />
    <glyph glyph-name="Lacute" unicode="&#x139;" horiz-adv-x="518" 
d="M134 742l138 140h167l-168 -140h-137zM29 0l120 680h150l-97 -549h287l-23 -131h-437z" />
    <glyph glyph-name="lacute" unicode="&#x13a;" horiz-adv-x="276" 
d="M131 792l138 140h167l-168 -140h-137zM18 0l129 730h148l-129 -730h-148z" />
    <glyph glyph-name="Lcommaaccent" unicode="&#x13b;" horiz-adv-x="518" 
d="M29 0l120 680h150l-97 -549h287l-23 -131h-437zM129 -254l10 55q59 0 69 42h-59l17 98h143l-12 -68q-13 -76 -45.5 -101.5t-122.5 -25.5z" />
    <glyph glyph-name="lcommaaccent" unicode="&#x13c;" horiz-adv-x="276" 
d="M18 0l129 730h148l-129 -730h-148zM-26 -254l10 55q58 0 69 42h-59l17 98h143l-12 -68q-13 -76 -45.5 -101.5t-122.5 -25.5z" />
    <glyph glyph-name="Lcaron" unicode="&#x13d;" horiz-adv-x="518" 
d="M29 0l120 680h150l-97 -549h287l-23 -131h-437zM302 458l77 222h141l-120 -222h-98z" />
    <glyph glyph-name="lcaron" unicode="&#x13e;" horiz-adv-x="329" 
d="M18 0l129 730h148l-129 -730h-148zM279 508l77 222h141l-120 -222h-98z" />
    <glyph glyph-name="Ldot" unicode="&#x13f;" horiz-adv-x="518" 
d="M29 0l120 680h150l-97 -549h287l-23 -131h-437zM349 315l24 140h140l-24 -140h-140z" />
    <glyph glyph-name="ldot" unicode="&#x140;" horiz-adv-x="376" 
d="M18 0l129 730h148l-129 -730h-148zM262 294l24 134h138l-24 -134h-138z" />
    <glyph glyph-name="Lslash" unicode="&#x141;" horiz-adv-x="528" 
d="M212 131h287l-23 -131h-437l29 164l-70 -41l26 145l70 41l65 371h150l-48 -272l199 118l-26 -145l-199 -118z" />
    <glyph glyph-name="lslash" unicode="&#x142;" horiz-adv-x="306" 
d="M352 540l-24 -135l-84 -50l-63 -355h-148l45 257l-85 -51l24 135l85 51l60 338h148l-42 -240z" />
    <glyph glyph-name="Nacute" unicode="&#x143;" horiz-adv-x="682" 
d="M325 742l138 140h167l-168 -140h-137zM29 0l120 680h154l158 -441l78 441h142l-120 -680h-142l-166 463l-82 -463h-142z" />
    <glyph glyph-name="nacute" unicode="&#x144;" horiz-adv-x="570" 
d="M242 590l138 140h167l-168 -140h-137zM18 0l92 522h126l-7 -57q68 69 157 69q70 0 106.5 -35.5t36.5 -102.5q0 -29 -5 -56l-60 -340h-148l59 334q2 10 2 25q0 47 -45 47q-60 0 -107 -70l-59 -336h-148z" />
    <glyph glyph-name="Ncommaaccent" unicode="&#x145;" horiz-adv-x="682" 
d="M29 0l120 680h154l158 -441l78 441h142l-120 -680h-142l-166 463l-82 -463h-142zM176 -254l10 55q58 0 69 42h-59l17 98h143l-12 -68q-13 -76 -45.5 -101.5t-122.5 -25.5z" />
    <glyph glyph-name="ncommaaccent" unicode="&#x146;" horiz-adv-x="570" 
d="M18 0l92 522h126l-7 -57q68 69 157 69q70 0 106.5 -35.5t36.5 -102.5q0 -29 -5 -56l-60 -340h-148l59 334q2 10 2 25q0 47 -45 47q-60 0 -107 -70l-59 -336h-148zM123 -254l10 55q59 0 69 42h-59l17 98h143l-12 -68q-13 -76 -45.5 -101.5t-122.5 -25.5z" />
    <glyph glyph-name="Ncaron" unicode="&#x147;" horiz-adv-x="682" 
d="M360 742l-97 140h123l49 -58l71 58h135l-147 -140h-134zM29 0l120 680h154l158 -441l78 441h142l-120 -680h-142l-166 463l-82 -463h-142z" />
    <glyph glyph-name="ncaron" unicode="&#x148;" horiz-adv-x="570" 
d="M277 590l-97 140h123l49 -58l71 58h135l-147 -140h-134zM18 0l92 522h126l-7 -57q68 69 157 69q70 0 106.5 -35.5t36.5 -102.5q0 -29 -5 -56l-60 -340h-148l59 334q2 10 2 25q0 47 -45 47q-60 0 -107 -70l-59 -336h-148z" />
    <glyph glyph-name="napostrophe" unicode="&#x149;" horiz-adv-x="651" 
d="M40 494l12 66q59 0 68 50h-57l21 120h142l-18 -103q-12 -72 -48 -102.5t-120 -30.5zM99 0l92 522h126l-7 -57q68 69 157 69q70 0 106.5 -35.5t36.5 -102.5q0 -29 -5 -56l-60 -340h-148l59 334q2 10 2 25q0 47 -45 47q-60 0 -107 -70l-59 -336h-148z" />
    <glyph glyph-name="Eng" unicode="&#x14a;" horiz-adv-x="682" 
d="M313 -182l20 116h36q38 0 46 44l4 22l-166 463l-82 -463h-142l120 680h154l158 -441l78 441h142l-125 -711q-15 -83 -53 -117t-109 -34h-81z" />
    <glyph glyph-name="eng" unicode="&#x14b;" horiz-adv-x="570" 
d="M217 -182l20 113h29q38 0 46 46l63 357q2 10 2 25q0 47 -45 47q-60 0 -107 -70l-59 -336h-148l92 522h126l-7 -57q68 69 157 69q70 0 106.5 -35.5t36.5 -102.5q0 -29 -5 -56l-66 -374q-14 -80 -51 -114t-110 -34h-80z" />
    <glyph glyph-name="Omacron" unicode="&#x14c;" horiz-adv-x="652" 
d="M266 761l18 99h296l-18 -99h-296zM286 -12q-241 0 -241 201q0 39 7 79l27 153q25 140 100.5 205.5t214.5 65.5q241 0 241 -200q0 -40 -7 -80l-27 -153q-25 -140 -100.5 -205.5t-214.5 -65.5zM299 117q68 0 103.5 35t49.5 115l26 147q6 34 6 56q0 49 -24.5 71t-78.5 22
q-68 0 -103.5 -35t-49.5 -115l-26 -147q-6 -35 -6 -56q0 -49 24.5 -71t78.5 -22z" />
    <glyph glyph-name="omacron" unicode="&#x14d;" horiz-adv-x="564" 
d="M195 609l18 99h296l-18 -99h-296zM243 -12q-211 0 -211 175q0 26 5 55l17 96q20 113 86 166.5t181 53.5q211 0 211 -175q0 -26 -5 -55l-17 -96q-20 -113 -86 -166.5t-181 -53.5zM253 108q48 0 74 26.5t36 82.5l16 91q4 23 4 38q0 36 -17 52t-55 16q-48 0 -74 -26.5
t-36 -82.5l-16 -91q-4 -23 -4 -38q0 -36 17 -52t55 -16z" />
    <glyph glyph-name="Obreve" unicode="&#x14e;" horiz-adv-x="652" 
d="M417 733q-68 0 -106.5 36.5t-38.5 93.5q0 10 1 16h97v-7q0 -47 54 -47q60 0 75 54h98q-13 -68 -61.5 -107t-118.5 -39zM286 -12q-241 0 -241 201q0 39 7 79l27 153q25 140 100.5 205.5t214.5 65.5q241 0 241 -200q0 -40 -7 -80l-27 -153q-25 -140 -100.5 -205.5
t-214.5 -65.5zM299 117q68 0 103.5 35t49.5 115l26 147q6 34 6 56q0 49 -24.5 71t-78.5 22q-68 0 -103.5 -35t-49.5 -115l-26 -147q-6 -35 -6 -56q0 -49 24.5 -71t78.5 -22z" />
    <glyph glyph-name="obreve" unicode="&#x14f;" horiz-adv-x="564" 
d="M346 581q-68 0 -106.5 36.5t-38.5 93.5q0 10 1 16h97v-7q0 -47 54 -47q60 0 75 54h98q-13 -68 -61.5 -107t-118.5 -39zM243 -12q-211 0 -211 175q0 26 5 55l17 96q20 113 86 166.5t181 53.5q211 0 211 -175q0 -26 -5 -55l-17 -96q-20 -113 -86 -166.5t-181 -53.5z
M253 108q48 0 74 26.5t36 82.5l16 91q4 23 4 38q0 36 -17 52t-55 16q-48 0 -74 -26.5t-36 -82.5l-16 -91q-4 -23 -4 -38q0 -36 17 -52t55 -16z" />
    <glyph glyph-name="Ohungarumlaut" unicode="&#x150;" horiz-adv-x="652" 
d="M225 742l113 140h155l-144 -140h-124zM432 742l113 140h155l-144 -140h-124zM286 -12q-241 0 -241 201q0 39 7 79l27 153q25 140 100.5 205.5t214.5 65.5q241 0 241 -200q0 -40 -7 -80l-27 -153q-25 -140 -100.5 -205.5t-214.5 -65.5zM299 117q68 0 103.5 35t49.5 115
l26 147q6 34 6 56q0 49 -24.5 71t-78.5 22q-68 0 -103.5 -35t-49.5 -115l-26 -147q-6 -35 -6 -56q0 -49 24.5 -71t78.5 -22z" />
    <glyph glyph-name="ohungarumlaut" unicode="&#x151;" horiz-adv-x="564" 
d="M154 590l113 140h155l-144 -140h-124zM361 590l113 140h155l-144 -140h-124zM243 -12q-211 0 -211 175q0 26 5 55l17 96q20 113 86 166.5t181 53.5q211 0 211 -175q0 -26 -5 -55l-17 -96q-20 -113 -86 -166.5t-181 -53.5zM253 108q48 0 74 26.5t36 82.5l16 91q4 23 4 38
q0 36 -17 52t-55 16q-48 0 -74 -26.5t-36 -82.5l-16 -91q-4 -23 -4 -38q0 -36 17 -52t55 -16z" />
    <glyph glyph-name="OE" unicode="&#x152;" horiz-adv-x="890" 
d="M272 0q-116 0 -172 47.5t-56 144.5q0 35 8 81l26 147q25 138 97 199t209 61h534l-23 -129h-291l-25 -141h241l-22 -128h-241l-27 -153h301l-23 -129h-536zM310 128h70l74 424h-68q-75 0 -110.5 -33t-49.5 -111l-24 -137q-6 -36 -6 -56q0 -46 26.5 -66.5t87.5 -20.5z" />
    <glyph glyph-name="oe" unicode="&#x153;" horiz-adv-x="879" 
d="M230 -12q-96 0 -147 44t-51 131q0 26 5 55l17 96q39 220 256 220q126 0 166 -75q59 75 180 75q95 0 144.5 -43.5t49.5 -125.5q0 -29 -6 -60l-16 -90h-317l-2 -12q-2 -12 -2 -26q0 -38 16 -55.5t57 -17.5q80 0 94 56h141q-39 -172 -233 -172q-128 0 -168 75
q-60 -75 -184 -75zM530 319h176q4 21 4 38q0 61 -72 61q-48 0 -73 -23t-35 -76zM253 108q48 0 74 26.5t36 82.5l16 91q4 23 4 38q0 36 -17 52t-55 16q-48 0 -74 -26.5t-36 -82.5l-16 -91q-4 -23 -4 -38q0 -36 17 -52t55 -16z" />
    <glyph glyph-name="Racute" unicode="&#x154;" horiz-adv-x="633" 
d="M290 742l138 140h167l-168 -140h-137zM29 0l120 680h274q112 0 158 -40t46 -135q0 -193 -163 -240l101 -265h-162l-91 251h-89l-44 -251h-150zM246 379h111q57 0 87.5 28t30.5 79q0 37 -18.5 51.5t-67.5 14.5h-113z" />
    <glyph glyph-name="racute" unicode="&#x155;" horiz-adv-x="377" 
d="M164 590l138 140h167l-168 -140h-137zM18 0l92 522h126l-11 -92q24 54 59 78t89 24h43l-24 -138h-28q-58 0 -92.5 -24t-54.5 -79l-51 -291h-148z" />
    <glyph glyph-name="Rcommaaccent" unicode="&#x156;" horiz-adv-x="633" 
d="M29 0l120 680h274q112 0 158 -40t46 -135q0 -193 -163 -240l101 -265h-162l-91 251h-89l-44 -251h-150zM246 379h111q57 0 87.5 28t30.5 79q0 37 -18.5 51.5t-67.5 14.5h-113zM167 -254l10 55q59 0 69 42h-59l17 98h143l-12 -68q-13 -76 -45.5 -101.5t-122.5 -25.5z" />
    <glyph glyph-name="rcommaaccent" unicode="&#x157;" horiz-adv-x="377" 
d="M18 0l92 522h126l-11 -92q24 54 59 78t89 24h43l-24 -138h-28q-58 0 -92.5 -24t-54.5 -79l-51 -291h-148zM-26 -254l10 55q58 0 69 42h-59l17 98h143l-12 -68q-13 -76 -45.5 -101.5t-122.5 -25.5z" />
    <glyph glyph-name="Rcaron" unicode="&#x158;" horiz-adv-x="633" 
d="M325 742l-97 140h123l49 -58l71 58h135l-147 -140h-134zM29 0l120 680h274q112 0 158 -40t46 -135q0 -193 -163 -240l101 -265h-162l-91 251h-89l-44 -251h-150zM246 379h111q57 0 87.5 28t30.5 79q0 37 -18.5 51.5t-67.5 14.5h-113z" />
    <glyph glyph-name="rcaron" unicode="&#x159;" horiz-adv-x="377" 
d="M199 590l-97 140h123l49 -58l71 58h135l-147 -140h-134zM18 0l92 522h126l-11 -92q24 54 59 78t89 24h43l-24 -138h-28q-58 0 -92.5 -24t-54.5 -79l-51 -291h-148z" />
    <glyph glyph-name="Sacute" unicode="&#x15a;" horiz-adv-x="563" 
d="M258 742l138 140h167l-168 -140h-137zM243 -12q-230 0 -230 164q0 21 5 53h146q-3 -15 -3 -28q0 -67 90 -67q58 0 89.5 24.5t31.5 71.5q0 28 -26.5 44.5t-89.5 29.5q-97 20 -139.5 58t-42.5 105q0 120 72.5 184.5t202.5 64.5q219 0 219 -162q0 -21 -5 -49h-146q2 9 2 25
q0 63 -79 63q-52 0 -82.5 -25t-30.5 -67q0 -26 26 -42.5t87 -27.5q98 -18 141.5 -57t43.5 -108q0 -127 -72.5 -190.5t-209.5 -63.5z" />
    <glyph glyph-name="sacute" unicode="&#x15b;" horiz-adv-x="504" 
d="M206 590l138 140h167l-168 -140h-137zM211 -12q-201 0 -201 137q0 17 3 35h141q-2 -12 -2 -18q0 -47 68 -47q86 0 86 58q0 22 -21.5 34t-72.5 19q-83 11 -119.5 42.5t-36.5 92.5q0 90 63.5 141.5t174.5 51.5q94 0 141.5 -36.5t47.5 -98.5q0 -15 -3 -31h-141q2 12 2 18
q0 41 -57 41q-37 0 -57.5 -15.5t-20.5 -42.5q0 -40 91 -51q83 -10 121 -42.5t38 -96.5q0 -94 -64 -142.5t-181 -48.5z" />
    <glyph glyph-name="Scircumflex" unicode="&#x15c;" horiz-adv-x="563" 
d="M169 742l147 140h134l97 -140h-123l-49 58l-71 -58h-135zM243 -12q-230 0 -230 164q0 21 5 53h146q-3 -15 -3 -28q0 -67 90 -67q58 0 89.5 24.5t31.5 71.5q0 28 -26.5 44.5t-89.5 29.5q-97 20 -139.5 58t-42.5 105q0 120 72.5 184.5t202.5 64.5q219 0 219 -162
q0 -21 -5 -49h-146q2 9 2 25q0 63 -79 63q-52 0 -82.5 -25t-30.5 -67q0 -26 26 -42.5t87 -27.5q98 -18 141.5 -57t43.5 -108q0 -127 -72.5 -190.5t-209.5 -63.5z" />
    <glyph glyph-name="scircumflex" unicode="&#x15d;" horiz-adv-x="504" 
d="M117 590l147 140h134l97 -140h-123l-49 58l-71 -58h-135zM211 -12q-201 0 -201 137q0 17 3 35h141q-2 -12 -2 -18q0 -47 68 -47q86 0 86 58q0 22 -21.5 34t-72.5 19q-83 11 -119.5 42.5t-36.5 92.5q0 90 63.5 141.5t174.5 51.5q94 0 141.5 -36.5t47.5 -98.5q0 -15 -3 -31
h-141q2 12 2 18q0 41 -57 41q-37 0 -57.5 -15.5t-20.5 -42.5q0 -40 91 -51q83 -10 121 -42.5t38 -96.5q0 -94 -64 -142.5t-181 -48.5z" />
    <glyph glyph-name="Scedilla" unicode="&#x15e;" horiz-adv-x="563" 
d="M563 481h-146q2 9 2 25q0 63 -79 63q-52 0 -82.5 -25t-30.5 -67q0 -26 26 -42.5t87 -27.5q98 -18 141.5 -57t43.5 -108q0 -121 -66 -184.5t-192 -68.5l-24 -43q94 -1 94 -70q0 -86 -142 -86q-70 0 -120 23l32 55q31 -15 62 -15q50 0 50 29q0 10 -11 14t-42 4h-18l51 90
q-186 14 -186 162q0 21 5 53h146q-3 -15 -3 -28q0 -67 90 -67q58 0 89.5 24.5t31.5 71.5q0 28 -26.5 44.5t-89.5 29.5q-97 20 -139.5 58t-42.5 105q0 120 72.5 184.5t202.5 64.5q219 0 219 -162q0 -21 -5 -49z" />
    <glyph glyph-name="scedilla" unicode="&#x15f;" horiz-adv-x="504" 
d="M480 368h-141q2 12 2 18q0 41 -57 41q-37 0 -57.5 -15.5t-20.5 -42.5q0 -40 91 -51q83 -10 121 -42.5t38 -96.5q0 -88 -57 -136.5t-162 -53.5l-24 -43q94 -1 94 -70q0 -86 -142 -86q-70 0 -120 23l32 55q31 -15 62 -15q50 0 50 29q0 10 -11 14t-42 4h-18l51 90
q-159 13 -159 135q0 17 3 35h141q-2 -12 -2 -18q0 -47 68 -47q86 0 86 58q0 22 -21.5 34t-72.5 19q-83 11 -119.5 42.5t-36.5 92.5q0 90 63.5 141.5t174.5 51.5q94 0 141.5 -36.5t47.5 -98.5q0 -15 -3 -31z" />
    <glyph glyph-name="Scaron" unicode="&#x160;" horiz-adv-x="563" 
d="M293 742l-97 140h123l49 -58l71 58h135l-147 -140h-134zM243 -12q-230 0 -230 164q0 21 5 53h146q-3 -15 -3 -28q0 -67 90 -67q58 0 89.5 24.5t31.5 71.5q0 28 -26.5 44.5t-89.5 29.5q-97 20 -139.5 58t-42.5 105q0 120 72.5 184.5t202.5 64.5q219 0 219 -162
q0 -21 -5 -49h-146q2 9 2 25q0 63 -79 63q-52 0 -82.5 -25t-30.5 -67q0 -26 26 -42.5t87 -27.5q98 -18 141.5 -57t43.5 -108q0 -127 -72.5 -190.5t-209.5 -63.5z" />
    <glyph glyph-name="scaron" unicode="&#x161;" horiz-adv-x="504" 
d="M241 590l-97 140h123l49 -58l71 58h135l-147 -140h-134zM211 -12q-201 0 -201 137q0 17 3 35h141q-2 -12 -2 -18q0 -47 68 -47q86 0 86 58q0 22 -21.5 34t-72.5 19q-83 11 -119.5 42.5t-36.5 92.5q0 90 63.5 141.5t174.5 51.5q94 0 141.5 -36.5t47.5 -98.5q0 -15 -3 -31
h-141q2 12 2 18q0 41 -57 41q-37 0 -57.5 -15.5t-20.5 -42.5q0 -40 91 -51q83 -10 121 -42.5t38 -96.5q0 -94 -64 -142.5t-181 -48.5z" />
    <glyph glyph-name="uni0162" unicode="&#x162;" horiz-adv-x="526" 
d="M80 680h514l-23 -131h-182l-97 -549h-38l-36 -54q90 -3 90 -70q0 -86 -142 -86q-70 0 -120 23l32 55q31 -15 62 -15q50 0 50 29q0 10 -11 14t-42 4h-18l67 100h-44l97 549h-182z" />
    <glyph glyph-name="uni0163" unicode="&#x163;" horiz-adv-x="361" 
d="M259 410l-41 -232q-3 -16 -3 -29q0 -19 10 -26t35 -7h59l-20 -116h-112l-31 -54q94 -1 94 -70q0 -86 -142 -86q-70 0 -120 23l32 55q31 -15 62 -15q50 0 50 29q0 10 -11 14t-42 4h-18l64 111q-61 25 -61 108q0 24 5 54l42 237h-77l20 112h80l30 130h137l-23 -130h108
l-20 -112h-107z" />
    <glyph glyph-name="Tcaron" unicode="&#x164;" horiz-adv-x="526" 
d="M282 742l-97 140h123l49 -58l71 58h135l-147 -140h-134zM142 0l97 549h-182l23 131h514l-23 -131h-182l-97 -549h-150z" />
    <glyph glyph-name="tcaron" unicode="&#x165;" horiz-adv-x="361" 
d="M310 559l77 222h141l-120 -222h-98zM194 0q-130 0 -130 119q0 24 5 54l42 237h-77l20 112h80l30 130h137l-23 -130h108l-20 -112h-107l-41 -232q-3 -16 -3 -29q0 -19 10 -26t35 -7h59l-20 -116h-105z" />
    <glyph glyph-name="Tbar" unicode="&#x166;" horiz-adv-x="526" 
d="M571 549h-182l-26 -149h121l-23 -128h-121l-48 -272h-150l48 272h-121l23 128h121l26 149h-182l23 131h514z" />
    <glyph glyph-name="tbar" unicode="&#x167;" horiz-adv-x="361" 
d="M366 410h-107l-13 -71h98l-18 -100h-97l-11 -61q-3 -16 -3 -29q0 -19 10 -26t35 -7h59l-20 -116h-105q-130 0 -130 119q0 24 5 54l12 66h-71l18 100h70l13 71h-77l20 112h80l30 130h137l-23 -130h108z" />
    <glyph glyph-name="Utilde" unicode="&#x168;" horiz-adv-x="631" 
d="M470 737q-38 0 -78 27q-23 16 -37 16q-28 0 -39 -39h-84q26 140 122 140q38 0 78 -27q23 -16 37 -16q28 0 39 39h84q-26 -140 -122 -140zM277 -12q-116 0 -172 42t-56 133q0 29 7 70l79 447h150l-79 -448q-4 -21 -4 -41q0 -40 20.5 -57t68.5 -17q59 0 88.5 27.5
t40.5 88.5l79 447h145l-81 -459q-21 -122 -87.5 -177.5t-198.5 -55.5z" />
    <glyph glyph-name="utilde" unicode="&#x169;" horiz-adv-x="574" 
d="M413 585q-38 0 -78 27q-23 16 -37 16q-28 0 -39 -39h-84q26 140 122 140q38 0 78 -27q23 -16 37 -16q28 0 39 39h84q-26 -140 -122 -140zM187 -12q-72 0 -109 35.5t-37 102.5q0 26 5 56l60 340h148l-59 -334q-3 -18 -3 -27q0 -45 49 -45q63 0 108 71l59 335h148l-92 -522
h-126l7 58q-66 -70 -158 -70z" />
    <glyph glyph-name="Umacron" unicode="&#x16a;" horiz-adv-x="631" 
d="M255 761l18 99h296l-18 -99h-296zM277 -12q-116 0 -172 42t-56 133q0 29 7 70l79 447h150l-79 -448q-4 -21 -4 -41q0 -40 20.5 -57t68.5 -17q59 0 88.5 27.5t40.5 88.5l79 447h145l-81 -459q-21 -122 -87.5 -177.5t-198.5 -55.5z" />
    <glyph glyph-name="umacron" unicode="&#x16b;" horiz-adv-x="574" 
d="M198 609l18 99h296l-18 -99h-296zM187 -12q-72 0 -109 35.5t-37 102.5q0 26 5 56l60 340h148l-59 -334q-3 -18 -3 -27q0 -45 49 -45q63 0 108 71l59 335h148l-92 -522h-126l7 58q-66 -70 -158 -70z" />
    <glyph glyph-name="Ubreve" unicode="&#x16c;" horiz-adv-x="631" 
d="M406 733q-68 0 -106.5 36.5t-38.5 93.5q0 10 1 16h97v-7q0 -47 54 -47q60 0 75 54h98q-13 -68 -61.5 -107t-118.5 -39zM277 -12q-116 0 -172 42t-56 133q0 29 7 70l79 447h150l-79 -448q-4 -21 -4 -41q0 -40 20.5 -57t68.5 -17q59 0 88.5 27.5t40.5 88.5l79 447h145
l-81 -459q-21 -122 -87.5 -177.5t-198.5 -55.5z" />
    <glyph glyph-name="ubreve" unicode="&#x16d;" horiz-adv-x="574" 
d="M349 581q-68 0 -106.5 36.5t-38.5 93.5q0 10 1 16h97v-7q0 -47 54 -47q60 0 75 54h98q-13 -68 -61.5 -107t-118.5 -39zM187 -12q-72 0 -109 35.5t-37 102.5q0 26 5 56l60 340h148l-59 -334q-3 -18 -3 -27q0 -45 49 -45q63 0 108 71l59 335h148l-92 -522h-126l7 58
q-66 -70 -158 -70z" />
    <glyph glyph-name="Uring" unicode="&#x16e;" horiz-adv-x="631" 
d="M403 723q-51 0 -83 30.5t-32 77.5q0 53 37.5 89t93.5 36q51 0 83 -30.5t32 -77.5q0 -53 -37.5 -89t-93.5 -36zM406 798q19 0 31 14t12 35q0 34 -33 34q-19 0 -31 -14t-12 -35q0 -34 33 -34zM277 -12q-116 0 -172 42t-56 133q0 29 7 70l79 447h150l-79 -448q-4 -21 -4 -41
q0 -40 20.5 -57t68.5 -17q59 0 88.5 27.5t40.5 88.5l79 447h145l-81 -459q-21 -122 -87.5 -177.5t-198.5 -55.5z" />
    <glyph glyph-name="uring" unicode="&#x16f;" horiz-adv-x="574" 
d="M346 571q-51 0 -83 30.5t-32 77.5q0 53 37.5 89t93.5 36q51 0 83 -30.5t32 -77.5q0 -53 -37.5 -89t-93.5 -36zM349 646q19 0 31 14t12 35q0 34 -33 34q-19 0 -31 -14t-12 -35q0 -34 33 -34zM187 -12q-72 0 -109 35.5t-37 102.5q0 26 5 56l60 340h148l-59 -334
q-3 -18 -3 -27q0 -45 49 -45q63 0 108 71l59 335h148l-92 -522h-126l7 58q-66 -70 -158 -70z" />
    <glyph glyph-name="Uhungarumlaut" unicode="&#x170;" horiz-adv-x="631" 
d="M214 742l113 140h155l-144 -140h-124zM421 742l113 140h155l-144 -140h-124zM277 -12q-116 0 -172 42t-56 133q0 29 7 70l79 447h150l-79 -448q-4 -21 -4 -41q0 -40 20.5 -57t68.5 -17q59 0 88.5 27.5t40.5 88.5l79 447h145l-81 -459q-21 -122 -87.5 -177.5t-198.5 -55.5
z" />
    <glyph glyph-name="uhungarumlaut" unicode="&#x171;" horiz-adv-x="574" 
d="M157 590l113 140h155l-144 -140h-124zM364 590l113 140h155l-144 -140h-124zM187 -12q-72 0 -109 35.5t-37 102.5q0 26 5 56l60 340h148l-59 -334q-3 -18 -3 -27q0 -45 49 -45q63 0 108 71l59 335h148l-92 -522h-126l7 58q-66 -70 -158 -70z" />
    <glyph glyph-name="Uogonek" unicode="&#x172;" horiz-adv-x="631" 
d="M499 680h145l-81 -459q-17 -94 -59 -148t-119 -73q-96 -33 -96 -88q0 -28 37 -28q22 0 54 12l-16 -89q-27 -13 -73 -13q-56 0 -87 22t-31 62q0 62 69 111q-98 6 -145.5 48t-47.5 126q0 29 7 70l79 447h150l-79 -448q-4 -21 -4 -41q0 -40 20.5 -57t68.5 -17
q59 0 88.5 27.5t40.5 88.5z" />
    <glyph glyph-name="uogonek" unicode="&#x173;" horiz-adv-x="574" 
d="M436 0q-80 -41 -80 -88q0 -28 38 -28q24 0 53 12l-16 -89q-31 -13 -72 -13q-58 0 -88.5 21.5t-30.5 62.5q0 71 99 131l6 49q-66 -70 -158 -70q-72 0 -109 35.5t-37 102.5q0 26 5 56l60 340h148l-59 -334q-3 -18 -3 -27q0 -45 49 -45q63 0 108 71l59 335h148l-92 -522h-28
z" />
    <glyph glyph-name="Wcircumflex" unicode="&#x174;" horiz-adv-x="878" 
d="M334 742l147 140h134l97 -140h-123l-49 58l-71 -58h-135zM126 0l-48 680h152l20 -461l197 461h133l35 -461l182 461h151l-288 -680h-155l-33 439l-188 -439h-158z" />
    <glyph glyph-name="wcircumflex" unicode="&#x175;" horiz-adv-x="800" 
d="M268 590l147 140h134l97 -140h-123l-49 58l-71 -58h-135zM110 0l-58 522h151l21 -340l156 340h130l36 -340l141 340h153l-242 -522h-150l-36 326l-150 -326h-152z" />
    <glyph glyph-name="Ycircumflex" unicode="&#x176;" horiz-adv-x="541" 
d="M165 742l147 140h134l97 -140h-123l-49 58l-71 -58h-135zM149 0l50 286l-151 394h163l89 -246l175 246h166l-292 -398l-50 -282h-150z" />
    <glyph glyph-name="ycircumflex" unicode="&#x177;" horiz-adv-x="499" 
d="M117 590l147 140h134l97 -140h-123l-49 58l-71 -58h-135zM-17 -182l20 116h56q24 0 35.5 9t22.5 31l20 39l-88 509h153l40 -326l147 326h153l-286 -572q-40 -81 -78 -106.5t-116 -25.5h-79z" />
    <glyph glyph-name="Ydieresis" unicode="&#x178;" horiz-adv-x="541" 
d="M185 748l22 126h136l-22 -126h-136zM391 748l22 126h136l-22 -126h-136zM149 0l50 286l-151 394h163l89 -246l175 246h166l-292 -398l-50 -282h-150z" />
    <glyph glyph-name="Zacute" unicode="&#x179;" horiz-adv-x="559" 
d="M268 742l138 140h167l-168 -140h-137zM598 680l-20 -116l-378 -435h309l-23 -129h-505l21 117l377 434h-283l23 129h479z" />
    <glyph glyph-name="zacute" unicode="&#x17a;" horiz-adv-x="477" 
d="M199 590l138 140h167l-168 -140h-137zM-22 0l17 102l282 305h-206l20 115h403l-17 -102l-282 -305h232l-20 -115h-429z" />
    <glyph glyph-name="Zdotaccent" unicode="&#x17b;" horiz-adv-x="559" 
d="M298 748l22 126h144l-22 -126h-144zM598 680l-20 -116l-378 -435h309l-23 -129h-505l21 117l377 434h-283l23 129h479z" />
    <glyph glyph-name="zdotaccent" unicode="&#x17c;" horiz-adv-x="477" 
d="M229 596l22 126h144l-22 -126h-144zM-22 0l17 102l282 305h-206l20 115h403l-17 -102l-282 -305h232l-20 -115h-429z" />
    <glyph glyph-name="Zcaron" unicode="&#x17d;" horiz-adv-x="559" 
d="M303 742l-97 140h123l49 -58l71 58h135l-147 -140h-134zM598 680l-20 -116l-378 -435h309l-23 -129h-505l21 117l377 434h-283l23 129h479z" />
    <glyph glyph-name="zcaron" unicode="&#x17e;" horiz-adv-x="477" 
d="M234 590l-97 140h123l49 -58l71 58h135l-147 -140h-134zM-22 0l17 102l282 305h-206l20 115h403l-17 -102l-282 -305h232l-20 -115h-429z" />
    <glyph glyph-name="florin" unicode="&#x192;" horiz-adv-x="596" 
d="M-8 -60l34 112h52q34 0 54 17t32 58l68 227h-111l20 113h124l20 66q28 94 72 130.5t129 36.5h123l-32 -112h-64q-34 0 -53.5 -17.5t-31.5 -57.5l-14 -46h124l-20 -113h-137l-74 -247q-28 -93 -73 -130t-129 -37h-113z" />
    <glyph glyph-name="Aringacute" unicode="&#x1fa;" horiz-adv-x="615" 
d="M333 974l138 140h167l-168 -140h-137zM401 715q-51 0 -83 30.5t-32 77.5q0 53 37.5 89t93.5 36q51 0 83 -30.5t32 -77.5q0 -53 -37.5 -89t-93.5 -36zM404 790q19 0 31 14t12 35q0 34 -33 34q-19 0 -31 -14t-12 -35q0 -34 33 -34zM-44 0l348 680h155l108 -680h-156
l-18 137h-213l-69 -137h-155zM238 262h140l-27 248z" />
    <glyph glyph-name="aringacute" unicode="&#x1fb;" horiz-adv-x="541" 
d="M263 822l138 140h167l-168 -140h-137zM331 563q-51 0 -83 30.5t-32 77.5q0 53 37.5 89t93.5 36q51 0 83 -30.5t32 -77.5q0 -53 -37.5 -89t-93.5 -36zM334 638q19 0 31 14t12 35q0 34 -33 34q-19 0 -31 -14t-12 -35q0 -34 33 -34zM159 -12q-148 0 -148 141
q0 91 62.5 141.5t172.5 50.5h102l3 19q2 12 2 24q0 25 -12 39.5t-49 14.5q-70 0 -85 -59h-143q22 91 80 133t163 42q100 0 147.5 -37t47.5 -115q0 -25 -4 -48l-59 -334h-126l6 57q-63 -69 -160 -69zM212 104q63 0 108 62l10 57h-70q-99 0 -99 -72q0 -47 51 -47z" />
    <glyph glyph-name="AEacute" unicode="&#x1fc;" horiz-adv-x="902" 
d="M444 742l138 140h167l-168 -140h-137zM-72 0l499 680h503l-23 -129h-290l-25 -143h240l-23 -128h-240l-26 -151h300l-23 -129h-450l24 137h-200l-101 -137h-165zM281 262h135l48 269z" />
    <glyph glyph-name="aeacute" unicode="&#x1fd;" horiz-adv-x="845" 
d="M374 590l138 140h167l-168 -140h-137zM170 -12q-159 0 -159 140q0 91 63 142t172 51h102l3 19q2 12 2 20q0 29 -12 43.5t-48 14.5q-71 0 -86 -59h-143q42 175 229 175q121 0 158 -69q56 69 171 69q95 0 144.5 -43.5t49.5 -125.5q0 -29 -6 -60l-16 -90h-317l-2 -12
q-2 -12 -2 -26q0 -37 16 -55t57 -18q80 0 94 56h141q-39 -172 -244 -172q-141 0 -189 76q-70 -76 -178 -76zM496 319h176q4 21 4 38q0 61 -72 61q-48 0 -73 -23t-35 -76zM213 104q67 0 111 67q0 18 5 46l1 6h-70q-99 0 -99 -72q0 -47 52 -47z" />
    <glyph glyph-name="Oslashacute" unicode="&#x1fe;" horiz-adv-x="652" 
d="M615 882l-168 -140h-137l138 140h167zM664 620l-42 -46q13 -35 13 -82q0 -40 -7 -80l-27 -153q-25 -140 -100.5 -205.5t-214.5 -65.5q-103 0 -160 35l-31 -35l-79 72l42 46q-13 35 -13 83q0 39 7 79l27 153q25 140 100.5 205.5t214.5 65.5q103 0 160 -35l31 35zM228 413
l-26 -146l251 279q-23 17 -72 17q-68 0 -103.5 -35t-49.5 -115zM452 267l26 146l-251 -279q23 -17 72 -17q68 0 103.5 35t49.5 115z" />
    <glyph glyph-name="oslashacute" unicode="&#x1ff;" horiz-adv-x="564" 
d="M544 730l-168 -140h-137l138 140h167zM555 466l-35 -35q12 -30 12 -72q0 -26 -5 -55l-17 -96q-20 -113 -86 -166.5t-181 -53.5q-85 0 -137 29l-30 -29l-67 68l35 35q-12 30 -12 72q0 26 5 55l17 96q20 113 86 166.5t181 53.5q85 0 137 -29l30 29zM201 305l-12 -70
l169 169q-17 10 -47 10q-48 0 -74 -26.5t-36 -82.5zM363 217l12 70l-169 -169q17 -10 47 -10q48 0 74 26.5t36 82.5z" />
    <glyph glyph-name="Scommaaccent" unicode="&#x218;" horiz-adv-x="563" 
d="M243 -12q-230 0 -230 164q0 21 5 53h146q-3 -15 -3 -28q0 -67 90 -67q58 0 89.5 24.5t31.5 71.5q0 28 -26.5 44.5t-89.5 29.5q-97 20 -139.5 58t-42.5 105q0 120 72.5 184.5t202.5 64.5q219 0 219 -162q0 -21 -5 -49h-146q2 9 2 25q0 63 -79 63q-52 0 -82.5 -25
t-30.5 -67q0 -26 26 -42.5t87 -27.5q98 -18 141.5 -57t43.5 -108q0 -127 -72.5 -190.5t-209.5 -63.5zM128 -254l10 55q58 0 69 42h-59l17 98h143l-12 -68q-13 -76 -45.5 -101.5t-122.5 -25.5z" />
    <glyph glyph-name="scommaaccent" unicode="&#x219;" horiz-adv-x="504" 
d="M211 -12q-201 0 -201 137q0 17 3 35h141q-2 -12 -2 -18q0 -47 68 -47q86 0 86 58q0 22 -21.5 34t-72.5 19q-83 11 -119.5 42.5t-36.5 92.5q0 90 63.5 141.5t174.5 51.5q94 0 141.5 -36.5t47.5 -98.5q0 -15 -3 -31h-141q2 12 2 18q0 41 -57 41q-37 0 -57.5 -15.5
t-20.5 -42.5q0 -40 91 -51q83 -10 121 -42.5t38 -96.5q0 -94 -64 -142.5t-181 -48.5zM98 -254l10 55q58 0 69 42h-59l17 98h143l-12 -68q-13 -76 -45.5 -101.5t-122.5 -25.5z" />
    <glyph glyph-name="uni021A" unicode="&#x21a;" horiz-adv-x="526" 
d="M142 0l97 549h-182l23 131h514l-23 -131h-182l-97 -549h-150zM99 -254l10 55q59 0 69 42h-59l17 98h143l-12 -68q-13 -76 -45.5 -101.5t-122.5 -25.5z" />
    <glyph glyph-name="uni021B" unicode="&#x21b;" horiz-adv-x="361" 
d="M194 0q-130 0 -130 119q0 24 5 54l42 237h-77l20 112h80l30 130h137l-23 -130h108l-20 -112h-107l-41 -232q-3 -16 -3 -29q0 -19 10 -26t35 -7h59l-20 -116h-105zM41 -254l10 55q59 0 69 42h-59l17 98h143l-12 -68q-13 -76 -45.5 -101.5t-122.5 -25.5z" />
    <glyph glyph-name="uni0237" unicode="&#x237;" horiz-adv-x="276" 
d="M-81 -182l20 116h29q38 0 46 44l96 544h148l-97 -551q-15 -82 -51.5 -117.5t-110.5 -35.5h-80z" />
    <glyph glyph-name="uni02BC" unicode="&#x2bc;" horiz-adv-x="185" 
d="M61 494l12 66q59 0 68 50h-57l21 120h142l-18 -103q-12 -72 -48 -102.5t-120 -30.5z" />
    <glyph glyph-name="circumflex" unicode="&#x2c6;" horiz-adv-x="500" 
d="M118 590l147 140h134l97 -140h-123l-49 58l-71 -58h-135z" />
    <glyph glyph-name="caron" unicode="&#x2c7;" horiz-adv-x="500" 
d="M242 590l-97 140h123l49 -58l71 58h135l-147 -140h-134z" />
    <glyph glyph-name="uni02C9" unicode="&#x2c9;" horiz-adv-x="500" 
d="M163 609l18 99h296l-18 -99h-296z" />
    <glyph glyph-name="breve" unicode="&#x2d8;" horiz-adv-x="500" 
d="M314 581q-68 0 -106.5 36.5t-38.5 93.5q0 10 1 16h97v-7q0 -47 54 -47q60 0 75 54h98q-13 -68 -61.5 -107t-118.5 -39z" />
    <glyph glyph-name="dotaccent" unicode="&#x2d9;" horiz-adv-x="500" 
d="M237 596l22 126h144l-22 -126h-144z" />
    <glyph glyph-name="ring" unicode="&#x2da;" horiz-adv-x="500" 
d="M317 571q-51 0 -83 30.5t-32 77.5q0 53 37.5 89t93.5 36q51 0 83 -30.5t32 -77.5q0 -53 -37.5 -89t-93.5 -36zM320 646q19 0 31 14t12 35q0 34 -33 34q-19 0 -31 -14t-12 -35q0 -34 33 -34z" />
    <glyph glyph-name="ogonek" unicode="&#x2db;" horiz-adv-x="500" 
d="M201 -206q-58 0 -88.5 21.5t-30.5 62.5q0 97 181 171l36 -39q-101 -45 -101 -98q0 -28 38 -28q24 0 53 12l-16 -89q-31 -13 -72 -13z" />
    <glyph glyph-name="tilde" unicode="&#x2dc;" horiz-adv-x="500" 
d="M378 585q-38 0 -78 27q-23 16 -37 16q-28 0 -39 -39h-84q26 140 122 140q38 0 78 -27q23 -16 37 -16q28 0 39 39h84q-26 -140 -122 -140z" />
    <glyph glyph-name="hungarumlaut" unicode="&#x2dd;" horiz-adv-x="500" 
d="M122 590l113 140h155l-144 -140h-124zM329 590l113 140h155l-144 -140h-124z" />
    <glyph glyph-name="gravecomb" unicode="&#x300;" horiz-adv-x="0" 
d="M28 590l-118 140h153l88 -140h-123z" />
    <glyph glyph-name="acutecomb" unicode="&#x301;" horiz-adv-x="0" 
d="M-43 590l138 140h167l-168 -140h-137z" />
    <glyph glyph-name="uni0302" unicode="&#x302;" horiz-adv-x="0" 
d="M-132 590l147 140h134l97 -140h-123l-49 58l-71 -58h-135z" />
    <glyph glyph-name="tildecomb" unicode="&#x303;" horiz-adv-x="0" 
d="M128 585q-38 0 -78 27q-23 16 -37 16q-28 0 -39 -39h-84q26 140 122 140q38 0 78 -27q23 -16 37 -16q28 0 39 39h84q-26 -140 -122 -140z" />
    <glyph glyph-name="uni0304" unicode="&#x304;" horiz-adv-x="0" 
d="M-87 609l18 99h296l-18 -99h-296z" />
    <glyph glyph-name="uni0306" unicode="&#x306;" horiz-adv-x="0" 
d="M64 581q-68 0 -106.5 36.5t-38.5 93.5q0 10 1 16h97v-7q0 -47 54 -47q60 0 75 54h98q-13 -68 -61.5 -107t-118.5 -39z" />
    <glyph glyph-name="uni0307" unicode="&#x307;" horiz-adv-x="0" 
d="M-13 596l22 126h144l-22 -126h-144z" />
    <glyph glyph-name="uni0308" unicode="&#x308;" horiz-adv-x="0" 
d="M-112 596l22 126h136l-22 -126h-136zM94 596l22 126h136l-22 -126h-136z" />
    <glyph glyph-name="uni030A" unicode="&#x30a;" horiz-adv-x="0" 
d="M67 571q-51 0 -83 30.5t-32 77.5q0 53 37.5 89t93.5 36q51 0 83 -30.5t32 -77.5q0 -53 -37.5 -89t-93.5 -36zM70 646q19 0 31 14t12 35q0 34 -33 34q-19 0 -31 -14t-12 -35q0 -34 33 -34z" />
    <glyph glyph-name="uni030B" unicode="&#x30b;" horiz-adv-x="0" 
d="M-128 590l113 140h155l-144 -140h-124zM79 590l113 140h155l-144 -140h-124z" />
    <glyph glyph-name="uni030C" unicode="&#x30c;" horiz-adv-x="0" 
d="M-8 590l-97 140h123l49 -58l71 58h135l-147 -140h-134z" />
    <glyph glyph-name="uni0312" unicode="&#x312;" horiz-adv-x="0" 
d="M-14 581l12 68q13 76 45.5 101.5t122.5 25.5l-10 -55q-58 0 -69 -42h59l-17 -98h-143z" />
    <glyph glyph-name="uni0326" unicode="&#x326;" horiz-adv-x="0" 
d="M-164 -254l10 55q58 0 69 42h-59l17 98h143l-12 -68q-13 -76 -45.5 -101.5t-122.5 -25.5z" />
    <glyph glyph-name="uni0327" unicode="&#x327;" horiz-adv-x="0" 
d="M-97 -210q-70 0 -120 23l32 55q31 -15 62 -15q50 0 50 29q0 10 -11 14t-42 4h-18l66 115h68l-39 -69q94 -1 94 -70q0 -86 -142 -86z" />
    <glyph glyph-name="uni0328" unicode="&#x328;" horiz-adv-x="0" 
d="M-49 -206q-58 0 -88.5 21.5t-30.5 62.5q0 97 181 171l36 -39q-101 -45 -101 -98q0 -28 38 -28q24 0 53 12l-16 -89q-31 -13 -72 -13z" />
    <glyph glyph-name="uni0394" unicode="&#x394;" horiz-adv-x="605" 
d="M-44 0l341 680h159l101 -680h-601zM171 125h216l-43 366z" />
    <glyph glyph-name="uni03A9" unicode="&#x3a9;" horiz-adv-x="652" 
d="M10 0l22 124h79q-55 46 -55 137q0 27 6 62l17 97q25 141 100 206.5t214 65.5q242 0 242 -200q0 -37 -8 -82l-17 -97q-24 -133 -108 -189h71l-22 -124h-232l20 114q92 32 114 158l25 142q5 27 5 52q0 51 -25.5 74t-77.5 23q-65 0 -101.5 -36t-50.5 -115l-25 -142
q-5 -28 -5 -53q0 -79 64 -103l-20 -114h-232z" />
    <glyph glyph-name="uni03BC" unicode="&#x3bc;" horiz-adv-x="578" 
d="M-14 -182l124 704h148l-58 -332q-3 -16 -3 -28q0 -46 47 -46q63 0 109 71l59 335h148l-92 -522h-126l7 57q-65 -69 -150 -69q-19 0 -35 3l-30 -173h-148z" />
    <glyph glyph-name="pi" unicode="&#x3c0;" horiz-adv-x="604" 
d="M42 0l72 406h-80l20 116h579l-20 -116h-80l-42 -241q-2 -10 -2 -21q0 -16 8.5 -22t29.5 -6h35l-20 -116h-89q-60 0 -88 26t-28 80q0 25 5 55l43 245h-123l-72 -406h-148z" />
    <glyph glyph-name="Wgrave" unicode="&#x1e80;" horiz-adv-x="878" 
d="M494 742l-118 140h153l88 -140h-123zM126 0l-48 680h152l20 -461l197 461h133l35 -461l182 461h151l-288 -680h-155l-33 439l-188 -439h-158z" />
    <glyph glyph-name="wgrave" unicode="&#x1e81;" horiz-adv-x="800" 
d="M428 590l-118 140h153l88 -140h-123zM110 0l-58 522h151l21 -340l156 340h130l36 -340l141 340h153l-242 -522h-150l-36 326l-150 -326h-152z" />
    <glyph glyph-name="Wacute" unicode="&#x1e82;" horiz-adv-x="878" 
d="M423 742l138 140h167l-168 -140h-137zM126 0l-48 680h152l20 -461l197 461h133l35 -461l182 461h151l-288 -680h-155l-33 439l-188 -439h-158z" />
    <glyph glyph-name="wacute" unicode="&#x1e83;" horiz-adv-x="800" 
d="M357 590l138 140h167l-168 -140h-137zM110 0l-58 522h151l21 -340l156 340h130l36 -340l141 340h153l-242 -522h-150l-36 326l-150 -326h-152z" />
    <glyph glyph-name="Wdieresis" unicode="&#x1e84;" horiz-adv-x="878" 
d="M354 748l22 126h136l-22 -126h-136zM560 748l22 126h136l-22 -126h-136zM126 0l-48 680h152l20 -461l197 461h133l35 -461l182 461h151l-288 -680h-155l-33 439l-188 -439h-158z" />
    <glyph glyph-name="wdieresis" unicode="&#x1e85;" horiz-adv-x="800" 
d="M288 596l22 126h136l-22 -126h-136zM494 596l22 126h136l-22 -126h-136zM110 0l-58 522h151l21 -340l156 340h130l36 -340l141 340h153l-242 -522h-150l-36 326l-150 -326h-152z" />
    <glyph glyph-name="uni1E9E" unicode="&#x1e9e;" horiz-adv-x="643" 
d="M17 0l82 464q20 114 85 165t189 51h270l-20 -114l-152 -173q74 -12 106.5 -51.5t32.5 -115.5q0 -226 -281 -226h-106l22 127h89q65 0 94.5 21.5t29.5 69.5q0 35 -20.5 47t-79.5 12h-73l19 108l142 168h-77q-105 0 -121 -95l-81 -458h-150z" />
    <glyph glyph-name="Ygrave" unicode="&#x1ef2;" horiz-adv-x="541" 
d="M325 742l-118 140h153l88 -140h-123zM149 0l50 286l-151 394h163l89 -246l175 246h166l-292 -398l-50 -282h-150z" />
    <glyph glyph-name="ygrave" unicode="&#x1ef3;" horiz-adv-x="499" 
d="M277 590l-118 140h153l88 -140h-123zM-17 -182l20 116h56q24 0 35.5 9t22.5 31l20 39l-88 509h153l40 -326l147 326h153l-286 -572q-40 -81 -78 -106.5t-116 -25.5h-79z" />
    <glyph glyph-name="uni2002" unicode="&#x2002;" horiz-adv-x="500" 
 />
    <glyph glyph-name="uni2003" unicode="&#x2003;" horiz-adv-x="900" 
 />
    <glyph glyph-name="uni2007" unicode="&#x2007;" horiz-adv-x="596" 
 />
    <glyph glyph-name="uni2008" unicode="&#x2008;" horiz-adv-x="293" 
 />
    <glyph glyph-name="uni200B" unicode="&#x200b;" horiz-adv-x="0" 
 />
    <glyph glyph-name="figuredash" unicode="&#x2012;" horiz-adv-x="596" 
d="M26 240l20 114h536l-20 -114h-536z" />
    <glyph glyph-name="endash" unicode="&#x2013;" horiz-adv-x="500" 
d="M26 240l20 114h440l-20 -114h-440z" />
    <glyph glyph-name="emdash" unicode="&#x2014;" horiz-adv-x="900" 
d="M26 240l20 114h840l-20 -114h-840z" />
    <glyph glyph-name="quoteleft" unicode="&#x2018;" horiz-adv-x="271" 
d="M76 367l28 155q16 91 56.5 130t128.5 40l-15 -78q-59 -2 -71 -69l-5 -27h56l-27 -151h-151z" />
    <glyph glyph-name="quoteright" unicode="&#x2019;" horiz-adv-x="271" 
d="M74 355l15 78q59 2 71 69l5 27h-56l27 151h151l-28 -155q-16 -91 -56.5 -130t-128.5 -40z" />
    <glyph glyph-name="quotesinglbase" unicode="&#x201a;" horiz-adv-x="271" 
d="M-19 -174l15 78q59 2 71 69l5 27h-56l27 151h151l-28 -155q-16 -91 -56.5 -130t-128.5 -40z" />
    <glyph glyph-name="quotedblleft" unicode="&#x201c;" horiz-adv-x="502" 
d="M76 367l28 155q16 91 56.5 130t128.5 40l-15 -78q-59 -2 -71 -69l-5 -27h56l-27 -151h-151zM307 367l28 155q16 91 56.5 130t128.5 40l-15 -78q-59 -2 -71 -69l-5 -27h56l-27 -151h-151z" />
    <glyph glyph-name="quotedblright" unicode="&#x201d;" horiz-adv-x="501" 
d="M74 355l15 78q59 2 71 69l5 27h-56l27 151h151l-28 -155q-16 -91 -56.5 -130t-128.5 -40zM304 355l15 78q59 2 71 69l5 27h-56l27 151h151l-28 -155q-16 -91 -56.5 -130t-128.5 -40z" />
    <glyph glyph-name="quotedblbase" unicode="&#x201e;" horiz-adv-x="501" 
d="M-19 -174l15 78q59 2 71 69l5 27h-56l27 151h151l-28 -155q-16 -91 -56.5 -130t-128.5 -40zM211 -174l15 78q59 2 71 69l5 27h-56l27 151h151l-28 -155q-16 -91 -56.5 -130t-128.5 -40z" />
    <glyph glyph-name="dagger" unicode="&#x2020;" horiz-adv-x="610" 
d="M154 -182l91 517l-196 -10l24 137l193 -9l40 227h146l-40 -227l195 9l-24 -137l-192 10l-91 -517h-146z" />
    <glyph glyph-name="daggerdbl" unicode="&#x2021;" horiz-adv-x="610" 
d="M154 -182l37 207l-196 -9l24 137l192 -10l38 212l-196 -10l24 137l192 -9l37 207h146l-37 -207l196 9l-24 -137l-192 10l-38 -212l196 10l-24 -137l-192 9l-37 -207h-146z" />
    <glyph glyph-name="bullet" unicode="&#x2022;" horiz-adv-x="500" 
d="M105 168l45 258h258l-45 -258h-258z" />
    <glyph glyph-name="ellipsis" unicode="&#x2026;" horiz-adv-x="900" 
d="M27 0l27 155h155l-27 -155h-155zM327 0l27 155h155l-27 -155h-155zM627 0l27 155h155l-27 -155h-155z" />
    <glyph glyph-name="perthousand" unicode="&#x2030;" horiz-adv-x="1136" 
d="M201 310q-69 0 -104.5 28t-35.5 80q0 14 3 31l20 113q23 130 165 130q69 0 104.5 -28t35.5 -80q0 -14 -3 -31l-20 -114q-23 -129 -165 -129zM87 -12l531 704h108l-531 -704h-108zM205 398q47 0 56 48l19 108q2 12 2 19q0 31 -37 31q-47 0 -56 -48l-19 -108q-2 -12 -2 -19
q0 -31 37 -31zM563 -12q-69 0 -104.5 28t-35.5 80q0 14 3 31l20 113q23 130 165 130q69 0 104.5 -28t35.5 -80q0 -14 -3 -31l-20 -114q-23 -129 -165 -129zM914 -12q-69 0 -104.5 28t-35.5 80q0 14 3 31l20 113q23 130 165 130q69 0 104.5 -28t35.5 -80q0 -14 -3 -31
l-20 -114q-23 -129 -165 -129zM567 76q47 0 56 48l19 108q2 12 2 19q0 31 -37 31q-47 0 -56 -48l-19 -108q-2 -12 -2 -19q0 -31 37 -31zM918 76q47 0 56 48l19 108q2 12 2 19q0 31 -37 31q-47 0 -56 -48l-19 -108q-2 -12 -2 -19q0 -31 37 -31z" />
    <glyph glyph-name="guilsinglleft" unicode="&#x2039;" horiz-adv-x="311" 
d="M121 82l-104 184l160 176h160l-174 -191l96 -169h-138z" />
    <glyph glyph-name="guilsinglright" unicode="&#x203a;" horiz-adv-x="311" 
d="M-26 80l174 191l-96 169h138l104 -184l-160 -176h-160z" />
    <glyph glyph-name="fraction" unicode="&#x2044;" horiz-adv-x="114" 
d="M-227 -12l491 704h105l-491 -704h-105z" />
    <glyph glyph-name="uni2070" unicode="&#x2070;" 
d="M216 404q-68 0 -103.5 28t-35.5 81q0 13 3 30l27 153q22 126 166 126q68 0 103.5 -28t35.5 -81q0 -13 -3 -30l-27 -153q-22 -126 -166 -126zM221 492q48 0 57 51l25 141q2 12 2 17q0 33 -37 33q-48 0 -57 -51l-25 -141q-2 -12 -2 -17q0 -33 37 -33z" />
    <glyph glyph-name="uni2074" unicode="&#x2074;" 
d="M231 416l14 80h-180l16 89l213 225h112l-41 -232h41l-15 -82h-40l-14 -80h-106zM176 578h84l20 114z" />
    <glyph glyph-name="uni2075" unicode="&#x2075;" 
d="M215 404q-67 0 -102 27t-35 72q0 7 2 23h101v-2q0 -32 40 -32q29 0 45 17t16 44q0 38 -38 38q-33 0 -53 -20h-91l56 239h258l-15 -89h-175l-15 -65q29 16 71 16q109 0 109 -110q0 -73 -45 -115.5t-129 -42.5z" />
    <glyph glyph-name="uni2076" unicode="&#x2076;" 
d="M219 404q-68 0 -103.5 29t-35.5 80q0 13 3 30l26 147q23 132 168 132q68 0 103 -27.5t35 -69.5q0 -7 -2 -21h-101v2q0 28 -38 28q-51 0 -61 -56l-5 -28q32 21 76 21q105 0 105 -109q0 -73 -44 -115.5t-126 -42.5zM225 492q30 0 44 19.5t14 48.5q0 16 -6.5 23.5t-24.5 7.5
q-38 0 -60 -34l-3 -15q-2 -12 -2 -17q0 -33 38 -33z" />
    <glyph glyph-name="uni2077" unicode="&#x2077;" 
d="M105 416q43 195 197 303h-193l16 91h308l-16 -95q-85 -67 -131.5 -136.5t-67.5 -162.5h-113z" />
    <glyph glyph-name="uni2078" unicode="&#x2078;" 
d="M214 404q-146 0 -146 107q0 83 83 111v2q-40 21 -40 74q0 59 44.5 91.5t120.5 32.5q136 0 136 -104q0 -74 -70 -99v-2q47 -23 47 -85q0 -63 -46.5 -95.5t-128.5 -32.5zM250 656q28 0 42.5 14t14.5 36q0 29 -38 29q-56 0 -56 -47q0 -32 37 -32zM220 491q64 0 64 49
q0 33 -43 33q-65 0 -65 -51q0 -31 44 -31z" />
    <glyph glyph-name="uni2079" unicode="&#x2079;" 
d="M212 404q-68 0 -103 27.5t-35 69.5q0 7 2 21h101v-2q0 -28 38 -28q51 0 61 56l5 28q-32 -21 -76 -21q-105 0 -105 109q0 73 44 115.5t126 42.5q68 0 103.5 -29t35.5 -80q0 -13 -3 -30l-26 -147q-23 -132 -168 -132zM237 635q38 0 60 34l3 15q2 12 2 17q0 33 -38 33
q-30 0 -44 -19.5t-14 -48.5q0 -16 6.5 -23.5t24.5 -7.5z" />
    <glyph glyph-name="uni2080" unicode="&#x2080;" 
d="M122 -132q-68 0 -103.5 28t-35.5 81q0 13 3 30l27 153q22 126 166 126q68 0 103.5 -28t35.5 -81q0 -13 -3 -30l-27 -153q-22 -126 -166 -126zM127 -44q48 0 57 51l25 141q2 12 2 17q0 33 -37 33q-48 0 -57 -51l-25 -141q-2 -12 -2 -17q0 -33 37 -33z" />
    <glyph glyph-name="uni2081" unicode="&#x2081;" 
d="M-6 -120l15 87h91l33 184q-35 -6 -105 -6l14 78q82 1 120 51h99l-55 -307h91l-15 -87h-288z" />
    <glyph glyph-name="uni2082" unicode="&#x2082;" 
d="M-37 -120l9 52q10 58 46 97t107 68q84 34 84 74q0 27 -35 27q-50 0 -58 -51l-1 -6h-99l4 23q21 122 162 122q133 0 133 -109q0 -55 -37 -94.5t-118 -71.5q-62 -26 -73 -42h193l-16 -89h-301z" />
    <glyph glyph-name="uni2083" unicode="&#x2083;" 
d="M121 -132q-68 0 -103 25.5t-35 72.5q0 14 2 25l2 12h100l-1 -6q-1 -5 -1 -9q0 -32 40 -32q29 0 44.5 14t15.5 36q0 17 -11 23.5t-38 6.5h-45l15 83h39q27 0 44 13t17 36q0 30 -33 30q-47 0 -54 -38l-1 -6h-99l3 17q20 115 158 115q134 0 134 -104q0 -75 -68 -99v-2
q45 -20 45 -80q0 -63 -44.5 -98t-125.5 -35z" />
    <glyph glyph-name="uni2084" unicode="&#x2084;" 
d="M136 -120l14 80h-180l16 89l213 225h112l-41 -232h41l-15 -82h-40l-14 -80h-106zM81 42h84l20 114z" />
    <glyph glyph-name="uni2085" unicode="&#x2085;" 
d="M120 -132q-67 0 -102 27t-35 72q0 7 2 23h101v-2q0 -32 40 -32q29 0 45 17t16 44q0 38 -38 38q-33 0 -53 -20h-91l56 239h258l-15 -89h-175l-15 -65q29 16 71 16q109 0 109 -110q0 -73 -45 -115.5t-129 -42.5z" />
    <glyph glyph-name="uni2086" unicode="&#x2086;" 
d="M125 -132q-68 0 -103.5 29t-35.5 80q0 13 3 30l26 147q23 132 168 132q68 0 103 -27.5t35 -69.5q0 -7 -2 -21h-101v2q0 28 -38 28q-51 0 -61 -56l-5 -28q32 21 76 21q105 0 105 -109q0 -73 -44 -115.5t-126 -42.5zM131 -44q30 0 44 19.5t14 48.5q0 16 -6.5 23.5
t-24.5 7.5q-38 0 -60 -34l-3 -15q-2 -12 -2 -17q0 -33 38 -33z" />
    <glyph glyph-name="uni2087" unicode="&#x2087;" 
d="M10 -120q43 195 197 303h-193l16 91h308l-16 -95q-85 -67 -131.5 -136.5t-67.5 -162.5h-113z" />
    <glyph glyph-name="uni2088" unicode="&#x2088;" 
d="M120 -132q-146 0 -146 107q0 83 83 111v2q-40 21 -40 74q0 59 44.5 91.5t120.5 32.5q136 0 136 -104q0 -74 -70 -99v-2q47 -23 47 -85q0 -63 -46.5 -95.5t-128.5 -32.5zM156 120q28 0 42.5 14t14.5 36q0 29 -38 29q-56 0 -56 -47q0 -32 37 -32zM126 -45q64 0 64 49
q0 33 -43 33q-65 0 -65 -51q0 -31 44 -31z" />
    <glyph glyph-name="uni2089" unicode="&#x2089;" 
d="M118 -132q-68 0 -103 27.5t-35 69.5q0 7 2 21h101v-2q0 -28 38 -28q51 0 61 56l5 28q-32 -21 -76 -21q-105 0 -105 109q0 73 44 115.5t126 42.5q68 0 103.5 -29t35.5 -80q0 -13 -3 -30l-26 -147q-23 -132 -168 -132zM143 99q38 0 60 34l3 15q2 12 2 17q0 33 -38 33
q-30 0 -44 -19.5t-14 -48.5q0 -16 6.5 -23.5t24.5 -7.5z" />
    <glyph glyph-name="Euro" unicode="&#x20ac;" horiz-adv-x="596" 
d="M284 -12q-213 0 -213 181q0 29 5 56l1 4h-44l16 86h43l9 50h-44l16 86h43l2 12q41 229 273 229q206 0 206 -176q0 -20 -3 -46h-137q1 8 1 23q0 74 -78 74q-98 0 -117 -106l-2 -10h176l-31 -86h-160l-9 -50h152l-31 -86h-136l-2 -11q-3 -17 -3 -33q0 -72 79 -72
q94 0 115 97h137q-21 -115 -86.5 -168.5t-177.5 -53.5z" />
    <glyph glyph-name="uni20B9" unicode="&#x20b9;" horiz-adv-x="596" 
d="M286 0l-230 242l15 89h106q122 0 157 88h-260l37 96h234q-4 38 -29.5 53.5t-81.5 15.5h-131l37 96h500l-37 -96h-143q23 -26 29 -69h122l-37 -96h-89q-32 -157 -233 -181l228 -238h-194z" />
    <glyph glyph-name="uni2113" unicode="&#x2113;" horiz-adv-x="484" 
d="M228 -12q-182 0 -182 160q0 26 6 60l58 329q19 108 75 156.5t149 48.5q161 0 161 -150q0 -210 -295 -381q-4 -20 -4 -34q0 -61 68 -61q54 0 118 46l37 -111q-80 -63 -191 -63zM227 364q140 103 140 208q0 46 -39 46q-29 0 -46.5 -21.5t-25.5 -67.5z" />
    <glyph glyph-name="uni2116" unicode="&#x2116;" horiz-adv-x="1065" 
d="M29 0l120 680h154l158 -441l78 441h142l-120 -680h-142l-166 463l-82 -463h-142zM842 157q-152 0 -152 123q0 22 4 42l11 62q14 80 57.5 119t127.5 39q152 0 152 -123q0 -22 -4 -42l-11 -62q-14 -80 -57.5 -119t-127.5 -39zM846 246q30 0 46.5 16t23.5 54l12 68
q3 15 3 27q0 42 -45 42q-30 0 -46.5 -16t-23.5 -54l-12 -68q-3 -15 -3 -27q0 -42 45 -42zM640 0l16 89h328l-16 -89h-328z" />
    <glyph glyph-name="uni2117" unicode="&#x2117;" horiz-adv-x="760" 
d="M393 -12q-153 0 -252.5 99.5t-99.5 252.5t99.5 252.5t252.5 99.5t252.5 -99.5t99.5 -252.5t-99.5 -252.5t-252.5 -99.5zM393 75q115 0 185 73t70 192t-70 192t-185 73t-185 -73t-70 -192t70 -192t185 -73zM265 162v356h155q75 0 109 -29t34 -93q0 -63 -34 -92t-109 -29
h-55v-113h-100zM365 355h46q28 0 40 9.5t12 31.5q0 42 -52 42h-46v-83z" />
    <glyph glyph-name="uni2120" unicode="&#x2120;" horiz-adv-x="711" 
d="M157 342q-114 0 -114 82q0 12 2 26h85q-1 -4 -1 -12q0 -28 33 -28q22 0 33.5 10t11.5 26q0 13 -10 20.5t-39 14.5q-47 12 -66.5 32.5t-19.5 57.5q0 54 34.5 85.5t98.5 31.5q108 0 108 -85q0 -13 -1 -20h-85q1 4 1 11q0 26 -28 26q-18 0 -29.5 -9.5t-11.5 -26.5
q0 -13 10 -20.5t39 -14.5q47 -12 67 -33.5t20 -59.5q0 -56 -35.5 -85t-102.5 -29zM335 350l58 330h123l23 -186l87 186h131l-58 -330h-87l40 228l-109 -228h-56l-31 235l-41 -235h-80z" />
    <glyph glyph-name="trademark" unicode="&#x2122;" horiz-adv-x="693" 
d="M100 350l45 258h-84l13 72h255l-13 -72h-84l-45 -258h-87zM317 350l58 330h123l23 -186l87 186h131l-58 -330h-87l40 228l-109 -228h-56l-31 235l-41 -235h-80z" />
    <glyph glyph-name="uni2126" unicode="&#x2126;" horiz-adv-x="652" 
d="M10 0l22 124h79q-55 46 -55 137q0 27 6 62l17 97q25 141 100 206.5t214 65.5q242 0 242 -200q0 -37 -8 -82l-17 -97q-24 -133 -108 -189h71l-22 -124h-232l20 114q92 32 114 158l25 142q5 27 5 52q0 51 -25.5 74t-77.5 23q-65 0 -101.5 -36t-50.5 -115l-25 -142
q-5 -28 -5 -53q0 -79 64 -103l-20 -114h-232z" />
    <glyph glyph-name="estimated" unicode="&#x212e;" horiz-adv-x="794" 
d="M417 -12q-154 0 -262.5 103t-108.5 249t108.5 249t262.5 103t262.5 -103t108.5 -249v-9h-601q-5 0 -5 -5v-191q0 -10 9 -21q89 -105 228 -105q69 0 132 31.5t107 85.5h54q-52 -64 -129.5 -101t-165.5 -37zM187 351h461q6 0 6 6v193q0 12 -10 22q-94 99 -225 99
q-135 0 -228 -103q-9 -11 -9 -22v-190q0 -5 5 -5z" />
    <glyph glyph-name="uni2153" unicode="&#x2153;" horiz-adv-x="846" 
d="M630 692h105l-491 -704h-105l208 298h-281l15 87h91l33 184q-35 -6 -105 -6l14 78q82 1 120 51h99l-55 -307h91l-13 -73zM747 201q45 -20 45 -80q0 -63 -44.5 -98t-125.5 -35q-68 0 -103 25.5t-35 72.5q0 14 2 25l2 12h100l-1 -6q-1 -5 -1 -9q0 -32 40 -32q29 0 44.5 14
t15.5 36q0 17 -11 23.5t-38 6.5h-45l15 83h39q27 0 44 13t17 36q0 30 -33 30q-47 0 -54 -38l-1 -6h-99l3 17q20 115 158 115q134 0 134 -104q0 -75 -68 -99v-2z" />
    <glyph glyph-name="uni2154" unicode="&#x2154;" horiz-adv-x="846" 
d="M35 286l9 52q10 58 46 97t107 68q84 34 84 74q0 27 -35 27q-50 0 -58 -51l-1 -6h-99l4 23q21 122 162 122q133 0 133 -109q0 -55 -37 -94.5t-118 -71.5q-62 -26 -73 -42h193l-16 -89h-301zM139 -12l491 704h105l-491 -704h-105zM622 -12q-68 0 -103 25.5t-35 72.5
q0 14 2 25l2 12h100l-1 -6q-1 -5 -1 -9q0 -32 40 -32q29 0 44.5 14t15.5 36q0 17 -11 23.5t-38 6.5h-45l15 83h39q27 0 44 13t17 36q0 30 -33 30q-47 0 -54 -38l-1 -6h-99l3 17q20 115 158 115q134 0 134 -104q0 -75 -68 -99v-2q45 -20 45 -80q0 -63 -44.5 -98t-125.5 -35z
" />
    <glyph glyph-name="uni2155" unicode="&#x2155;" horiz-adv-x="846" 
d="M630 692h105l-491 -704h-105l208 298h-281l15 87h91l33 184q-35 -6 -105 -6l14 78q82 1 120 51h99l-55 -307h91l-13 -73zM805 305h-175l-15 -65q29 16 71 16q109 0 109 -110q0 -73 -45 -115.5t-129 -42.5q-67 0 -102 27t-35 72q0 7 2 23h101v-2q0 -32 40 -32q29 0 45 17
t16 44q0 38 -38 38q-33 0 -53 -20h-91l56 239h258z" />
    <glyph glyph-name="uni2156" unicode="&#x2156;" horiz-adv-x="846" 
d="M35 286l9 52q10 58 46 97t107 68q84 34 84 74q0 27 -35 27q-50 0 -58 -51l-1 -6h-99l4 23q21 122 162 122q133 0 133 -109q0 -55 -37 -94.5t-118 -71.5q-62 -26 -73 -42h193l-16 -89h-301zM139 -12l491 704h105l-491 -704h-105zM621 -12q-67 0 -102 27t-35 72q0 7 2 23
h101v-2q0 -32 40 -32q29 0 45 17t16 44q0 38 -38 38q-33 0 -53 -20h-91l56 239h258l-15 -89h-175l-15 -65q29 16 71 16q109 0 109 -110q0 -73 -45 -115.5t-129 -42.5z" />
    <glyph glyph-name="uni2157" unicode="&#x2157;" horiz-adv-x="846" 
d="M192 274q-68 0 -103 25.5t-35 72.5q0 14 2 25l2 12h100l-1 -6q-1 -5 -1 -9q0 -32 40 -32q29 0 44.5 14t15.5 36q0 17 -11 23.5t-38 6.5h-45l15 83h39q27 0 44 13t17 36q0 30 -33 30q-47 0 -54 -38l-1 -6h-99l3 17q20 115 158 115q134 0 134 -104q0 -75 -68 -99v-2
q45 -20 45 -80q0 -63 -44.5 -98t-125.5 -35zM139 -12l491 704h105l-491 -704h-105zM621 -12q-67 0 -102 27t-35 72q0 7 2 23h101v-2q0 -32 40 -32q29 0 45 17t16 44q0 38 -38 38q-33 0 -53 -20h-91l56 239h258l-15 -89h-175l-15 -65q29 16 71 16q109 0 109 -110
q0 -73 -45 -115.5t-129 -42.5z" />
    <glyph glyph-name="uni2158" unicode="&#x2158;" horiz-adv-x="846" 
d="M139 -12l491 704h105l-491 -704h-105zM208 286l14 80h-180l16 89l213 225h112l-41 -232h41l-15 -82h-40l-14 -80h-106zM153 448h84l20 114zM621 -12q-67 0 -102 27t-35 72q0 7 2 23h101v-2q0 -32 40 -32q29 0 45 17t16 44q0 38 -38 38q-33 0 -53 -20h-91l56 239h258
l-15 -89h-175l-15 -65q29 16 71 16q109 0 109 -110q0 -73 -45 -115.5t-129 -42.5z" />
    <glyph glyph-name="uni2159" unicode="&#x2159;" horiz-adv-x="846" 
d="M630 692h105l-491 -704h-105l208 298h-281l15 87h91l33 184q-35 -6 -105 -6l14 78q82 1 120 51h99l-55 -307h91l-13 -73zM820 288h-101v2q0 28 -38 28q-51 0 -61 -56l-5 -28q32 21 76 21q105 0 105 -109q0 -73 -44 -115.5t-126 -42.5q-68 0 -103.5 29t-35.5 80q0 13 3 30
l26 147q23 132 168 132q68 0 103 -27.5t35 -69.5q0 -7 -2 -21zM659 175q-38 0 -60 -34l-3 -15q-2 -12 -2 -17q0 -33 38 -33q30 0 44 19.5t14 48.5q0 16 -6.5 23.5t-24.5 7.5z" />
    <glyph glyph-name="uni215A" unicode="&#x215a;" horiz-adv-x="846" 
d="M139 -12l491 704h105l-491 -704h-105zM192 274q-67 0 -102 27t-35 72q0 7 2 23h101v-2q0 -32 40 -32q29 0 45 17t16 44q0 38 -38 38q-33 0 -53 -20h-91l56 239h258l-15 -89h-175l-15 -65q29 16 71 16q109 0 109 -110q0 -73 -45 -115.5t-129 -42.5zM626 -12
q-68 0 -103.5 29t-35.5 80q0 13 3 30l26 147q23 132 168 132q68 0 103 -27.5t35 -69.5q0 -7 -2 -21h-101v2q0 28 -38 28q-51 0 -61 -56l-5 -28q32 21 76 21q105 0 105 -109q0 -73 -44 -115.5t-126 -42.5zM632 76q30 0 44 19.5t14 48.5q0 16 -6.5 23.5t-24.5 7.5
q-38 0 -60 -34l-3 -15q-2 -12 -2 -17q0 -33 38 -33z" />
    <glyph glyph-name="oneeighth" unicode="&#x215b;" horiz-adv-x="846" 
d="M630 692h105l-491 -704h-105l208 298h-281l15 87h91l33 184q-35 -6 -105 -6l14 78q82 1 120 51h99l-55 -307h91l-13 -73zM749 201q47 -23 47 -85q0 -63 -46.5 -95.5t-128.5 -32.5q-146 0 -146 107q0 83 83 111v2q-40 21 -40 74q0 59 44.5 91.5t120.5 32.5q136 0 136 -104
q0 -74 -70 -99v-2zM657 240q28 0 42.5 14t14.5 36q0 29 -38 29q-56 0 -56 -47q0 -32 37 -32zM627 75q64 0 64 49q0 33 -43 33q-65 0 -65 -51q0 -31 44 -31z" />
    <glyph glyph-name="threeeighths" unicode="&#x215c;" horiz-adv-x="846" 
d="M192 274q-68 0 -103 25.5t-35 72.5q0 14 2 25l2 12h100l-1 -6q-1 -5 -1 -9q0 -32 40 -32q29 0 44.5 14t15.5 36q0 17 -11 23.5t-38 6.5h-45l15 83h39q27 0 44 13t17 36q0 30 -33 30q-47 0 -54 -38l-1 -6h-99l3 17q20 115 158 115q134 0 134 -104q0 -75 -68 -99v-2
q45 -20 45 -80q0 -63 -44.5 -98t-125.5 -35zM139 -12l491 704h105l-491 -704h-105zM621 -12q-146 0 -146 107q0 83 83 111v2q-40 21 -40 74q0 59 44.5 91.5t120.5 32.5q136 0 136 -104q0 -74 -70 -99v-2q47 -23 47 -85q0 -63 -46.5 -95.5t-128.5 -32.5zM657 240
q28 0 42.5 14t14.5 36q0 29 -38 29q-56 0 -56 -47q0 -32 37 -32zM627 75q64 0 64 49q0 33 -43 33q-65 0 -65 -51q0 -31 44 -31z" />
    <glyph glyph-name="fiveeighths" unicode="&#x215d;" horiz-adv-x="846" 
d="M139 -12l491 704h105l-491 -704h-105zM192 274q-67 0 -102 27t-35 72q0 7 2 23h101v-2q0 -32 40 -32q29 0 45 17t16 44q0 38 -38 38q-33 0 -53 -20h-91l56 239h258l-15 -89h-175l-15 -65q29 16 71 16q109 0 109 -110q0 -73 -45 -115.5t-129 -42.5zM621 -12
q-146 0 -146 107q0 83 83 111v2q-40 21 -40 74q0 59 44.5 91.5t120.5 32.5q136 0 136 -104q0 -74 -70 -99v-2q47 -23 47 -85q0 -63 -46.5 -95.5t-128.5 -32.5zM657 240q28 0 42.5 14t14.5 36q0 29 -38 29q-56 0 -56 -47q0 -32 37 -32zM627 75q64 0 64 49q0 33 -43 33
q-65 0 -65 -51q0 -31 44 -31z" />
    <glyph glyph-name="seveneighths" unicode="&#x215e;" horiz-adv-x="846" 
d="M112 -12l491 704h105l-491 -704h-105zM82 286q43 195 197 303h-193l16 91h308l-16 -95q-85 -67 -131.5 -136.5t-67.5 -162.5h-113zM621 -12q-146 0 -146 107q0 83 83 111v2q-40 21 -40 74q0 59 44.5 91.5t120.5 32.5q136 0 136 -104q0 -74 -70 -99v-2q47 -23 47 -85
q0 -63 -46.5 -95.5t-128.5 -32.5zM657 240q28 0 42.5 14t14.5 36q0 29 -38 29q-56 0 -56 -47q0 -32 37 -32zM627 75q64 0 64 49q0 33 -43 33q-65 0 -65 -51q0 -31 44 -31z" />
    <glyph glyph-name="arrowleft" unicode="&#x2190;" horiz-adv-x="800" 
d="M389 18l-322 322l322 322l80 -80l-182 -179h472v-126h-472l182 -179z" />
    <glyph glyph-name="arrowup" unicode="&#x2191;" horiz-adv-x="800" 
d="M349 0v469l-183 -186l-80 80l329 329l329 -329l-80 -80l-183 186v-469h-132z" />
    <glyph glyph-name="arrowright" unicode="&#x2192;" horiz-adv-x="800" 
d="M437 18l-80 80l182 179h-472v126h472l-182 179l80 80l322 -322z" />
    <glyph glyph-name="arrowdown" unicode="&#x2193;" horiz-adv-x="800" 
d="M412 -12l-329 329l80 80l183 -186v469h132v-469l183 186l80 -80z" />
    <glyph glyph-name="arrowboth" unicode="&#x2194;" horiz-adv-x="1000" 
d="M658 641l301 -301l-301 -301l-80 80l161 158h-452l161 -158l-80 -80l-301 301l301 301l80 -80l-161 -158h452l-161 158z" />
    <glyph glyph-name="arrowupdn" unicode="&#x2195;" horiz-adv-x="800" 
d="M479 139l150 153l80 -80l-296 -296l-296 296l80 80l150 -153v402l-150 -153l-80 80l296 296l296 -296l-80 -80l-150 153v-402z" />
    <glyph glyph-name="uni2196" unicode="&#x2196;" horiz-adv-x="800" 
d="M710 132l-90 -90l-362 362l2 -253h-116v457h457v-109l-260 2z" />
    <glyph glyph-name="uni2197" unicode="&#x2197;" horiz-adv-x="800" 
d="M202 42l-90 90l369 369l-260 -2v109h457v-457h-116l2 253z" />
    <glyph glyph-name="uni2198" unicode="&#x2198;" horiz-adv-x="800" 
d="M226 72v109l260 -2l-369 369l90 90l362 -362l-2 253h116v-457h-457z" />
    <glyph glyph-name="uni2199" unicode="&#x2199;" horiz-adv-x="800" 
d="M715 548l-369 -369l260 2v-109h-457v457h116l-2 -253l362 362z" />
    <glyph glyph-name="partialdiff" unicode="&#x2202;" horiz-adv-x="601" 
d="M215 -12q-93 0 -143 49.5t-50 138.5q0 119 79.5 208.5t199.5 89.5q92 0 133 -62q5 43 5 74q0 71 -25.5 103.5t-95.5 32.5q-72 0 -137 -39l22 125q58 34 155 34q126 0 177.5 -59.5t51.5 -183.5q0 -93 -24.5 -182.5t-69.5 -163.5t-117.5 -119.5t-160.5 -45.5zM236 108
q56 0 98 46.5t69 122.5q-13 77 -88 77q-64 0 -104 -53t-40 -119q0 -74 65 -74z" />
    <glyph glyph-name="emptyset" unicode="&#x2205;" horiz-adv-x="810" 
d="M150 -12l-85 85l62 62q-62 91 -62 205q0 151 101 251.5t252 100.5q117 0 205 -62l62 62l86 -85l-62 -62q62 -91 62 -205q0 -151 -101 -251.5t-252 -100.5q-115 0 -206 62zM216 223l321 322q-54 30 -119 30q-101 0 -165 -66t-64 -169q0 -66 27 -117zM418 105q101 0 165 66
t64 169q0 66 -27 117l-322 -321q53 -31 120 -31z" />
    <glyph glyph-name="uni2206" unicode="&#x2206;" horiz-adv-x="605" 
d="M-44 0l341 680h159l101 -680h-601zM171 125h216l-43 366z" />
    <glyph glyph-name="product" unicode="&#x220f;" horiz-adv-x="767" 
d="M0 -183l168 954h611l-168 -954h-139l146 828h-333l-146 -828h-139z" />
    <glyph glyph-name="summation" unicode="&#x2211;" horiz-adv-x="633" 
d="M-55 -183l22 129l345 350l-222 346l23 129h587l-22 -124h-423l232 -364l-338 -342h405l-22 -124h-587z" />
    <glyph glyph-name="minus" unicode="&#x2212;" horiz-adv-x="596" 
d="M50 250l21 118h492l-21 -118h-492z" />
    <glyph glyph-name="uni2215" unicode="&#x2215;" horiz-adv-x="423" 
d="M-65 -12l439 704h142l-439 -704h-142z" />
    <glyph glyph-name="uni2219" unicode="&#x2219;" horiz-adv-x="293" 
d="M64 231l27 155h155l-27 -155h-155z" />
    <glyph glyph-name="radical" unicode="&#x221a;" horiz-adv-x="596" 
d="M146 -183l-36 321h-80l21 116h163l23 -239l339 756h130l-433 -954h-127z" />
    <glyph glyph-name="infinity" unicode="&#x221e;" horiz-adv-x="904" 
d="M231 100q-87 0 -133.5 48.5t-46.5 133.5q0 108 68 182t179 74q71 0 113 -31t70 -86q57 65 105 91t109 26q85 0 131.5 -47.5t46.5 -134.5q0 -108 -67 -182t-178 -74q-72 0 -114 31t-70 86q-57 -66 -104.5 -91.5t-108.5 -25.5zM633 221q49 0 79.5 38t30.5 87q0 75 -80 75
q-40 0 -69 -20t-71 -78q21 -50 45.5 -76t64.5 -26zM261 217q41 0 69 19.5t72 79.5q-21 49 -45.5 75t-64.5 26q-50 0 -80 -38t-30 -89q0 -73 79 -73z" />
    <glyph glyph-name="integral" unicode="&#x222b;" horiz-adv-x="325" 
d="M-10 -194q-27 0 -75 10l19 111q19 -9 41 -9q34 0 53.5 22t27.5 69l103 585q18 103 64 147t124 44q31 0 76 -9l-20 -112q-21 9 -41 9q-67 0 -83 -91l-103 -585q-17 -98 -62.5 -144.5t-123.5 -46.5z" />
    <glyph glyph-name="approxequal" unicode="&#x2248;" horiz-adv-x="596" 
d="M416 315q-67 0 -126 51q-40 33 -66 33q-54 0 -68 -71h-104q35 190 183 190q67 0 126 -51q38 -33 66 -33q54 0 68 71h104q-35 -190 -183 -190zM374 80q-67 0 -126 51q-40 33 -66 33q-54 0 -68 -71h-104q35 190 183 190q67 0 126 -51q38 -33 66 -33q54 0 68 71h104
q-35 -190 -183 -190z" />
    <glyph glyph-name="notequal" unicode="&#x2260;" horiz-adv-x="596" 
d="M595 603l-91 -121h79l-21 -118h-146l-82 -110h209l-21 -118h-277l-91 -122h-137l91 122h-78l21 118h146l82 110h-209l21 118h276l91 121h137z" />
    <glyph glyph-name="lessequal" unicode="&#x2264;" horiz-adv-x="596" 
d="M524 148l-463 166l20 111l521 166l-23 -132l-315 -94l281 -95zM6 0l21 118h492l-21 -118h-492z" />
    <glyph glyph-name="greaterequal" unicode="&#x2265;" horiz-adv-x="596" 
d="M32 148l23 132l315 94l-281 95l21 122l463 -166l-20 -111zM5 0l21 118h492l-21 -118h-492z" />
    <glyph glyph-name="lozenge" unicode="&#x25ca;" horiz-adv-x="596" 
d="M249 -32l-212 372l338 372l212 -372zM275 169l165 182l-91 160l-165 -182z" />
    <glyph glyph-name="uniF8FF" unicode="&#xf8ff;" horiz-adv-x="649" 
d="M275 50q-101 0 -163 61t-62 163q0 101 64.5 163t185.5 62h50v116h157v-116h132v-149h-132v-51q0 -116 -63.5 -182.5t-168.5 -66.5zM278 205q72 0 72 92v53h-49q-89 0 -89 -76q0 -32 17.5 -50.5t48.5 -18.5z" />
    <glyph glyph-name="Iacute_J.loclNLD" horiz-adv-x="853" 
d="M134 742l138 140h167l-168 -140h-137zM701 742l138 140h167l-168 -140h-137zM29 0l120 680h150l-120 -680h-150zM511 -12q-108 0 -158 41.5t-50 133.5q0 31 7 71l2 12h144l-3 -17q-4 -23 -4 -43q0 -35 16.5 -52t56.5 -17q50 0 77 27.5t38 88.5l79 447h150l-81 -459
q-22 -124 -86 -178.5t-188 -54.5z" />
    <glyph glyph-name="iacute_j.loclNLD" horiz-adv-x="552" 
d="M95 590l138 140h167l-168 -140h-137zM371 590l138 140h167l-168 -140h-137zM18 0l92 522h148l-92 -522h-148zM195 -182l20 116h29q38 0 46 44l96 544h148l-97 -551q-15 -82 -51.5 -117.5t-110.5 -35.5h-80z" />
    <glyph glyph-name="i.loclTRK" horiz-adv-x="276" 
d="M119 596l22 126h156l-22 -126h-156zM18 0l92 522h148l-92 -522h-148z" />
    <glyph glyph-name="germandbls.calt" horiz-adv-x="643" 
d="M17 0l82 464q20 114 85 165t189 51h270l-20 -114l-152 -173q74 -12 106.5 -51.5t32.5 -115.5q0 -226 -281 -226h-106l22 127h89q65 0 94.5 21.5t29.5 69.5q0 35 -20.5 47t-79.5 12h-73l19 108l142 168h-77q-105 0 -121 -95l-81 -458h-150z" />
    <glyph glyph-name="zero.pf" horiz-adv-x="622" 
d="M272 -12q-106 0 -162.5 45t-56.5 133q0 30 5 58l43 244q39 224 277 224q106 0 162.5 -45t56.5 -133q0 -30 -5 -58l-43 -244q-39 -224 -277 -224zM284 113q51 0 79.5 26t38.5 85l41 233q5 28 5 39q0 36 -19.5 53.5t-62.5 17.5q-51 0 -79.5 -26t-38.5 -85l-41 -233
q-5 -28 -5 -39q0 -36 19.5 -53.5t62.5 -17.5z" />
    <glyph glyph-name="one.pf" horiz-adv-x="457" 
d="M175 0l88 495q-61 -16 -186 -18l20 115q130 3 206 88h140l-120 -680h-148z" />
    <glyph glyph-name="two.pf" horiz-adv-x="571" 
d="M-7 0l13 74q18 101 76.5 162.5t183.5 114.5q85 36 123 72t38 79q0 65 -80 65q-104 0 -122 -105l-3 -17h-140l7 40q37 207 271 207q215 0 215 -176q0 -92 -61.5 -160t-196.5 -127q-73 -31 -106 -53.5t-45 -48.5h342l-22 -127h-493z" />
    <glyph glyph-name="three.pf" horiz-adv-x="593" 
d="M256 -12q-110 0 -167 41.5t-57 116.5q0 17 4 39l6 34h143l-3 -17q-2 -12 -2 -26q0 -63 87 -63q58 0 91 27.5t33 74.5q0 35 -23 50.5t-77 15.5h-66l21 124h61q58 0 89 26t31 72q0 32 -16.5 48t-57.5 16q-100 0 -115 -89l-2 -12h-141l5 28q35 198 267 198q210 0 210 -167
q0 -126 -115 -172v-2q77 -34 77 -135q0 -108 -75 -168t-208 -60z" />
    <glyph glyph-name="four.pf" horiz-adv-x="599" 
d="M306 0l25 139h-318l23 130l379 411h159l-74 -420h70l-22 -121h-69l-25 -139h-148zM187 260h165l40 229z" />
    <glyph glyph-name="five.pf" horiz-adv-x="573" 
d="M244 -12q-105 0 -162 42.5t-57 121.5q0 18 3 38h141v-10q0 -67 86 -67q64 0 98.5 38.5t34.5 95.5q0 82 -82 82q-61 0 -111 -41h-129l94 392h423l-23 -127h-298l-33 -135q55 33 129 33q91 0 135.5 -45t44.5 -140q0 -127 -76.5 -202.5t-217.5 -75.5z" />
    <glyph glyph-name="six.pf" horiz-adv-x="619" 
d="M277 -12q-108 0 -164.5 45t-56.5 133q0 30 5 57l42 239q41 230 285 230q107 0 159.5 -43t52.5 -121q0 -22 -2 -34h-142v7q0 66 -81 66q-105 0 -126 -117l-11 -60q60 49 146 49t130.5 -43.5t44.5 -123.5q0 -134 -73.5 -209t-208.5 -75zM289 113q57 0 88.5 38t31.5 96
q0 67 -73 67q-77 0 -125 -77l-2 -13q-3 -17 -3 -33q0 -78 83 -78z" />
    <glyph glyph-name="seven.pf" horiz-adv-x="539" 
d="M61 0q74 340 347 550h-340l23 130h500l-24 -134q-146 -122 -229 -251t-119 -295h-158z" />
    <glyph glyph-name="eight.pf" horiz-adv-x="612" 
d="M262 -12q-231 0 -231 176q0 143 138 191v2q-66 36 -66 123q0 96 73.5 154t201.5 58q217 0 217 -169q0 -124 -117 -170v-2q77 -38 77 -139q0 -107 -78.5 -165.5t-214.5 -58.5zM328 406q57 0 87.5 28.5t30.5 71.5q0 63 -80 63q-57 0 -88.5 -26t-31.5 -70q0 -67 82 -67z
M273 111q65 0 100 26t35 75q0 37 -22 54t-70 17q-65 0 -101 -28t-36 -76q0 -36 22.5 -52t71.5 -16z" />
    <glyph glyph-name="nine.pf" horiz-adv-x="619" 
d="M259 -12q-107 0 -159.5 43t-52.5 121q0 22 2 34h142v-7q0 -66 81 -66q105 0 126 117l11 60q-60 -49 -146 -49t-130.5 43.5t-44.5 123.5q0 134 73.5 209t208.5 75q108 0 164.5 -45t56.5 -133q0 -30 -5 -57l-42 -239q-41 -230 -285 -230zM311 366q77 0 125 77l2 14
q3 17 3 32q0 78 -83 78q-57 0 -88.5 -38t-31.5 -96q0 -67 73 -67z" />
    <glyph glyph-name="zero.numr" 
d="M193 274q-68 0 -103.5 28t-35.5 81q0 13 3 30l27 153q22 126 166 126q68 0 103.5 -28t35.5 -81q0 -13 -3 -30l-27 -153q-22 -126 -166 -126zM198 362q48 0 57 51l25 141q2 12 2 17q0 33 -37 33q-48 0 -57 -51l-25 -141q-2 -12 -2 -17q0 -33 37 -33z" />
    <glyph glyph-name="one.numr" 
d="M66 286l15 87h91l33 184q-35 -6 -105 -6l14 78q82 1 120 51h99l-55 -307h91l-15 -87h-288z" />
    <glyph glyph-name="two.numr" 
d="M35 286l9 52q10 58 46 97t107 68q84 34 84 74q0 27 -35 27q-50 0 -58 -51l-1 -6h-99l4 23q21 122 162 122q133 0 133 -109q0 -55 -37 -94.5t-118 -71.5q-62 -26 -73 -42h193l-16 -89h-301z" />
    <glyph glyph-name="three.numr" 
d="M192 274q-68 0 -103 25.5t-35 72.5q0 14 2 25l2 12h100l-1 -6q-1 -5 -1 -9q0 -32 40 -32q29 0 44.5 14t15.5 36q0 17 -11 23.5t-38 6.5h-45l15 83h39q27 0 44 13t17 36q0 30 -33 30q-47 0 -54 -38l-1 -6h-99l3 17q20 115 158 115q134 0 134 -104q0 -75 -68 -99v-2
q45 -20 45 -80q0 -63 -44.5 -98t-125.5 -35z" />
    <glyph glyph-name="four.numr" 
d="M208 286l14 80h-180l16 89l213 225h112l-41 -232h41l-15 -82h-40l-14 -80h-106zM153 448h84l20 114z" />
    <glyph glyph-name="five.numr" 
d="M192 274q-67 0 -102 27t-35 72q0 7 2 23h101v-2q0 -32 40 -32q29 0 45 17t16 44q0 38 -38 38q-33 0 -53 -20h-91l56 239h258l-15 -89h-175l-15 -65q29 16 71 16q109 0 109 -110q0 -73 -45 -115.5t-129 -42.5z" />
    <glyph glyph-name="six.numr" 
d="M196 274q-68 0 -103.5 29t-35.5 80q0 13 3 30l26 147q23 132 168 132q68 0 103 -27.5t35 -69.5q0 -7 -2 -21h-101v2q0 28 -38 28q-51 0 -61 -56l-5 -28q32 21 76 21q105 0 105 -109q0 -73 -44 -115.5t-126 -42.5zM202 362q30 0 44 19.5t14 48.5q0 16 -6.5 23.5t-24.5 7.5
q-38 0 -60 -34l-3 -15q-2 -12 -2 -17q0 -33 38 -33z" />
    <glyph glyph-name="seven.numr" 
d="M82 286q43 195 197 303h-193l16 91h308l-16 -95q-85 -67 -131.5 -136.5t-67.5 -162.5h-113z" />
    <glyph glyph-name="eight.numr" 
d="M192 274q-146 0 -146 107q0 83 83 111v2q-40 21 -40 74q0 59 44.5 91.5t120.5 32.5q136 0 136 -104q0 -74 -70 -99v-2q47 -23 47 -85q0 -63 -46.5 -95.5t-128.5 -32.5zM228 526q28 0 42.5 14t14.5 36q0 29 -38 29q-56 0 -56 -47q0 -32 37 -32zM198 361q64 0 64 49
q0 33 -43 33q-65 0 -65 -51q0 -31 44 -31z" />
    <glyph glyph-name="nine.numr" 
d="M189 274q-68 0 -103 27.5t-35 69.5q0 7 2 21h101v-2q0 -28 38 -28q51 0 61 56l5 28q-32 -21 -76 -21q-105 0 -105 109q0 73 44 115.5t126 42.5q68 0 103.5 -29t35.5 -80q0 -13 -3 -30l-26 -147q-23 -132 -168 -132zM214 505q38 0 60 34l3 15q2 12 2 17q0 33 -38 33
q-30 0 -44 -19.5t-14 -48.5q0 -16 6.5 -23.5t24.5 -7.5z" />
    <glyph glyph-name="zero.dnom" 
d="M143 -12q-68 0 -103.5 28t-35.5 81q0 13 3 30l27 153q22 126 166 126q68 0 103.5 -28t35.5 -81q0 -13 -3 -30l-27 -153q-22 -126 -166 -126zM148 76q48 0 57 51l25 141q2 12 2 17q0 33 -37 33q-48 0 -57 -51l-25 -141q-2 -12 -2 -17q0 -33 37 -33z" />
    <glyph glyph-name="one.dnom" 
d="M15 0l15 87h91l33 184q-35 -6 -105 -6l14 78q82 1 120 51h99l-55 -307h91l-15 -87h-288z" />
    <glyph glyph-name="two.dnom" 
d="M-16 0l9 52q10 58 46 97t107 68q84 34 84 74q0 27 -35 27q-49 0 -58 -51l-1 -6h-99l4 23q21 122 162 122q133 0 133 -109q0 -55 -37 -94.5t-118 -71.5q-62 -26 -73 -42h193l-16 -89h-301z" />
    <glyph glyph-name="three.dnom" 
d="M142 -12q-68 0 -103 25.5t-35 72.5q0 14 2 25l2 12h100l-1 -6q-1 -5 -1 -9q0 -32 40 -32q29 0 44.5 14t15.5 36q0 17 -11 23.5t-38 6.5h-45l15 83h39q27 0 44 13t17 36q0 30 -33 30q-47 0 -54 -38l-1 -6h-99l3 17q20 115 158 115q134 0 134 -104q0 -75 -68 -99v-2
q45 -20 45 -80q0 -63 -44.5 -98t-125.5 -35z" />
    <glyph glyph-name="four.dnom" 
d="M157 0l14 80h-180l16 89l213 225h112l-41 -232h41l-15 -82h-40l-14 -80h-106zM102 162h84l20 114z" />
    <glyph glyph-name="five.dnom" 
d="M141 -12q-67 0 -102 27t-35 72q0 7 2 23h101v-2q0 -32 40 -32q29 0 45 17t16 44q0 38 -38 38q-33 0 -53 -20h-91l56 239h258l-15 -89h-175l-15 -65q29 16 71 16q109 0 109 -110q0 -73 -45 -115.5t-129 -42.5z" />
    <glyph glyph-name="six.dnom" 
d="M146 -12q-68 0 -103.5 29t-35.5 80q0 13 3 30l26 147q23 132 168 132q68 0 103 -27.5t35 -69.5q0 -7 -2 -21h-101v2q0 28 -38 28q-51 0 -61 -56l-5 -28q32 21 76 21q105 0 105 -109q0 -73 -44 -115.5t-126 -42.5zM152 76q30 0 44 19.5t14 48.5q0 16 -6.5 23.5t-24.5 7.5
q-38 0 -60 -34l-3 -15q-2 -12 -2 -17q0 -33 38 -33z" />
    <glyph glyph-name="seven.dnom" 
d="M31 0q43 195 197 303h-193l16 91h308l-16 -95q-85 -67 -131.5 -136.5t-67.5 -162.5h-113z" />
    <glyph glyph-name="eight.dnom" 
d="M141 -12q-146 0 -146 107q0 83 83 111v2q-40 21 -40 74q0 59 44.5 91.5t120.5 32.5q136 0 136 -104q0 -74 -70 -99v-2q47 -23 47 -85q0 -63 -46.5 -95.5t-128.5 -32.5zM177 240q28 0 42.5 14t14.5 36q0 29 -38 29q-56 0 -56 -47q0 -32 37 -32zM147 75q64 0 64 49
q0 33 -43 33q-65 0 -65 -51q0 -31 44 -31z" />
    <glyph glyph-name="nine.dnom" 
d="M139 -12q-68 0 -103 27.5t-35 69.5q0 7 2 21h101v-2q0 -28 38 -28q51 0 61 56l5 28q-32 -21 -76 -21q-105 0 -105 109q0 73 44 115.5t126 42.5q68 0 103.5 -29t35.5 -80q0 -13 -3 -30l-26 -147q-23 -132 -168 -132zM164 219q38 0 60 34l3 15q2 12 2 17q0 33 -38 33
q-30 0 -44 -19.5t-14 -48.5q0 -16 6.5 -23.5t24.5 -7.5z" />
    <glyph glyph-name="exclamdown.case" horiz-adv-x="309" 
d="M124 525l27 155h155l-27 -155h-155zM31 0l37 194l68 262h107l-26 -262l-31 -194h-155z" />
    <glyph glyph-name="questiondown.case" horiz-adv-x="467" 
d="M224 525l27 155h154l-27 -155h-154zM198 -12q-95 0 -145.5 38.5t-50.5 110.5q0 67 30 113.5t98 85.5q45 26 65 48.5t26 54.5l3 17h129l-5 -28q-10 -60 -38.5 -98.5t-85.5 -73.5q-41 -25 -57 -46.5t-16 -50.5q0 -46 58 -46q81 0 96 88h139q-19 -109 -79 -161t-167 -52z
" />
    <glyph glyph-name="at.case" horiz-adv-x="752" 
d="M394 -22q-165 0 -258.5 87t-93.5 239q0 170 111.5 283.5t287.5 113.5q144 0 233 -79t89 -211q0 -103 -53 -174t-151 -71q-81 0 -106 54q-48 -54 -116 -54q-104 0 -104 102q0 22 3 40l12 68q23 129 133 129q70 0 102 -54l13 42h88l-34 -193q-2 -10 -2 -20q0 -26 25 -26
q28 0 47.5 27t27 61t7.5 70q0 93 -57 143.5t-154 50.5q-130 0 -210 -86t-80 -214q0 -110 62.5 -171t174.5 -61q105 0 187 51l31 -96q-90 -51 -215 -51zM375 256q35 0 62 37l16 87q-11 36 -47 36q-40 0 -49 -48l-12 -68q-1 -6 -1 -11q0 -33 31 -33z" />
    <glyph glyph-name="parenleft.case" horiz-adv-x="343" 
d="M265 -96q-209 54 -209 328q0 125 40.5 239t125 198.5t197.5 106.5l-21 -117q-68 -33 -117.5 -113t-71 -169t-21.5 -175q0 -81 22.5 -126.5t71.5 -70.5z" />
    <glyph glyph-name="parenright.case" horiz-adv-x="343" 
d="M-48 -96l21 117q68 33 117.5 113t71 169t21.5 175q0 81 -22.5 126.5t-71.5 70.5l17 101q209 -54 209 -328q0 -125 -40.5 -239t-125 -198.5t-197.5 -106.5z" />
    <glyph glyph-name="braceleft.case" horiz-adv-x="343" 
d="M191 -84q-71 0 -105 30.5t-34 94.5q0 29 6 63l20 112q3 16 3 29q0 24 -13 33t-44 9l18 106q37 0 55 16t25 57l21 120q17 100 61.5 139t128.5 39h84l-19 -107h-42q-38 0 -54 -17.5t-24 -65.5l-19 -109q-10 -56 -33.5 -86t-64.5 -40v-2q56 -19 56 -91q0 -21 -4 -41
l-18 -102q-4 -21 -4 -40q0 -23 11 -31.5t40 -8.5h44l-19 -107h-76z" />
    <glyph glyph-name="braceright.case" horiz-adv-x="343" 
d="M-46 -84l19 107h42q38 0 54 17.5t24 65.5l19 109q10 56 33.5 86t64.5 40v2q-56 19 -56 91q0 21 4 41l18 102q4 21 4 40q0 23 -11 31.5t-40 8.5h-44l19 107h76q71 0 105 -30.5t34 -94.5q0 -29 -6 -63l-20 -112q-3 -16 -3 -29q0 -24 13 -33t44 -9l-18 -106q-37 0 -55 -16
t-25 -57l-21 -120q-17 -100 -61.5 -139t-128.5 -39h-84z" />
    <glyph glyph-name="bracketleft.case" horiz-adv-x="343" 
d="M11 -84l150 848h256l-19 -107h-118l-112 -634h118l-19 -107h-256z" />
    <glyph glyph-name="bracketright.case" horiz-adv-x="343" 
d="M-46 -84l19 107h118l112 634h-118l19 107h256l-150 -848h-256z" />
    <glyph glyph-name="bar.case" horiz-adv-x="290" 
d="M12 -160l176 1000h118l-176 -1000h-118z" />
    <glyph glyph-name="brokenbar.case" horiz-adv-x="290" 
d="M117 440l70 400h118l-70 -400h-118zM11 -160l71 400h118l-71 -400h-118z" />
    <glyph glyph-name="periodcentered.case" horiz-adv-x="293" 
d="M69 262l27 155h155l-27 -155h-155z" />
    <glyph glyph-name="bullet.case" horiz-adv-x="500" 
d="M113 211l45 258h258l-45 -258h-258z" />
    <glyph glyph-name="hyphen.case" horiz-adv-x="383" 
d="M36 276l23 128h317l-23 -128h-317z" />
    <glyph glyph-name="uni00AD.case" horiz-adv-x="383" 
d="M36 276l23 128h317l-23 -128h-317z" />
    <glyph glyph-name="figuredash.case" horiz-adv-x="596" 
d="M34 283l20 114h536l-20 -114h-536z" />
    <glyph glyph-name="endash.case" horiz-adv-x="500" 
d="M34 283l20 114h440l-20 -114h-440z" />
    <glyph glyph-name="emdash.case" horiz-adv-x="900" 
d="M34 283l20 114h840l-20 -114h-840z" />
    <glyph glyph-name="guillemotleft.case" horiz-adv-x="557" 
d="M135 160l-104 184l160 176h160l-174 -191l96 -169h-138zM381 160l-104 184l160 176h160l-174 -191l96 -169h-138z" />
    <glyph glyph-name="guillemotright.case" horiz-adv-x="557" 
d="M-12 160l174 191l-96 169h138l104 -184l-160 -176h-160zM234 160l174 191l-96 169h138l104 -184l-160 -176h-160z" />
    <glyph glyph-name="guilsinglleft.case" horiz-adv-x="311" 
d="M135 160l-104 184l160 176h160l-174 -191l96 -169h-138z" />
    <glyph glyph-name="guilsinglright.case" horiz-adv-x="311" 
d="M-12 160l174 191l-96 169h138l104 -184l-160 -176h-160z" />
    <glyph glyph-name="caron.alt" horiz-adv-x="185" 
d="M59 508l77 222h141l-120 -222h-98z" />
    <glyph glyph-name="ringacute" horiz-adv-x="500" 
d="M248 822l138 140h167l-168 -140h-137zM316 563q-51 0 -83 30.5t-32 77.5q0 53 37.5 89t93.5 36q51 0 83 -30.5t32 -77.5q0 -53 -37.5 -89t-93.5 -36zM319 638q19 0 31 14t12 35q0 34 -33 34q-19 0 -31 -14t-12 -35q0 -34 33 -34z" />
    <glyph glyph-name="NULL" horiz-adv-x="0" 
 />
    </font>
</defs>
</svg>
